  0
SECTION
  2
HEADER
  9
$ACADVER
  1
AC1018
  9
$ACADMAINTVER
 70
     0
  9
$DWGCODEPAGE
  3
ANSI_1252
  9
$INSBASE
 10
0.0
 20
0.0
 30
0.0
  9
$EXTMIN
 10
72886.69260095056
 20
-26887.48381676127
 30
0.0
  9
$EXTMAX
 10
74977.20513892894
 20
-25452.48381065776
 30
0.0
  9
$LIMMIN
 10
0.0
 20
0.0
  9
$LIMMAX
 10
420.0
 20
297.0
  9
$ORTHOMODE
 70
     0
  9
$REGENMODE
 70
     1
  9
$FILLMODE
 70
     1
  9
$QTEXTMODE
 70
     0
  9
$MIRRTEXT
 70
     1
  9
$LTSCALE
 40
1.0
  9
$ATTMODE
 70
     1
  9
$TEXTSIZE
 40
0.2
  9
$TRACEWID
 40
1.0
  9
$TEXTSTYLE
  7
CENTURY GOTHIC
  9
$CLAYER
  8
MSS2-500-390
  9
$CELTYPE
  6
DASHED1
  9
$CECOLOR
 62
   256
  9
$CELTSCALE
 40
1.0
  9
$DISPSILH
 70
     0
  9
$DIMSCALE
 40
1.0
  9
$DIMASZ
 40
2.5
  9
$DIMEXO
 40
0.625
  9
$DIMDLI
 40
3.75
  9
$DIMRND
 40
0.0
  9
$DIMDLE
 40
0.0
  9
$DIMEXE
 40
1.25
  9
$DIMTP
 40
0.0
  9
$DIMTM
 40
0.0
  9
$DIMTXT
 40
2.5
  9
$DIMCEN
 40
2.5
  9
$DIMTSZ
 40
0.0
  9
$DIMTOL
 70
     0
  9
$DIMLIM
 70
     0
  9
$DIMTIH
 70
     0
  9
$DIMTOH
 70
     0
  9
$DIMSE1
 70
     0
  9
$DIMSE2
 70
     0
  9
$DIMTAD
 70
     1
  9
$DIMZIN
 70
     8
  9
$DIMBLK
  1

  9
$DIMASO
 70
     1
  9
$DIMSHO
 70
     1
  9
$DIMPOST
  1

  9
$DIMAPOST
  1

  9
$DIMALT
 70
     0
  9
$DIMALTD
 70
     3
  9
$DIMALTF
 40
0.03937007874016
  9
$DIMLFAC
 40
1.0
  9
$DIMTOFL
 70
     1
  9
$DIMTVP
 40
0.0
  9
$DIMTIX
 70
     0
  9
$DIMSOXD
 70
     0
  9
$DIMSAH
 70
     0
  9
$DIMBLK1
  1

  9
$DIMBLK2
  1

  9
$DIMSTYLE
  2
ISO-25
  9
$DIMCLRD
 70
     0
  9
$DIMCLRE
 70
     0
  9
$DIMCLRT
 70
     0
  9
$DIMTFAC
 40
1.0
  9
$DIMGAP
 40
0.625
  9
$DIMJUST
 70
     0
  9
$DIMSD1
 70
     0
  9
$DIMSD2
 70
     0
  9
$DIMTOLJ
 70
     0
  9
$DIMTZIN
 70
     8
  9
$DIMALTZ
 70
     0
  9
$DIMALTTZ
 70
     0
  9
$DIMUPT
 70
     0
  9
$DIMDEC
 70
     2
  9
$DIMTDEC
 70
     2
  9
$DIMALTU
 70
     2
  9
$DIMALTTD
 70
     3
  9
$DIMTXSTY
  7
Standard
  9
$DIMAUNIT
 70
     0
  9
$DIMADEC
 70
     0
  9
$DIMALTRND
 40
0.0
  9
$DIMAZIN
 70
     0
  9
$DIMDSEP
 70
    44
  9
$DIMATFIT
 70
     3
  9
$DIMFRAC
 70
     0
  9
$DIMLDRBLK
  1

  9
$DIMLUNIT
 70
     2
  9
$DIMLWD
 70
    -2
  9
$DIMLWE
 70
    -2
  9
$DIMTMOVE
 70
     0
  9
$LUNITS
 70
     2
  9
$LUPREC
 70
     4
  9
$SKETCHINC
 40
1.0
  9
$FILLETRAD
 40
10.0
  9
$AUNITS
 70
     0
  9
$AUPREC
 70
     0
  9
$MENU
  1
.
  9
$ELEVATION
 40
0.0
  9
$PELEVATION
 40
0.0
  9
$THICKNESS
 40
0.0
  9
$LIMCHECK
 70
     0
  9
$CHAMFERA
 40
10.0
  9
$CHAMFERB
 40
10.0
  9
$CHAMFERC
 40
20.0
  9
$CHAMFERD
 40
0.0
  9
$SKPOLY
 70
     0
  9
$TDCREATE
 40
2458005.657929074
  9
$TDUCREATE
 40
2458005.574595741
  9
$TDUPDATE
 40
2458005.65796206
  9
$TDUUPDATE
 40
2458005.574628727
  9
$TDINDWG
 40
0.0000000116
  9
$TDUSRTIMER
 40
0.0000000116
  9
$USRTIMER
 70
     1
  9
$ANGBASE
 50
0.0
  9
$ANGDIR
 70
     0
  9
$PDMODE
 70
     0
  9
$PDSIZE
 40
0.0
  9
$PLINEWID
 40
0.0
  9
$SPLFRAME
 70
     0
  9
$SPLINETYPE
 70
     6
  9
$SPLINESEGS
 70
     8
  9
$HANDSEED
  5
20B
  9
$SURFTAB1
 70
     6
  9
$SURFTAB2
 70
     6
  9
$SURFTYPE
 70
     6
  9
$SURFU
 70
     6
  9
$SURFV
 70
     6
  9
$UCSBASE
  2

  9
$UCSNAME
  2

  9
$UCSORG
 10
0.0
 20
0.0
 30
0.0
  9
$UCSXDIR
 10
1.0
 20
0.0
 30
0.0
  9
$UCSYDIR
 10
0.0
 20
1.0
 30
0.0
  9
$UCSORTHOREF
  2

  9
$UCSORTHOVIEW
 70
     0
  9
$UCSORGTOP
 10
0.0
 20
0.0
 30
0.0
  9
$UCSORGBOTTOM
 10
0.0
 20
0.0
 30
0.0
  9
$UCSORGLEFT
 10
0.0
 20
0.0
 30
0.0
  9
$UCSORGRIGHT
 10
0.0
 20
0.0
 30
0.0
  9
$UCSORGFRONT
 10
0.0
 20
0.0
 30
0.0
  9
$UCSORGBACK
 10
0.0
 20
0.0
 30
0.0
  9
$PUCSBASE
  2

  9
$PUCSNAME
  2

  9
$PUCSORG
 10
0.0
 20
0.0
 30
0.0
  9
$PUCSXDIR
 10
1.0
 20
0.0
 30
0.0
  9
$PUCSYDIR
 10
0.0
 20
1.0
 30
0.0
  9
$PUCSORTHOREF
  2

  9
$PUCSORTHOVIEW
 70
     0
  9
$PUCSORGTOP
 10
0.0
 20
0.0
 30
0.0
  9
$PUCSORGBOTTOM
 10
0.0
 20
0.0
 30
0.0
  9
$PUCSORGLEFT
 10
0.0
 20
0.0
 30
0.0
  9
$PUCSORGRIGHT
 10
0.0
 20
0.0
 30
0.0
  9
$PUCSORGFRONT
 10
0.0
 20
0.0
 30
0.0
  9
$PUCSORGBACK
 10
0.0
 20
0.0
 30
0.0
  9
$USERI1
 70
     0
  9
$USERI2
 70
     0
  9
$USERI3
 70
     0
  9
$USERI4
 70
     0
  9
$USERI5
 70
     0
  9
$USERR1
 40
0.0
  9
$USERR2
 40
0.0
  9
$USERR3
 40
0.0
  9
$USERR4
 40
0.0
  9
$USERR5
 40
0.0
  9
$WORLDVIEW
 70
     1
  9
$SHADEDGE
 70
     3
  9
$SHADEDIF
 70
    70
  9
$TILEMODE
 70
     1
  9
$MAXACTVP
 70
    64
  9
$PINSBASE
 10
0.0
 20
0.0
 30
0.0
  9
$PLIMCHECK
 70
     0
  9
$PEXTMIN
 10
1.000000000000000E+20
 20
1.000000000000000E+20
 30
1.000000000000000E+20
  9
$PEXTMAX
 10
-1.000000000000000E+20
 20
-1.000000000000000E+20
 30
-1.000000000000000E+20
  9
$PLIMMIN
 10
0.0
 20
0.0
  9
$PLIMMAX
 10
420.0
 20
297.0
  9
$UNITMODE
 70
     0
  9
$VISRETAIN
 70
     1
  9
$PLINEGEN
 70
     0
  9
$PSLTSCALE
 70
     1
  9
$TREEDEPTH
 70
  3020
  9
$CMLSTYLE
  2
Standard
  9
$CMLJUST
 70
     0
  9
$CMLSCALE
 40
20.0
  9
$PROXYGRAPHICS
 70
     1
  9
$MEASUREMENT
 70
     1
  9
$CELWEIGHT
370
    -1
  9
$ENDCAPS
280
     0
  9
$JOINSTYLE
280
     0
  9
$LWDISPLAY
290
     0
  9
$INSUNITS
 70
     4
  9
$HYPERLINKBASE
  1

  9
$STYLESHEET
  1

  9
$XEDIT
290
     1
  9
$CEPSNTYPE
380
     0
  9
$PSTYLEMODE
290
     1
  9
$FINGERPRINTGUID
  2
{DE4E11D7-916C-45B0-B8B1-587BE961EBFF}
  9
$VERSIONGUID
  2
{FAEB1C32-E019-11D5-929B-00C0DF256EC4}
  9
$EXTNAMES
290
     1
  9
$PSVPSCALE
 40
0.0
  9
$OLESTARTUP
290
     0
  9
$SORTENTS
280
   127
  9
$INDEXCTL
280
     0
  9
$HIDETEXT
280
     1
  9
$XCLIPFRAME
290
     0
  9
$HALOGAP
280
     0
  9
$OBSCOLOR
 70
   257
  9
$OBSLTYPE
280
     0
  9
$INTERSECTIONDISPLAY
280
     0
  9
$INTERSECTIONCOLOR
 70
   257
  9
$DIMASSOC
280
     2
  9
$PROJECTNAME
  1

  0
ENDSEC
  0
SECTION
  2
CLASSES
  0
CLASS
  1
ACDBDICTIONARYWDFLT
  2
AcDbDictionaryWithDefault
  3
ObjectDBX Classes
 90
        0
 91
        4
280
     0
281
     0
  0
CLASS
  1
VISUALSTYLE
  2
AcDbVisualStyle
  3
ObjectDBX Classes
 90
     4095
 91
        4
280
     0
281
     0
  0
CLASS
  1
MATERIAL
  2
AcDbMaterial
  3
ObjectDBX Classes
 90
     1153
 91
        4
280
     0
281
     0
  0
CLASS
  1
SCALE
  2
AcDbScale
  3
ObjectDBX Classes
 90
     1153
 91
        4
280
     0
281
     0
  0
CLASS
  1
DICTIONARYVAR
  2
AcDbDictionaryVar
  3
ObjectDBX Classes
 90
        0
 91
        4
280
     0
281
     0
  0
ENDSEC
  0
SECTION
  2
TABLES
  0
TABLE
  2
VPORT
  5
8
330
0
100
AcDbSymbolTable
 70
     1
  0
VPORT
  5
29
330
8
100
AcDbSymbolTableRecord
100
AcDbViewportTableRecord
  2
*Active
 70
     0
 10
0.0
 20
0.0
 11
1.0
 21
1.0
 12
37138.0678929138
 22
-13010.74190685476
 13
0.0
 23
0.0
 14
10.0
 24
10.0
 15
10.0
 25
10.0
 16
0.0
 26
0.0
 36
1.0
 17
0.0
 27
0.0
 37
0.0
 40
1463.700006225587
 41
1.456803156158023
 42
50.0
 43
0.0
 44
0.0
 50
0.0
 51
0.0
 71
     0
 72
   100
 73
     1
 74
     3
 75
     0
 76
     0
 77
     0
 78
     0
281
     0
 65
     1
110
0.0
120
0.0
130
0.0
111
1.0
121
0.0
131
0.0
112
0.0
122
1.0
132
0.0
 79
     0
146
0.0
  0
ENDTAB
  0
TABLE
  2
LTYPE
  5
5
330
0
100
AcDbSymbolTable
 70
     2
  0
LTYPE
  5
14
330
5
100
AcDbSymbolTableRecord
100
AcDbLinetypeTableRecord
  2
ByBlock
 70
     0
  3

 72
    65
 73
     0
 40
0.0
  0
LTYPE
  5
15
330
5
100
AcDbSymbolTableRecord
100
AcDbLinetypeTableRecord
  2
ByLayer
 70
     0
  3

 72
    65
 73
     0
 40
0.0
  0
LTYPE
  5
16
330
5
100
AcDbSymbolTableRecord
100
AcDbLinetypeTableRecord
  2
Continuous
 70
     0
  3
Solid line
 72
    65
 73
     0
 40
0.0
  0
LTYPE
  5
7C
330
5
100
AcDbSymbolTableRecord
100
AcDbLinetypeTableRecord
  2
DASHED1
 70
     0
  3

 72
    65
 73
     3
 40
1.0
 49
0.3
 74
     0
 49
-0.4
 74
     0
 49
0.3
 74
     0
  0
ENDTAB
  0
TABLE
  2
LAYER
  5
2
330
0
100
AcDbSymbolTable
 70
     5
  0
LAYER
  5
10
330
2
100
AcDbSymbolTableRecord
100
AcDbLayerTableRecord
  2
0
 70
     0
 62
     7
  6
Continuous
370
    -3
390
F
  0
LAYER
  5
3F
330
2
100
AcDbSymbolTableRecord
100
AcDbLayerTableRecord
  2
allgemein
 70
     0
 62
    18
420
        0
  6
Continuous
370
    25
390
F
  0
LAYER
  5
74
330
2
100
AcDbSymbolTableRecord
100
AcDbLayerTableRecord
  2
Beschriftung Allgemein
 70
     0
 62
    18
420
        0
  6
Continuous
370
    25
390
F
  0
LAYER
  5
75
330
2
100
AcDbSymbolTableRecord
100
AcDbLayerTableRecord
  2
MSS2-500-390
 70
     0
 62
    18
420
        0
  6
Continuous
370
    25
390
F
  0
LAYER
  5
14B
330
2
100
AcDbSymbolTableRecord
100
AcDbLayerTableRecord
  2
Defpoints
 70
     0
 62
     7
  6
Continuous
290
     0
370
    -3
390
F
  0
ENDTAB
  0
TABLE
  2
STYLE
  5
3
330
0
100
AcDbSymbolTable
 70
     6
  0
STYLE
  5
11
330
3
100
AcDbSymbolTableRecord
100
AcDbTextStyleTableRecord
  2
Standard
 70
     0
 40
0.0
 41
1.0
 50
0.0
 71
     0
 42
2.5
  3
txt
  4

  0
STYLE
  5
149
330
3
100
AcDbSymbolTableRecord
100
AcDbTextStyleTableRecord
  2
ARIAL
 70
     0
 40
0.0
 41
1.0
 50
0.0
 71
     0
 42
0.2
  3
ARIAL
  4

  0
STYLE
  5
15E
330
3
100
AcDbSymbolTableRecord
100
AcDbTextStyleTableRecord
  2
ROMAN
 70
     0
 40
0.0
 41
1.0
 50
0.0
 71
     0
 42
0.2
  3
ROMAN
  4

  0
STYLE
  5
1B1
330
3
100
AcDbSymbolTableRecord
100
AcDbTextStyleTableRecord
  2
HLV-L
 70
     0
 40
0.0
 41
1.0
 50
0.0
 71
     0
 42
0.2
  3
HLV-L
  4

  0
STYLE
  5
1B7
330
3
100
AcDbSymbolTableRecord
100
AcDbTextStyleTableRecord
  2
HELV-HFT
 70
     0
 40
0.0
 41
1.0
 50
0.0
 71
     0
 42
0.2
  3
HELV-HFT
  4

  0
STYLE
  5
1B9
330
3
100
AcDbSymbolTableRecord
100
AcDbTextStyleTableRecord
  2
CENTURY GOTHIC
 70
     0
 40
0.0
 41
1.0
 50
0.0
 71
     0
 42
0.2
  3
CENTURY GOTHIC
  4

  0
ENDTAB
  0
TABLE
  2
VIEW
  5
6
330
0
100
AcDbSymbolTable
 70
     0
  0
ENDTAB
  0
TABLE
  2
UCS
  5
7
330
0
100
AcDbSymbolTable
 70
     0
  0
ENDTAB
  0
TABLE
  2
APPID
  5
9
330
0
100
AcDbSymbolTable
 70
     3
  0
APPID
  5
12
330
9
100
AcDbSymbolTableRecord
100
AcDbRegAppTableRecord
  2
ACAD
 70
     0
  0
APPID
  5
1DF
330
9
100
AcDbSymbolTableRecord
100
AcDbRegAppTableRecord
  2
ACAD_DSTYLE_DIMEXT_ENABLED
 70
     0
  0
APPID
  5
1E0
330
9
100
AcDbSymbolTableRecord
100
AcDbRegAppTableRecord
  2
ACAD_DSTYLE_DIMEXT_LENGTH
 70
     0
  0
ENDTAB
  0
TABLE
  2
DIMSTYLE
  5
A
330
0
100
AcDbSymbolTable
 70
     1
100
AcDbDimStyleTable
  0
DIMSTYLE
105
27
102
{ACAD_REACTORS
330
14A
330
15F
330
16C
330
179
330
188
330
197
102
}
330
A
100
AcDbSymbolTableRecord
100
AcDbDimStyleTableRecord
  2
ISO-25
 70
     0
 41
2.5
 42
0.625
 43
3.75
 44
1.25
 73
     0
 74
     0
 77
     1
 78
     8
140
2.5
141
2.5
143
0.03937007874016
147
0.625
171
     3
172
     1
178
     0
271
     2
272
     2
274
     3
278
    44
283
     0
284
     8
340
11
  0
ENDTAB
  0
TABLE
  2
BLOCK_RECORD
  5
1
330
0
100
AcDbSymbolTable
 70
    30
  0
BLOCK_RECORD
  5
1F
330
1
100
AcDbSymbolTableRecord
100
AcDbBlockTableRecord
  2
*Model_Space
340
22
  0
BLOCK_RECORD
  5
1B
330
1
100
AcDbSymbolTableRecord
100
AcDbBlockTableRecord
  2
*Paper_Space
340
1E
  0
BLOCK_RECORD
  5
23
330
1
100
AcDbSymbolTableRecord
100
AcDbBlockTableRecord
  2
*Paper_Space0
340
26
  0
BLOCK_RECORD
  5
40
330
1
100
AcDbSymbolTableRecord
100
AcDbBlockTableRecord
  2
Dimension1
340
0
102
{BLKREFS
331
43
102
}
  0
BLOCK_RECORD
  5
44
330
1
100
AcDbSymbolTableRecord
100
AcDbBlockTableRecord
  2
Dimension2
340
0
102
{BLKREFS
331
47
102
}
  0
BLOCK_RECORD
  5
48
330
1
100
AcDbSymbolTableRecord
100
AcDbBlockTableRecord
  2
Dimension3
340
0
102
{BLKREFS
331
4B
102
}
  0
BLOCK_RECORD
  5
4C
330
1
100
AcDbSymbolTableRecord
100
AcDbBlockTableRecord
  2
Dimension4
340
0
102
{BLKREFS
331
4F
102
}
  0
BLOCK_RECORD
  5
50
330
1
100
AcDbSymbolTableRecord
100
AcDbBlockTableRecord
  2
Dimension5
340
0
102
{BLKREFS
331
53
102
}
  0
BLOCK_RECORD
  5
54
330
1
100
AcDbSymbolTableRecord
100
AcDbBlockTableRecord
  2
Dimension6
340
0
102
{BLKREFS
331
57
102
}
  0
BLOCK_RECORD
  5
58
330
1
100
AcDbSymbolTableRecord
100
AcDbBlockTableRecord
  2
Dimension7
340
0
102
{BLKREFS
331
5B
102
}
  0
BLOCK_RECORD
  5
5C
330
1
100
AcDbSymbolTableRecord
100
AcDbBlockTableRecord
  2
Dimension8
340
0
102
{BLKREFS
331
5F
102
}
  0
BLOCK_RECORD
  5
60
330
1
100
AcDbSymbolTableRecord
100
AcDbBlockTableRecord
  2
Dimension9
340
0
102
{BLKREFS
331
63
102
}
  0
BLOCK_RECORD
  5
64
330
1
100
AcDbSymbolTableRecord
100
AcDbBlockTableRecord
  2
Dimension10
340
0
102
{BLKREFS
331
67
102
}
  0
BLOCK_RECORD
  5
68
330
1
100
AcDbSymbolTableRecord
100
AcDbBlockTableRecord
  2
Dimension11
340
0
102
{BLKREFS
331
6B
102
}
  0
BLOCK_RECORD
  5
6C
330
1
100
AcDbSymbolTableRecord
100
AcDbBlockTableRecord
  2
Dimension12
340
0
102
{BLKREFS
331
6F
102
}
  0
BLOCK_RECORD
  5
70
330
1
100
AcDbSymbolTableRecord
100
AcDbBlockTableRecord
  2
Dimension13
340
0
102
{BLKREFS
331
73
102
}
  0
BLOCK_RECORD
  5
131
330
1
100
AcDbSymbolTableRecord
100
AcDbBlockTableRecord
  2
Dimension14
340
0
102
{BLKREFS
331
134
102
}
  0
BLOCK_RECORD
  5
135
330
1
100
AcDbSymbolTableRecord
100
AcDbBlockTableRecord
  2
Dimension15
340
0
102
{BLKREFS
331
138
102
}
  0
BLOCK_RECORD
  5
139
330
1
100
AcDbSymbolTableRecord
100
AcDbBlockTableRecord
  2
Dimension16
340
0
102
{BLKREFS
331
13C
102
}
  0
BLOCK_RECORD
  5
13D
330
1
100
AcDbSymbolTableRecord
100
AcDbBlockTableRecord
  2
Dimension17
340
0
102
{BLKREFS
331
140
102
}
  0
BLOCK_RECORD
  5
141
330
1
100
AcDbSymbolTableRecord
100
AcDbBlockTableRecord
  2
Dimension18
340
0
102
{BLKREFS
331
144
102
}
  0
BLOCK_RECORD
  5
145
330
1
100
AcDbSymbolTableRecord
100
AcDbBlockTableRecord
  2
Dimension19
340
0
102
{BLKREFS
331
148
102
}
  0
BLOCK_RECORD
  5
14C
330
1
100
AcDbSymbolTableRecord
100
AcDbBlockTableRecord
  2
*D20
340
0
  0
BLOCK_RECORD
  5
158
330
1
100
AcDbSymbolTableRecord
100
AcDbBlockTableRecord
  2
_OPEN30
340
0
102
{BLKREFS
331
150
331
151
331
164
331
165
331
171
331
172
331
0
331
0
331
181
331
180
331
0
331
0
331
190
331
18F
331
19C
331
19D
102
}
  0
BLOCK_RECORD
  5
160
330
1
100
AcDbSymbolTableRecord
100
AcDbBlockTableRecord
  2
*D22
340
0
  0
BLOCK_RECORD
  5
16D
330
1
100
AcDbSymbolTableRecord
100
AcDbBlockTableRecord
  2
*D23
340
0
  0
BLOCK_RECORD
  5
17A
330
1
100
AcDbSymbolTableRecord
100
AcDbBlockTableRecord
  2
*D24
340
0
  0
BLOCK_RECORD
  5
189
330
1
100
AcDbSymbolTableRecord
100
AcDbBlockTableRecord
  2
*D25
340
0
  0
BLOCK_RECORD
  5
198
330
1
100
AcDbSymbolTableRecord
100
AcDbBlockTableRecord
  2
*D26
340
0
  0
BLOCK_RECORD
  5
1A4
330
1
100
AcDbSymbolTableRecord
100
AcDbBlockTableRecord
  2
Dimension20
340
0
102
{BLKREFS
331
1A7
102
}
  0
BLOCK_RECORD
  5
1A8
330
1
100
AcDbSymbolTableRecord
100
AcDbBlockTableRecord
  2
Dimension21
340
0
102
{BLKREFS
331
1AB
102
}
  0
BLOCK_RECORD
  5
1AC
330
1
100
AcDbSymbolTableRecord
100
AcDbBlockTableRecord
  2
Dimension22
340
0
102
{BLKREFS
331
1AF
102
}
  0
ENDTAB
  0
ENDSEC
  0
SECTION
  2
BLOCKS
  0
BLOCK
  5
20
330
1F
100
AcDbEntity
  8
0
100
AcDbBlockBegin
  2
*Model_Space
 70
     0
 10
0.0
 20
0.0
 30
0.0
  3
*Model_Space
  1

  0
ENDBLK
  5
21
330
1F
100
AcDbEntity
  8
0
100
AcDbBlockEnd
  0
BLOCK
  5
1C
330
1B
100
AcDbEntity
 67
     1
  8
0
100
AcDbBlockBegin
  2
*Paper_Space
 70
     0
 10
0.0
 20
0.0
 30
0.0
  3
*Paper_Space
  1

  0
ENDBLK
  5
1D
330
1B
100
AcDbEntity
 67
     1
  8
0
100
AcDbBlockEnd
  0
BLOCK
  5
24
330
23
100
AcDbEntity
  8
0
100
AcDbBlockBegin
  2
*Paper_Space0
 70
     0
 10
0.0
 20
0.0
 30
0.0
  3
*Paper_Space0
  1

  0
ENDBLK
  5
25
330
23
100
AcDbEntity
  8
0
100
AcDbBlockEnd
  0
BLOCK
  5
41
330
40
100
AcDbEntity
  8
0
100
AcDbBlockBegin
  2
Dimension1
 70
     0
 10
0.0
 20
0.0
 30
0.0
  3
Dimension1
  1

  0
ENDBLK
  5
42
330
40
100
AcDbEntity
  8
0
100
AcDbBlockEnd
  0
BLOCK
  5
45
330
44
100
AcDbEntity
  8
0
100
AcDbBlockBegin
  2
Dimension2
 70
     0
 10
0.0
 20
0.0
 30
0.0
  3
Dimension2
  1

  0
ENDBLK
  5
46
330
44
100
AcDbEntity
  8
0
100
AcDbBlockEnd
  0
BLOCK
  5
49
330
48
100
AcDbEntity
  8
0
100
AcDbBlockBegin
  2
Dimension3
 70
     0
 10
0.0
 20
0.0
 30
0.0
  3
Dimension3
  1

  0
ENDBLK
  5
4A
330
48
100
AcDbEntity
  8
0
100
AcDbBlockEnd
  0
BLOCK
  5
4D
330
4C
100
AcDbEntity
  8
0
100
AcDbBlockBegin
  2
Dimension4
 70
     0
 10
0.0
 20
0.0
 30
0.0
  3
Dimension4
  1

  0
ENDBLK
  5
4E
330
4C
100
AcDbEntity
  8
0
100
AcDbBlockEnd
  0
BLOCK
  5
51
330
50
100
AcDbEntity
  8
0
100
AcDbBlockBegin
  2
Dimension5
 70
     0
 10
0.0
 20
0.0
 30
0.0
  3
Dimension5
  1

  0
ENDBLK
  5
52
330
50
100
AcDbEntity
  8
0
100
AcDbBlockEnd
  0
BLOCK
  5
55
330
54
100
AcDbEntity
  8
0
100
AcDbBlockBegin
  2
Dimension6
 70
     0
 10
0.0
 20
0.0
 30
0.0
  3
Dimension6
  1

  0
ENDBLK
  5
56
330
54
100
AcDbEntity
  8
0
100
AcDbBlockEnd
  0
BLOCK
  5
59
330
58
100
AcDbEntity
  8
0
100
AcDbBlockBegin
  2
Dimension7
 70
     0
 10
0.0
 20
0.0
 30
0.0
  3
Dimension7
  1

  0
ENDBLK
  5
5A
330
58
100
AcDbEntity
  8
0
100
AcDbBlockEnd
  0
BLOCK
  5
5D
330
5C
100
AcDbEntity
  8
0
100
AcDbBlockBegin
  2
Dimension8
 70
     0
 10
0.0
 20
0.0
 30
0.0
  3
Dimension8
  1

  0
ENDBLK
  5
5E
330
5C
100
AcDbEntity
  8
0
100
AcDbBlockEnd
  0
BLOCK
  5
61
330
60
100
AcDbEntity
  8
0
100
AcDbBlockBegin
  2
Dimension9
 70
     0
 10
0.0
 20
0.0
 30
0.0
  3
Dimension9
  1

  0
ENDBLK
  5
62
330
60
100
AcDbEntity
  8
0
100
AcDbBlockEnd
  0
BLOCK
  5
65
330
64
100
AcDbEntity
  8
0
100
AcDbBlockBegin
  2
Dimension10
 70
     0
 10
0.0
 20
0.0
 30
0.0
  3
Dimension10
  1

  0
ENDBLK
  5
66
330
64
100
AcDbEntity
  8
0
100
AcDbBlockEnd
  0
BLOCK
  5
69
330
68
100
AcDbEntity
  8
0
100
AcDbBlockBegin
  2
Dimension11
 70
     0
 10
0.0
 20
0.0
 30
0.0
  3
Dimension11
  1

  0
ENDBLK
  5
6A
330
68
100
AcDbEntity
  8
0
100
AcDbBlockEnd
  0
BLOCK
  5
6D
330
6C
100
AcDbEntity
  8
0
100
AcDbBlockBegin
  2
Dimension12
 70
     0
 10
0.0
 20
0.0
 30
0.0
  3
Dimension12
  1

  0
ENDBLK
  5
6E
330
6C
100
AcDbEntity
  8
0
100
AcDbBlockEnd
  0
BLOCK
  5
71
330
70
100
AcDbEntity
  8
0
100
AcDbBlockBegin
  2
Dimension13
 70
     0
 10
0.0
 20
0.0
 30
0.0
  3
Dimension13
  1

  0
ENDBLK
  5
72
330
70
100
AcDbEntity
  8
0
100
AcDbBlockEnd
  0
BLOCK
  5
132
330
131
100
AcDbEntity
  8
0
100
AcDbBlockBegin
  2
Dimension14
 70
     0
 10
0.0
 20
0.0
 30
0.0
  3
Dimension14
  1

  0
ENDBLK
  5
133
330
131
100
AcDbEntity
  8
0
100
AcDbBlockEnd
  0
BLOCK
  5
136
330
135
100
AcDbEntity
  8
0
100
AcDbBlockBegin
  2
Dimension15
 70
     0
 10
0.0
 20
0.0
 30
0.0
  3
Dimension15
  1

  0
ENDBLK
  5
137
330
135
100
AcDbEntity
  8
0
100
AcDbBlockEnd
  0
BLOCK
  5
13A
330
139
100
AcDbEntity
  8
0
100
AcDbBlockBegin
  2
Dimension16
 70
     0
 10
0.0
 20
0.0
 30
0.0
  3
Dimension16
  1

  0
ENDBLK
  5
13B
330
139
100
AcDbEntity
  8
0
100
AcDbBlockEnd
  0
BLOCK
  5
13E
330
13D
100
AcDbEntity
  8
0
100
AcDbBlockBegin
  2
Dimension17
 70
     0
 10
0.0
 20
0.0
 30
0.0
  3
Dimension17
  1

  0
ENDBLK
  5
13F
330
13D
100
AcDbEntity
  8
0
100
AcDbBlockEnd
  0
BLOCK
  5
142
330
141
100
AcDbEntity
  8
0
100
AcDbBlockBegin
  2
Dimension18
 70
     0
 10
0.0
 20
0.0
 30
0.0
  3
Dimension18
  1

  0
ENDBLK
  5
143
330
141
100
AcDbEntity
  8
0
100
AcDbBlockEnd
  0
BLOCK
  5
146
330
145
100
AcDbEntity
  8
0
100
AcDbBlockBegin
  2
Dimension19
 70
     0
 10
0.0
 20
0.0
 30
0.0
  3
Dimension19
  1

  0
ENDBLK
  5
147
330
145
100
AcDbEntity
  8
0
100
AcDbBlockEnd
  0
BLOCK
  5
156
330
14C
100
AcDbEntity
  8
0
100
AcDbBlockBegin
  2
*D20
 70
     1
 10
0.0
 20
0.0
 30
0.0
  3
*D20
  1

  0
LINE
  5
14D
330
14C
100
AcDbEntity
  8
MSS2-500-390
  6
Continuous
 62
    18
 48
50.00000038146973
370
    -2
100
AcDbLine
 10
36404.58477814422
 20
-13025.7877174628
 30
0.0
 11
36404.58477814422
 21
-13065.78771655681
 31
0.0
  0
LINE
  5
14E
330
14C
100
AcDbEntity
  8
MSS2-500-390
  6
Continuous
 62
    18
 48
50.00000038146973
370
    -2
100
AcDbLine
 10
36904.58477814422
 20
-13025.7877174628
 30
0.0
 11
36904.58477814422
 21
-13065.78771655681
 31
0.0
  0
LINE
  5
14F
330
14C
100
AcDbEntity
  8
MSS2-500-390
  6
Continuous
 62
    18
 48
50.00000038146973
370
    -2
100
AcDbLine
 10
36419.58477874027
 20
-13045.7877170098
 30
0.0
 11
36889.58477754817
 21
-13045.7877170098
 31
0.0
  0
INSERT
  5
150
330
14C
100
AcDbEntity
  8
MSS2-500-390
 62
    18
370
    -2
100
AcDbBlockReference
  2
_OPEN30
 10
36404.58477814422
 20
-13045.7877170098
 30
0.0
 41
15.00000059604645
 42
15.00000059604645
 43
15.00000059604645
 50
180.0
  0
INSERT
  5
151
330
14C
100
AcDbEntity
  8
MSS2-500-390
 62
    18
370
    -2
100
AcDbBlockReference
  2
_OPEN30
 10
36904.58477814422
 20
-13045.7877170098
 30
0.0
 41
15.00000059604645
 42
15.00000059604645
 43
15.00000059604645
  0
MTEXT
  5
152
330
14C
100
AcDbEntity
  8
MSS2-500-390
  6
Continuous
 62
     0
370
    25
100
AcDbMText
 10
36654.58477814422
 20
-13005.36771292092
 30
0.0
 40
40.0
 41
0.0
 71
     5
 72
     1
  1
500
  7
ARIAL
 73
     1
 44
1.0
  0
POINT
  5
153
330
14C
100
AcDbEntity
  8
Defpoints
 62
     0
100
AcDbPoint
 10
36404.58477814422
 20
-12974.78771454015
 30
0.0
  0
POINT
  5
154
330
14C
100
AcDbEntity
  8
Defpoints
 62
     0
100
AcDbPoint
 10
36904.58477814422
 20
-12974.78769242527
 30
0.0
  0
POINT
  5
155
330
14C
100
AcDbEntity
  8
Defpoints
 62
     0
100
AcDbPoint
 10
36904.58477814422
 20
-13045.7877170098
 30
0.0
  0
ENDBLK
  5
157
330
14C
100
AcDbEntity
  8
0
100
AcDbBlockEnd
  0
BLOCK
  5
159
330
158
100
AcDbEntity
  8
0
100
AcDbBlockBegin
  2
_OPEN30
 70
     0
 10
0.0
 20
0.0
 30
0.0
  3
_OPEN30
  1

  0
LINE
  5
15B
330
158
100
AcDbEntity
  8
0
  6
ByBlock
 62
     0
370
    -2
100
AcDbLine
 10
-1.0
 20
0.267949
 30
0.0
 11
0.0
 21
0.0
 31
0.0
  0
LINE
  5
15C
330
158
100
AcDbEntity
  8
0
  6
ByBlock
 62
     0
370
    -2
100
AcDbLine
 10
0.0
 20
0.0
 30
0.0
 11
-1.0
 21
-0.267949
 31
0.0
  0
LINE
  5
15D
330
158
100
AcDbEntity
  8
0
  6
ByBlock
 62
     0
370
    -2
100
AcDbLine
 10
0.0
 20
0.0
 30
0.0
 11
-1.0
 21
0.0
 31
0.0
  0
ENDBLK
  5
15A
330
158
100
AcDbEntity
  8
0
100
AcDbBlockEnd
  0
BLOCK
  5
16A
330
160
100
AcDbEntity
  8
0
100
AcDbBlockBegin
  2
*D22
 70
     1
 10
0.0
 20
0.0
 30
0.0
  3
*D22
  1

  0
LINE
  5
161
330
160
100
AcDbEntity
  8
MSS2-500-390
  6
Continuous
 62
    18
 48
50.00000038146973
370
    -2
100
AcDbLine
 10
36916.58477866925
 20
-13079.78769335251
 30
0.0
 11
36916.58477866925
 21
-13119.78769244652
 31
0.0
  0
LINE
  5
162
330
160
100
AcDbEntity
  8
MSS2-500-390
  6
Continuous
 62
    18
 48
50.00000038146973
370
    -2
100
AcDbLine
 10
36392.58477866925
 20
-13079.78769335251
 30
0.0
 11
36392.58477866925
 21
-13119.78769244652
 31
0.0
  0
LINE
  5
163
330
160
100
AcDbEntity
  8
MSS2-500-390
  6
Continuous
 62
    18
 48
50.00000038146973
370
    -2
100
AcDbLine
 10
36907.58477831162
 20
-13099.78769289952
 30
0.0
 11
36401.58477902688
 21
-13099.78769289952
 31
0.0
  0
INSERT
  5
164
330
160
100
AcDbEntity
  8
MSS2-500-390
 62
    18
370
    -2
100
AcDbBlockReference
  2
_OPEN30
 10
36916.58477866925
 20
-13099.78769289952
 30
0.0
 41
9.000000357627869
 42
9.000000357627869
 43
9.000000357627869
  0
INSERT
  5
165
330
160
100
AcDbEntity
  8
MSS2-500-390
 62
    18
370
    -2
100
AcDbBlockReference
  2
_OPEN30
 10
36392.58477866925
 20
-13099.78769289952
 30
0.0
 41
9.000000357627869
 42
9.000000357627869
 43
9.000000357627869
 50
180.0
  0
MTEXT
  5
166
330
160
100
AcDbEntity
  8
MSS2-500-390
  6
Continuous
 62
    18
370
    25
100
AcDbMText
 10
36654.58477866925
 20
-13067.78768881064
 30
0.0
 40
24.0
 41
0.0
 71
     5
 72
     1
  1
524
  7
ROMAN
 73
     1
 44
1.0
  0
POINT
  5
167
330
160
100
AcDbEntity
  8
Defpoints
 62
     0
100
AcDbPoint
 10
36916.58477866925
 20
-12986.78769194276
 30
0.0
  0
POINT
  5
168
330
160
100
AcDbEntity
  8
Defpoints
 62
     0
100
AcDbPoint
 10
36392.58477866925
 20
-12986.7877170098
 30
0.0
  0
POINT
  5
169
330
160
100
AcDbEntity
  8
Defpoints
 62
     0
100
AcDbPoint
 10
36392.58477866925
 20
-13099.78769289952
 30
0.0
  0
ENDBLK
  5
16B
330
160
100
AcDbEntity
  8
0
100
AcDbBlockEnd
  0
BLOCK
  5
177
330
16D
100
AcDbEntity
  8
0
100
AcDbBlockBegin
  2
*D23
 70
     1
 10
0.0
 20
0.0
 30
0.0
  3
*D23
  1

  0
LINE
  5
16E
330
16D
100
AcDbEntity
  8
MSS2-500-390
  6
Continuous
 62
    18
 48
50.00000038146973
370
    -2
100
AcDbLine
 10
37077.58477821625
 20
-12584.79076897975
 30
0.0
 11
37037.58477912224
 21
-12584.79076897975
 31
0.0
  0
LINE
  5
16F
330
16D
100
AcDbEntity
  8
MSS2-500-390
  6
Continuous
 62
    18
 48
50.00000038146973
370
    -2
100
AcDbLine
 10
37077.58477821625
 20
-12974.78923071542
 30
0.0
 11
37037.58477912224
 21
-12974.78923071542
 31
0.0
  0
LINE
  5
170
330
16D
100
AcDbEntity
  8
MSS2-500-390
  6
Continuous
 62
    18
 48
50.00000038146973
370
    -2
100
AcDbLine
 10
37057.58477866925
 20
-12599.79076957579
 30
0.0
 11
37057.58477866925
 21
-12959.78923011938
 31
0.0
  0
INSERT
  5
171
330
16D
100
AcDbEntity
  8
MSS2-500-390
 62
    18
370
    -2
100
AcDbBlockReference
  2
_OPEN30
 10
37057.58477866925
 20
-12584.79076897975
 30
0.0
 41
15.00000059604645
 42
15.00000059604645
 43
15.00000059604645
 50
90.0
  0
INSERT
  5
172
330
16D
100
AcDbEntity
  8
MSS2-500-390
 62
    18
370
    -2
100
AcDbBlockReference
  2
_OPEN30
 10
37057.58477866925
 20
-12974.78923071542
 30
0.0
 41
15.00000059604645
 42
15.00000059604645
 43
15.00000059604645
 50
270.0
  0
MTEXT
  5
173
330
16D
100
AcDbEntity
  8
MSS2-500-390
  6
Continuous
 62
     0
370
    25
100
AcDbMText
 10
37017.16477458037
 20
-12779.78999984758
 30
0.0
 40
40.0
 41
0.0
 71
     5
 72
     1
  1
389.998
  7
ARIAL
 11
0.0
 21
1.0
 31
0.0
 73
     1
 44
1.0
  0
POINT
  5
174
330
16D
100
AcDbEntity
  8
Defpoints
 62
     0
100
AcDbPoint
 10
37116.58477866925
 20
-12584.79076897975
 30
0.0
  0
POINT
  5
175
330
16D
100
AcDbEntity
  8
Defpoints
 62
     0
100
AcDbPoint
 10
37116.58477866925
 20
-12974.78923071542
 30
0.0
  0
POINT
  5
176
330
16D
100
AcDbEntity
  8
Defpoints
 62
     0
100
AcDbPoint
 10
37057.58477866925
 20
-12974.78923071542
 30
0.0
  0
ENDBLK
  5
178
330
16D
100
AcDbEntity
  8
0
100
AcDbBlockEnd
  0
BLOCK
  5
184
330
17A
100
AcDbEntity
  8
0
100
AcDbBlockBegin
  2
*D24
 70
     1
 10
0.0
 20
0.0
 30
0.0
  3
*D24
  1

  0
LINE
  5
17B
330
17A
100
AcDbEntity
  8
MSS2-500-390
  6
Continuous
 62
    18
 48
50.00000038146973
370
    -2
100
AcDbLine
 10
37116.58477866925
 20
-12475.79077018743
 30
0.0
 11
37116.58477866925
 21
-12435.79077109342
 31
0.0
  0
LINE
  5
17C
330
17A
100
AcDbEntity
  8
MSS2-500-390
  6
Continuous
 62
    18
 48
50.00000038146973
370
    -2
100
AcDbLine
 10
37226.57108467425
 20
-12475.79077018743
 30
0.0
 11
37226.57108467425
 21
-12435.79077109342
 31
0.0
  0
LINE
  5
17D
330
17A
100
AcDbEntity
  8
MSS2-500-390
  6
Continuous
 62
    18
 48
50.00000038146973
370
    -2
100
AcDbLine
 10
37116.58477866925
 20
-12455.79077064043
 30
0.0
 11
37226.57108467425
 21
-12455.79077064043
 31
0.0
  0
LINE
  5
17E
330
17A
100
AcDbEntity
  8
MSS2-500-390
  6
Continuous
 62
    18
 48
50.00000038146973
370
    -2
100
AcDbLine
 10
37101.5847780732
 20
-12455.79077064043
 30
0.0
 11
37086.58477747715
 21
-12455.79077064043
 31
0.0
  0
LINE
  5
17F
330
17A
100
AcDbEntity
  8
MSS2-500-390
  6
Continuous
 62
    18
 48
50.00000038146973
370
    -2
100
AcDbLine
 10
37241.5710852703
 20
-12455.79077064043
 30
0.0
 11
37256.57108586634
 21
-12455.79077064043
 31
0.0
  0
INSERT
  5
180
330
17A
100
AcDbEntity
  8
MSS2-500-390
 62
    18
370
    -2
100
AcDbBlockReference
  2
_OPEN30
 10
37116.58477866925
 20
-12455.79077064043
 30
0.0
 41
15.00000059604645
 42
15.00000059604645
 43
15.00000059604645
  0
INSERT
  5
181
330
17A
100
AcDbEntity
  8
MSS2-500-390
 62
    18
370
    -2
100
AcDbBlockReference
  2
_OPEN30
 10
37226.57108467425
 20
-12455.79077064043
 30
0.0
 41
15.00000059604645
 42
15.00000059604645
 43
15.00000059604645
 50
180.0
  0
MTEXT
  5
182
330
17A
100
AcDbEntity
  8
MSS2-500-390
  6
Continuous
 62
     0
370
    25
100
AcDbMText
 10
37171.57793167175
 20
-12415.37076655155
 30
0.0
 40
40.0
 41
0.0
 71
     5
 72
     1
  1
109.986
  7
ARIAL
 73
     1
 44
1.0
  0
POINT
  5
183
330
17A
100
AcDbEntity
  8
Defpoints
 62
     0
100
AcDbPoint
 10
37116.58477866925
 20
-12514.79076897975
 30
0.0
  0
POINT
  5
186
330
17A
100
AcDbEntity
  8
Defpoints
 62
     0
100
AcDbPoint
 10
37226.57108467425
 20
-12592.79076897975
 30
0.0
  0
POINT
  5
187
330
17A
100
AcDbEntity
  8
Defpoints
 62
     0
100
AcDbPoint
 10
37226.57108467425
 20
-12455.79077064043
 30
0.0
  0
ENDBLK
  5
185
330
17A
100
AcDbEntity
  8
0
100
AcDbBlockEnd
  0
BLOCK
  5
193
330
189
100
AcDbEntity
  8
0
100
AcDbBlockBegin
  2
*D25
 70
     1
 10
0.0
 20
0.0
 30
0.0
  3
*D25
  1

  0
LINE
  5
18A
330
189
100
AcDbEntity
  8
MSS2-500-390
  6
Continuous
 62
    18
 48
50.00000038146973
370
    -2
100
AcDbLine
 10
37116.58477866925
 20
-13054.23618768924
 30
0.0
 11
37116.58477866925
 21
-13094.23618678325
 31
0.0
  0
LINE
  5
18B
330
189
100
AcDbEntity
  8
MSS2-500-390
  6
Continuous
 62
    18
 48
50.00000038146973
370
    -2
100
AcDbLine
 10
37172.57836923456
 20
-13054.23618768924
 30
0.0
 11
37172.57836923456
 21
-13094.23618678325
 31
0.0
  0
LINE
  5
18C
330
189
100
AcDbEntity
  8
MSS2-500-390
  6
Continuous
 62
    18
 48
50.00000038146973
370
    -2
100
AcDbLine
 10
37116.58477866925
 20
-13074.23618723624
 30
0.0
 11
37172.57836923456
 21
-13074.23618723624
 31
0.0
  0
LINE
  5
18D
330
189
100
AcDbEntity
  8
MSS2-500-390
  6
Continuous
 62
    18
 48
50.00000038146973
370
    -2
100
AcDbLine
 10
37107.58477831162
 20
-13074.23618723624
 30
0.0
 11
37098.58477795399
 21
-13074.23618723624
 31
0.0
  0
LINE
  5
18E
330
189
100
AcDbEntity
  8
MSS2-500-390
  6
Continuous
 62
    18
 48
50.00000038146973
370
    -2
100
AcDbLine
 10
37181.57836959219
 20
-13074.23618723624
 30
0.0
 11
37190.57836994982
 21
-13074.23618723624
 31
0.0
  0
INSERT
  5
18F
330
189
100
AcDbEntity
  8
MSS2-500-390
 62
    18
370
    -2
100
AcDbBlockReference
  2
_OPEN30
 10
37116.58477866925
 20
-13074.23618723624
 30
0.0
 41
9.000000357627869
 42
9.000000357627869
 43
9.000000357627869
  0
INSERT
  5
190
330
189
100
AcDbEntity
  8
MSS2-500-390
 62
    18
370
    -2
100
AcDbBlockReference
  2
_OPEN30
 10
37172.57836923456
 20
-13074.23618723624
 30
0.0
 41
9.000000357627869
 42
9.000000357627869
 43
9.000000357627869
 50
180.0
  0
MTEXT
  5
191
330
189
100
AcDbEntity
  8
MSS2-500-390
  6
Continuous
 62
    18
370
    25
100
AcDbMText
 10
37144.5815739519
 20
-13042.23618314736
 30
0.0
 40
24.0
 41
0.0
 71
     5
 72
     1
  1
55.994
  7
ROMAN
 73
     1
 44
1.0
  0
POINT
  5
192
330
189
100
AcDbEntity
  8
Defpoints
 62
     0
100
AcDbPoint
 10
37116.58477866925
 20
-12974.78923071542
 30
0.0
  0
POINT
  5
195
330
189
100
AcDbEntity
  8
Defpoints
 62
     0
100
AcDbPoint
 10
37172.57836923456
 20
-12974.78923071542
 30
0.0
  0
POINT
  5
196
330
189
100
AcDbEntity
  8
Defpoints
 62
     0
100
AcDbPoint
 10
37172.57836923456
 20
-13074.23618723624
 30
0.0
  0
ENDBLK
  5
194
330
189
100
AcDbEntity
  8
0
100
AcDbBlockEnd
  0
BLOCK
  5
1A2
330
198
100
AcDbEntity
  8
0
100
AcDbBlockBegin
  2
*D26
 70
     1
 10
0.0
 20
0.0
 30
0.0
  3
*D26
  1

  0
LINE
  5
199
330
198
100
AcDbEntity
  8
MSS2-500-390
  6
Continuous
 62
    18
 48
50.00000038146973
370
    -2
100
AcDbLine
 10
36995.58477987692
 20
-13378.18548983414
 30
0.0
 11
36955.58478078291
 21
-13378.18548983414
 31
0.0
  0
LINE
  5
19A
330
198
100
AcDbEntity
  8
MSS2-500-390
  6
Continuous
 62
    18
 48
50.00000038146973
370
    -2
100
AcDbLine
 10
36995.58477987692
 20
-13180.78770447628
 30
0.0
 11
36955.58478078291
 21
-13180.78770447628
 31
0.0
  0
LINE
  5
19B
330
198
100
AcDbEntity
  8
MSS2-500-390
  6
Continuous
 62
    18
 48
50.00000038146973
370
    -2
100
AcDbLine
 10
36975.58478032992
 20
-13369.18548947651
 30
0.0
 11
36975.58478032992
 21
-13189.78770483391
 31
0.0
  0
INSERT
  5
19C
330
198
100
AcDbEntity
  8
MSS2-500-390
 62
    18
370
    -2
100
AcDbBlockReference
  2
_OPEN30
 10
36975.58478032992
 20
-13378.18548983414
 30
0.0
 41
9.000000357627869
 42
9.000000357627869
 43
9.000000357627869
 50
270.0
  0
INSERT
  5
19D
330
198
100
AcDbEntity
  8
MSS2-500-390
 62
    18
370
    -2
100
AcDbBlockReference
  2
_OPEN30
 10
36975.58478032992
 20
-13180.78770447628
 30
0.0
 41
9.000000357627869
 42
9.000000357627869
 43
9.000000357627869
 50
90.0
  0
MTEXT
  5
19E
330
198
100
AcDbEntity
  8
MSS2-500-390
  6
Continuous
 62
    18
370
    25
100
AcDbMText
 10
36943.58477624104
 20
-13279.48659715521
 30
0.0
 40
24.0
 41
0.0
 71
     5
 72
     1
  1
197.398
  7
ROMAN
 11
0.0
 21
1.0
 31
0.0
 73
     1
 44
1.0
  0
POINT
  5
19F
330
198
100
AcDbEntity
  8
Defpoints
 62
     0
100
AcDbPoint
 10
37199.45410565021
 20
-13378.18548983414
 30
0.0
  0
POINT
  5
1A0
330
198
100
AcDbEntity
  8
Defpoints
 62
     0
100
AcDbPoint
 10
37116.58477866925
 20
-13180.78770447628
 30
0.0
  0
POINT
  5
1A1
330
198
100
AcDbEntity
  8
Defpoints
 62
     0
100
AcDbPoint
 10
36975.58478032992
 20
-13180.78770447628
 30
0.0
  0
ENDBLK
  5
1A3
330
198
100
AcDbEntity
  8
0
100
AcDbBlockEnd
  0
BLOCK
  5
1A5
330
1A4
100
AcDbEntity
  8
0
100
AcDbBlockBegin
  2
Dimension20
 70
     0
 10
0.0
 20
0.0
 30
0.0
  3
Dimension20
  1

  0
ENDBLK
  5
1A6
330
1A4
100
AcDbEntity
  8
0
100
AcDbBlockEnd
  0
BLOCK
  5
1A9
330
1A8
100
AcDbEntity
  8
0
100
AcDbBlockBegin
  2
Dimension21
 70
     0
 10
0.0
 20
0.0
 30
0.0
  3
Dimension21
  1

  0
ENDBLK
  5
1AA
330
1A8
100
AcDbEntity
  8
0
100
AcDbBlockEnd
  0
BLOCK
  5
1AD
330
1AC
100
AcDbEntity
  8
0
100
AcDbBlockBegin
  2
Dimension22
 70
     0
 10
0.0
 20
0.0
 30
0.0
  3
Dimension22
  1

  0
ENDBLK
  5
1AE
330
1AC
100
AcDbEntity
  8
0
100
AcDbBlockEnd
  0
ENDSEC
  0
SECTION
  2
ENTITIES
  0
INSERT
  5
43
330
1F
100
AcDbEntity
  8
allgemein
  6
Continuous
 62
    18
420
        0
 48
50.00000038146973
370
    25
100
AcDbBlockReference
  2
Dimension1
 10
0.0
 20
0.0
 30
0.0
  0
INSERT
  5
47
330
1F
100
AcDbEntity
  8
allgemein
  6
Continuous
 62
    18
420
        0
 48
50.00000038146973
370
    25
100
AcDbBlockReference
  2
Dimension2
 10
0.0
 20
0.0
 30
0.0
  0
INSERT
  5
4B
330
1F
100
AcDbEntity
  8
allgemein
  6
Continuous
 62
    18
420
        0
 48
50.00000038146973
370
    25
100
AcDbBlockReference
  2
Dimension3
 10
0.0
 20
0.0
 30
0.0
  0
INSERT
  5
4F
330
1F
100
AcDbEntity
  8
allgemein
  6
Continuous
 62
    18
420
        0
 48
50.00000038146973
370
    25
100
AcDbBlockReference
  2
Dimension4
 10
0.0
 20
0.0
 30
0.0
  0
INSERT
  5
53
330
1F
100
AcDbEntity
  8
allgemein
  6
Continuous
 62
    18
420
        0
 48
50.00000038146973
370
    25
100
AcDbBlockReference
  2
Dimension5
 10
0.0
 20
0.0
 30
0.0
  0
INSERT
  5
57
330
1F
100
AcDbEntity
  8
allgemein
  6
Continuous
 62
    18
420
        0
 48
50.00000038146973
370
    25
100
AcDbBlockReference
  2
Dimension6
 10
0.0
 20
0.0
 30
0.0
  0
INSERT
  5
5B
330
1F
100
AcDbEntity
  8
allgemein
  6
Continuous
 62
    18
420
        0
 48
50.00000038146973
370
    25
100
AcDbBlockReference
  2
Dimension7
 10
0.0
 20
0.0
 30
0.0
  0
INSERT
  5
5F
330
1F
100
AcDbEntity
  8
allgemein
  6
Continuous
 62
    18
420
        0
 48
50.00000038146973
370
    25
100
AcDbBlockReference
  2
Dimension8
 10
0.0
 20
0.0
 30
0.0
  0
INSERT
  5
63
330
1F
100
AcDbEntity
  8
allgemein
  6
Continuous
 62
    18
420
        0
 48
50.00000038146973
370
    25
100
AcDbBlockReference
  2
Dimension9
 10
0.0
 20
0.0
 30
0.0
  0
INSERT
  5
67
330
1F
100
AcDbEntity
  8
allgemein
  6
Continuous
 62
    18
420
        0
 48
50.00000038146973
370
    25
100
AcDbBlockReference
  2
Dimension10
 10
0.0
 20
0.0
 30
0.0
  0
INSERT
  5
6B
330
1F
100
AcDbEntity
  8
allgemein
  6
Continuous
 62
    18
420
        0
 48
50.00000038146973
370
    25
100
AcDbBlockReference
  2
Dimension11
 10
0.0
 20
0.0
 30
0.0
  0
INSERT
  5
6F
330
1F
100
AcDbEntity
  8
allgemein
  6
Continuous
 62
    18
420
        0
 48
50.00000038146973
370
    25
100
AcDbBlockReference
  2
Dimension12
 10
0.0
 20
0.0
 30
0.0
  0
INSERT
  5
73
330
1F
100
AcDbEntity
  8
allgemein
  6
Continuous
 62
    18
420
        0
 48
50.00000038146973
370
    25
100
AcDbBlockReference
  2
Dimension13
 10
0.0
 20
0.0
 30
0.0
  0
ARC
  5
76
330
1F
100
AcDbEntity
  8
MSS2-500-390
  6
Continuous
 62
    18
420
        0
 48
50.00000038146973
370
    25
100
AcDbCircle
 10
36631.58476127178
 20
-12588.79078210628
 30
0.0
 40
3.999999999996208
100
AcDbArc
 50
90.00000275498917
 51
270.0000027549065
  0
ARC
  5
77
330
1F
100
AcDbEntity
  8
MSS2-500-390
  6
Continuous
 62
    18
420
        0
 48
50.00000038146973
370
    25
100
AcDbCircle
 10
36677.5847614641
 20
-12588.79077994475
 30
0.0
 40
3.999999949736735
100
AcDbArc
 50
270.0000027549065
 51
90.00000275490649
  0
ARC
  5
78
330
1F
100
AcDbEntity
  8
MSS2-500-390
  6
Continuous
 62
    18
420
        0
 48
60.00000166893005
370
    25
100
AcDbCircle
 10
37237.98256402711
 20
-12588.79076897975
 30
0.0
 40
3.999999999999091
100
AcDbArc
 50
270.0
 51
90.0
  0
ARC
  5
79
330
1F
100
AcDbEntity
  8
MSS2-500-390
  6
Continuous
 62
    18
420
        0
 48
60.00000166893005
370
    25
100
AcDbCircle
 10
37232.98256402711
 20
-12588.79076897975
 30
0.0
 40
3.999999999999091
100
AcDbArc
 50
270.0
 51
90.0
  0
ARC
  5
7A
330
1F
100
AcDbEntity
  8
MSS2-500-390
  6
Continuous
 62
    18
420
        0
 48
50.00000038146973
370
    25
100
AcDbCircle
 10
37116.58477866925
 20
-13370.94388396491
 30
0.0
 40
499.3728867544248
100
AcDbArc
 50
81.95494822094808
 51
90.0
  0
ARC
  5
7B
330
1F
100
AcDbEntity
  8
MSS2-500-390
  6
Continuous
 62
    18
420
        0
 48
25.00000019073486
370
    25
100
AcDbCircle
 10
36654.58476127176
 20
-12588.79078100038
 30
0.0
 40
39.99999999999688
100
AcDbArc
 50
23.57818098267834
 51
156.4218240262776
  0
ARC
  5
7D
330
1F
100
AcDbEntity
  8
MSS2-500-390
  6
DASHED1
 62
    18
420
        0
 48
15.00000041723251
370
    25
100
AcDbCircle
 10
36654.58476127176
 20
-12588.79078100038
 30
0.0
 40
40.00000000000068
100
AcDbArc
 50
156.421824026279
 51
23.57818098268406
  0
ARC
  5
7E
330
1F
100
AcDbEntity
  8
MSS2-500-390
  6
Continuous
 62
    18
420
        0
 48
162.0000075340271
370
    25
100
AcDbCircle
 10
37829.13569991327
 20
-13624.9215498062
 30
0.0
 40
18.77699219107415
100
AcDbArc
 50
37.92296160428956
 51
142.0844570673071
  0
ARC
  5
7F
330
1F
100
AcDbEntity
  8
MSS2-500-390
  6
Continuous
 62
    18
420
        0
 48
162.0000075340271
370
    25
100
AcDbCircle
 10
37829.13291930253
 20
-13624.92596599865
 30
0.0
 40
18.77805529592489
100
AcDbArc
 50
158.3926594912069
 51
173.0089805633655
  0
ARC
  5
80
330
1F
100
AcDbEntity
  8
MSS2-500-390
  6
Continuous
 62
    18
420
        0
 48
162.0000075340271
370
    25
100
AcDbCircle
 10
37829.14460085079
 20
-13624.92043827442
 30
0.0
 40
18.76821510166706
100
AcDbArc
 50
6.9811420411914
 51
21.59749032313623
  0
ARC
  5
81
330
1F
100
AcDbEntity
  8
MSS2-500-390
  6
Continuous
 62
    18
420
        0
 48
162.0000075340271
370
    25
100
AcDbCircle
 10
37829.14162798184
 20
-13624.91620616268
 30
0.0
 40
18.78605571898771
100
AcDbArc
 50
186.9964645332844
 51
201.6127039760878
  0
ARC
  5
82
330
1F
100
AcDbEntity
  8
MSS2-500-390
  6
Continuous
 62
    18
420
        0
 48
162.0000075340271
370
    25
100
AcDbCircle
 10
37829.13164146316
 20
-13624.91724820469
 30
0.0
 40
18.78252062887146
100
AcDbArc
 50
338.396134446147
 51
353.0124555183045
  0
ARC
  5
83
330
1F
100
AcDbEntity
  8
MSS2-500-390
  6
Continuous
 62
    18
420
        0
 48
162.0000075340271
370
    25
100
AcDbCircle
 10
37829.13529821987
 20
-13624.92223866099
 30
0.0
 40
18.77848982931697
100
AcDbArc
 50
217.9190317150191
 51
322.080968284981
  0
ARC
  5
84
330
1F
100
AcDbEntity
  8
MSS2-500-390
  6
Continuous
 62
    18
420
        0
 48
162.0000075340271
370
    25
100
AcDbCircle
 10
37869.27966705793
 20
-13629.53003789794
 30
0.0
 40
6.978566908997784
100
AcDbArc
 50
268.4355638780451
 51
91.57954040753737
  0
ARC
  5
85
330
1F
100
AcDbEntity
  8
MSS2-500-390
  6
Continuous
 62
    18
420
        0
 48
162.0000075340271
370
    25
100
AcDbCircle
 10
37857.82871817099
 20
-13620.37914891245
 30
0.0
 40
2.186707686213958
100
AcDbArc
 50
99.08716097410273
 51
263.677032393143
  0
ARC
  5
86
330
1F
100
AcDbEntity
  8
MSS2-500-390
  6
Continuous
 62
    18
420
        0
 48
162.0000075340271
370
    25
100
AcDbCircle
 10
37857.29311303506
 20
-13620.38710927796
 30
0.0
 40
6.973928330401642
100
AcDbArc
 50
88.43570681814643
 51
271.5793910633276
  0
ARC
  5
87
330
1F
100
AcDbEntity
  8
MSS2-500-390
  6
Continuous
 62
    18
420
        0
 48
162.0000075340271
370
    25
100
AcDbCircle
 10
37868.74319032849
 20
-13629.54106393368
 30
0.0
 40
2.187557256506918
100
AcDbArc
 50
279.0717992648611
 51
83.66033837562392
  0
ARC
  5
88
330
1F
100
AcDbEntity
  8
MSS2-500-390
  6
Continuous
 62
    18
420
        0
 48
162.0000075340271
370
    25
100
AcDbCircle
 10
37889.57224505626
 20
-13625.54296457006
 30
0.0
 40
6.159985684698465
100
AcDbArc
 50
196.5322763668531
 51
266.8258399252677
  0
ARC
  5
89
330
1F
100
AcDbEntity
  8
MSS2-500-390
  6
Continuous
 62
    18
420
        0
 48
162.0000075340271
370
    25
100
AcDbCircle
 10
37889.57308192988
 20
-13624.24365116334
 30
0.0
 40
6.159910700022103
100
AcDbArc
 50
93.19941229080963
 51
163.4930068869733
  0
ARC
  5
8A
330
1F
100
AcDbEntity
  8
MSS2-500-390
  6
Continuous
 62
    18
420
        0
 48
162.0000075340271
370
    25
100
AcDbCircle
 10
37889.06469412364
 20
-13624.09646655432
 30
0.0
 40
10.8085212155781
100
AcDbArc
 50
89.11486442915225
 51
136.5283713875384
  0
ARC
  5
8B
330
1F
100
AcDbEntity
  8
MSS2-500-390
  6
Continuous
 62
    18
420
        0
 48
162.0000075340271
370
    25
100
AcDbCircle
 10
37889.93710201822
 20
-13624.19472202962
 30
0.0
 40
11.52138668666262
100
AcDbArc
 50
139.1595473476376
 51
183.4766818662686
  0
ARC
  5
8C
330
1F
100
AcDbEntity
  8
MSS2-500-390
  6
Continuous
 62
    18
420
        0
 48
162.0000075340271
370
    25
100
AcDbCircle
 10
37889.93730925629
 20
-13625.59193782923
 30
0.0
 40
11.52158436745914
100
AcDbArc
 50
176.5241317977107
 51
220.8411051562533
  0
ARC
  5
8D
330
1F
100
AcDbEntity
  8
MSS2-500-390
  6
Continuous
 62
    18
420
        0
 48
162.0000075340271
370
    25
100
AcDbCircle
 10
37889.0642623528
 20
-13625.68960536814
 30
0.0
 40
10.80866551491771
100
AcDbArc
 50
223.4768675460023
 51
270.890237122227
  0
ARC
  5
8E
330
1F
100
AcDbEntity
  8
MSS2-500-390
  6
Continuous
 62
    18
420
        0
 48
162.0000075340271
370
    25
100
AcDbCircle
 10
37925.03046621388
 20
-13620.3781292736
 30
0.0
 40
2.186180569544971
100
AcDbArc
 50
279.0895312176609
 51
83.67533595583488
  0
ARC
  5
8F
330
1F
100
AcDbEntity
  8
MSS2-500-390
  6
Continuous
 62
    18
420
        0
 48
162.0000075340271
370
    25
100
AcDbCircle
 10
37925.63830917831
 20
-13620.99619809008
 30
0.0
 40
6.369742554847889
100
AcDbArc
 50
278.0073079506292
 51
5.572465930779263
  0
ARC
  5
90
330
1F
100
AcDbEntity
  8
MSS2-500-390
  6
Continuous
 62
    18
420
        0
 48
162.0000075340271
370
    25
100
AcDbCircle
 10
37925.63988284004
 20
-13619.76289126493
 30
0.0
 40
6.367812608690737
100
AcDbArc
 50
354.4597953776715
 51
92.38467978670899
  0
ARC
  5
91
330
1F
100
AcDbEntity
  8
MSS2-500-390
  6
Continuous
 62
    18
420
        0
 48
162.0000075340271
370
    25
100
AcDbCircle
 10
37781.47097654171
 20
-13616.41355226152
 30
0.0
 40
3.224244236885948
100
AcDbArc
 50
26.28899618675848
 51
181.2713443681834
  0
ARC
  5
92
330
1F
100
AcDbEntity
  8
MSS2-500-390
  6
Continuous
 62
    18
420
        0
 48
162.0000075340271
370
    25
100
AcDbCircle
 10
37803.64335798183
 20
-13616.4129466881
 30
0.0
 40
3.223350832532582
100
AcDbArc
 50
358.7364020576685
 51
153.7147532946061
  0
ARC
  5
93
330
1F
100
AcDbEntity
  8
MSS2-500-390
  6
Continuous
 62
    18
420
        0
 48
162.0000075340271
370
    25
100
AcDbCircle
 10
37792.55787677076
 20
-13632.9965362401
 30
0.0
 40
2.867897451272214
100
AcDbArc
 50
204.4719426219853
 51
335.5644869397248
  0
LINE
  5
94
330
1F
100
AcDbEntity
  8
MSS2-500-390
  6
Continuous
 62
    18
420
        0
 48
60.00000166893005
370
    25
100
AcDbLine
 10
37122.58477866925
 20
-12986.78769245109
 30
0.0
 11
37122.58477866925
 21
-12974.78923071542
 31
0.0
  0
LINE
  5
95
330
1F
100
AcDbEntity
  8
MSS2-500-390
  6
Continuous
 62
    18
420
        0
 48
60.00000166893005
370
    25
100
AcDbLine
 10
37122.58477866925
 20
-12572.79076897974
 30
0.0
 11
37122.58477866925
 21
-12584.79076897975
 31
0.0
  0
LINE
  5
96
330
1F
100
AcDbEntity
  8
MSS2-500-390
  6
Continuous
 62
    18
420
        0
 48
60.00000166893005
370
    25
100
AcDbLine
 10
37312.48256402711
 20
-12609.6600959607
 30
0.0
 11
37313.98256402711
 21
-12567.6600959607
 31
0.0
  0
LINE
  5
97
330
1F
100
AcDbEntity
  8
MSS2-500-390
  6
Continuous
 62
    18
420
        0
 48
60.00000166893005
370
    25
100
AcDbLine
 10
37309.98256402711
 20
-12609.6600959607
 30
0.0
 11
37311.48256402711
 21
-12567.6600959607
 31
0.0
  0
LINE
  5
98
330
1F
100
AcDbEntity
  8
MSS2-500-390
  6
Continuous
 62
    18
420
        0
 48
60.00000166893005
370
    25
100
AcDbLine
 10
37307.48256402711
 20
-12609.6600959607
 30
0.0
 11
37308.98256402711
 21
-12567.6600959607
 31
0.0
  0
LINE
  5
99
330
1F
100
AcDbEntity
  8
MSS2-500-390
  6
Continuous
 62
    18
420
        0
 48
60.00000166893005
370
    25
100
AcDbLine
 10
37304.98256402711
 20
-12609.6600959607
 30
0.0
 11
37306.48256402711
 21
-12567.6600959607
 31
0.0
  0
LINE
  5
9A
330
1F
100
AcDbEntity
  8
MSS2-500-390
  6
Continuous
 62
    18
420
        0
 48
60.00000166893005
370
    25
100
AcDbLine
 10
37302.48256402711
 20
-12609.6600959607
 30
0.0
 11
37303.98256402711
 21
-12567.6600959607
 31
0.0
  0
LINE
  5
9B
330
1F
100
AcDbEntity
  8
MSS2-500-390
  6
Continuous
 62
    18
420
        0
 48
60.00000166893005
370
    25
100
AcDbLine
 10
37299.98256402711
 20
-12609.6600959607
 30
0.0
 11
37301.48256402711
 21
-12567.6600959607
 31
0.0
  0
LINE
  5
9C
330
1F
100
AcDbEntity
  8
MSS2-500-390
  6
Continuous
 62
    18
420
        0
 48
60.00000166893005
370
    25
100
AcDbLine
 10
37297.48256402712
 20
-12609.6600959607
 30
0.0
 11
37298.98256402711
 21
-12567.6600959607
 31
0.0
  0
LINE
  5
9D
330
1F
100
AcDbEntity
  8
MSS2-500-390
  6
Continuous
 62
    18
420
        0
 48
60.00000166893005
370
    25
100
AcDbLine
 10
37294.98256402711
 20
-12609.6600959607
 30
0.0
 11
37296.48256402712
 21
-12567.6600959607
 31
0.0
  0
LINE
  5
9E
330
1F
100
AcDbEntity
  8
MSS2-500-390
  6
Continuous
 62
    18
420
        0
 48
60.00000166893005
370
    25
100
AcDbLine
 10
37292.48256402712
 20
-12609.6600959607
 30
0.0
 11
37293.98256402711
 21
-12567.6600959607
 31
0.0
  0
LINE
  5
9F
330
1F
100
AcDbEntity
  8
MSS2-500-390
  6
Continuous
 62
    18
420
        0
 48
50.00000038146973
370
    25
100
AcDbLine
 10
36670.58477866925
 20
-13347.18548983414
 30
0.0
 11
36670.58477866925
 21
-13327.18548983414
 31
0.0
  0
LINE
  5
A0
330
1F
100
AcDbEntity
  8
MSS2-500-390
  6
Continuous
 62
    18
420
        0
 48
50.00000038146973
370
    25
100
AcDbLine
 10
36681.58477866925
 20
-13316.18548983414
 30
0.0
 11
36670.58477866925
 21
-13327.18548983414
 31
0.0
  0
LINE
  5
A1
330
1F
100
AcDbEntity
  8
MSS2-500-390
  6
Continuous
 62
    18
420
        0
 48
50.00000038146973
370
    25
100
AcDbLine
 10
36627.58477866925
 20
-13316.18548983414
 30
0.0
 11
36638.58477866925
 21
-13327.18548983414
 31
0.0
  0
LINE
  5
A2
330
1F
100
AcDbEntity
  8
MSS2-500-390
  6
Continuous
 62
    18
420
        0
 48
50.00000038146973
370
    25
100
AcDbLine
 10
36638.58477866925
 20
-13347.18548983414
 30
0.0
 11
36638.58477866925
 21
-13327.18548983414
 31
0.0
  0
LINE
  5
A3
330
1F
100
AcDbEntity
  8
MSS2-500-390
  6
Continuous
 62
    18
420
        0
 48
60.00000166893005
370
    25
100
AcDbLine
 10
36675.58477866925
 20
-13376.68548983414
 30
0.0
 11
36633.58477866925
 21
-13378.18548983414
 31
0.0
  0
LINE
  5
A4
330
1F
100
AcDbEntity
  8
MSS2-500-390
  6
Continuous
 62
    18
420
        0
 48
60.00000166893005
370
    25
100
AcDbLine
 10
36675.58477866925
 20
-13374.18548983414
 30
0.0
 11
36633.58477866925
 21
-13375.68548983414
 31
0.0
  0
LINE
  5
A5
330
1F
100
AcDbEntity
  8
MSS2-500-390
  6
Continuous
 62
    18
420
        0
 48
60.00000166893005
370
    25
100
AcDbLine
 10
36675.58477866925
 20
-13371.68548983414
 30
0.0
 11
36633.58477866925
 21
-13373.18548983414
 31
0.0
  0
LINE
  5
A6
330
1F
100
AcDbEntity
  8
MSS2-500-390
  6
Continuous
 62
    18
420
        0
 48
60.00000166893005
370
    25
100
AcDbLine
 10
36675.58477866925
 20
-13369.18548983414
 30
0.0
 11
36633.58477866925
 21
-13370.68548983414
 31
0.0
  0
LINE
  5
A7
330
1F
100
AcDbEntity
  8
MSS2-500-390
  6
Continuous
 62
    18
420
        0
 48
60.00000166893005
370
    25
100
AcDbLine
 10
36675.58477866925
 20
-13366.68548983414
 30
0.0
 11
36633.58477866925
 21
-13368.18548983414
 31
0.0
  0
LINE
  5
A8
330
1F
100
AcDbEntity
  8
MSS2-500-390
  6
Continuous
 62
    18
420
        0
 48
60.00000166893005
370
    25
100
AcDbLine
 10
36675.58477866925
 20
-13364.18548983414
 30
0.0
 11
36633.58477866925
 21
-13365.68548983414
 31
0.0
  0
LINE
  5
A9
330
1F
100
AcDbEntity
  8
MSS2-500-390
  6
Continuous
 62
    18
420
        0
 48
60.00000166893005
370
    25
100
AcDbLine
 10
36675.58477866925
 20
-13361.68548983414
 30
0.0
 11
36633.58477866925
 21
-13363.18548983414
 31
0.0
  0
LINE
  5
AA
330
1F
100
AcDbEntity
  8
MSS2-500-390
  6
Continuous
 62
    18
420
        0
 48
60.00000166893005
370
    25
100
AcDbLine
 10
36675.58477866925
 20
-13359.18548983414
 30
0.0
 11
36633.58477866925
 21
-13360.68548983414
 31
0.0
  0
LINE
  5
AB
330
1F
100
AcDbEntity
  8
MSS2-500-390
  6
Continuous
 62
    18
420
        0
 48
60.00000166893005
370
    25
100
AcDbLine
 10
36675.58477866925
 20
-13356.68548983414
 30
0.0
 11
36633.58477866925
 21
-13358.18548983414
 31
0.0
  0
LINE
  5
AC
330
1F
100
AcDbEntity
  8
MSS2-500-390
  6
Continuous
 62
    18
420
        0
 48
50.00000038146973
370
    25
100
AcDbLine
 10
37116.58477866925
 20
-12871.57099721049
 30
0.0
 11
37128.58131555975
 21
-12865.71511559695
 31
0.0
  0
LINE
  5
AD
330
1F
100
AcDbEntity
  8
MSS2-500-390
  6
Continuous
 62
    18
420
        0
 48
50.00000038146973
370
    25
100
AcDbLine
 10
37116.58477866925
 20
-12871.57099721049
 30
0.0
 11
37128.58131555975
 21
-12877.71511567329
 31
0.0
  0
LINE
  5
AE
330
1F
100
AcDbEntity
  8
MSS2-500-390
  6
Continuous
 62
    18
420
        0
 48
50.00000038146973
370
    25
100
AcDbLine
 10
37186.47286684925
 20
-12876.48566009156
 30
0.0
 11
37173.73451603936
 21
-12880.89037434952
 31
0.0
  0
LINE
  5
AF
330
1F
100
AcDbEntity
  8
MSS2-500-390
  6
Continuous
 62
    18
420
        0
 48
50.00000038146973
370
    25
100
AcDbLine
 10
37186.47286684925
 20
-12876.48566009156
 30
0.0
 11
37175.41393654003
 21
-12869.00847430726
 31
0.0
  0
LINE
  5
B0
330
1F
100
AcDbEntity
  8
MSS2-500-390
  6
Continuous
 62
    92
420
    57600
 48
90.00000553131103
370
    18
100
AcDbLine
 10
37313.98256402711
 20
-12609.6600959607
 30
0.0
 11
37313.98256402711
 21
-12567.6600959607
 31
0.0
  0
LINE
  5
B1
330
1F
100
AcDbEntity
  8
MSS2-500-390
  6
Continuous
 62
    18
420
        0
 48
15.00000041723251
370
    25
100
AcDbLine
 10
36392.58476058968
 20
-12572.79079358442
 30
0.0
 11
36916.58476058968
 21
-12572.79076841634
 31
0.0
  0
LINE
  5
B2
330
1F
100
AcDbEntity
  8
MSS2-500-390
  6
Continuous
 62
    18
420
        0
 48
15.00000041723251
370
    25
100
AcDbLine
 10
36392.58477866925
 20
-12986.7877170098
 30
0.0
 11
36392.58476058968
 21
-12572.79079358442
 31
0.0
  0
LINE
  5
B3
330
1F
100
AcDbEntity
  8
MSS2-500-390
  6
Continuous
 62
    18
420
        0
 48
4.999999886751175
370
    25
100
AcDbLine
 10
36404.58477814422
 20
-12974.78771454015
 30
0.0
 11
36404.58476109691
 21
-12584.79079302101
 31
0.0
  0
LINE
  5
B4
330
1F
100
AcDbEntity
  8
MSS2-500-390
  6
Continuous
 62
    18
420
        0
 48
4.999999886751175
370
    25
100
AcDbLine
 10
36404.58476144661
 20
-12592.79079302101
 30
0.0
 11
36904.5847614466
 21
-12592.79076897975
 31
0.0
  0
LINE
  5
B5
330
1F
100
AcDbEntity
  8
MSS2-500-390
  6
Continuous
 62
    18
420
        0
 48
4.999999886751175
370
    25
100
AcDbLine
 10
36404.58476109691
 20
-12584.79079302101
 30
0.0
 11
36904.58476109691
 21
-12584.79076897975
 31
0.0
  0
LINE
  5
B6
330
1F
100
AcDbEntity
  8
MSS2-500-390
  6
Continuous
 62
    18
420
        0
 48
4.999999886751175
370
    25
100
AcDbLine
 10
36904.58477814422
 20
-12974.78769242527
 30
0.0
 11
36904.58476109691
 21
-12584.79076897975
 31
0.0
  0
LINE
  5
B7
330
1F
100
AcDbEntity
  8
MSS2-500-390
  6
Continuous
 62
    18
420
        0
 48
15.00000041723251
370
    25
100
AcDbLine
 10
36916.58477866925
 20
-12986.78769194276
 30
0.0
 11
36916.58476058968
 21
-12572.79076841634
 31
0.0
  0
LINE
  5
B8
330
1F
100
AcDbEntity
  8
MSS2-500-390
  6
Continuous
 62
    18
420
        0
 48
50.00000038146973
370
    25
100
AcDbLine
 10
36404.58477814422
 20
-12974.78771454015
 30
0.0
 11
36904.58477814422
 21
-12974.78769242527
 31
0.0
  0
LINE
  5
B9
330
1F
100
AcDbEntity
  8
MSS2-500-390
  6
Continuous
 62
    18
420
        0
 48
50.00000038146973
370
    25
100
AcDbLine
 10
36916.58477866925
 20
-12986.78769194276
 30
0.0
 11
36392.58477866925
 21
-12986.7877170098
 31
0.0
  0
LINE
  5
BA
330
1F
100
AcDbEntity
  8
MSS2-500-390
  6
Continuous
 62
    18
420
        0
 48
60.00000166893005
370
    25
100
AcDbLine
 10
37251.98256402711
 20
-12584.79076897975
 30
0.0
 11
37251.98256402711
 21
-12572.79076897974
 31
0.0
  0
LINE
  5
BB
330
1F
100
AcDbEntity
  8
MSS2-500-390
  6
Continuous
 62
    18
420
        0
 48
60.00000166893005
370
    25
100
AcDbLine
 10
37251.98256402711
 20
-12608.79076897974
 30
0.0
 11
37251.98256402711
 21
-12592.79076897975
 31
0.0
  0
LINE
  5
BC
330
1F
100
AcDbEntity
  8
MSS2-500-390
  6
Continuous
 62
    18
420
        0
 48
60.00000166893005
370
    25
100
AcDbLine
 10
37232.98256402711
 20
-12548.6600959607
 30
0.0
 11
37282.98256402711
 21
-12548.6600959607
 31
0.0
  0
LINE
  5
BD
330
1F
100
AcDbEntity
  8
MSS2-500-390
  6
Continuous
 62
    18
420
        0
 48
60.00000166893005
370
    25
100
AcDbLine
 10
37233.61893546992
 20
-12628.6600959607
 30
0.0
 11
37282.98256402711
 21
-12628.6600959607
 31
0.0
  0
LINE
  5
BE
330
1F
100
AcDbEntity
  8
MSS2-500-390
  6
Continuous
 62
    18
420
        0
 48
60.00000166893005
370
    25
100
AcDbLine
 10
37282.98256402711
 20
-12628.6600959607
 30
0.0
 11
37282.98256402711
 21
-12548.6600959607
 31
0.0
  0
LINE
  5
BF
330
1F
100
AcDbEntity
  8
MSS2-500-390
  6
Continuous
 62
    18
420
        0
 48
60.00000166893005
370
    25
100
AcDbLine
 10
37232.98256402711
 20
-12572.6600959607
 30
0.0
 11
37232.98256402711
 21
-12548.6600959607
 31
0.0
  0
LINE
  5
C0
330
1F
100
AcDbEntity
  8
MSS2-500-390
  6
Continuous
 62
    18
420
        0
 48
60.00000166893005
370
    25
100
AcDbLine
 10
37251.98256402711
 20
-12598.6600959607
 30
0.0
 11
37282.98256402711
 21
-12598.6600959607
 31
0.0
  0
LINE
  5
C1
330
1F
100
AcDbEntity
  8
MSS2-500-390
  6
Continuous
 62
    18
420
        0
 48
60.00000166893005
370
    25
100
AcDbLine
 10
37251.98256402711
 20
-12578.6600959607
 30
0.0
 11
37282.98256402711
 21
-12578.6600959607
 31
0.0
  0
LINE
  5
C2
330
1F
100
AcDbEntity
  8
MSS2-500-390
  6
Continuous
 62
    18
420
        0
 48
360.0000221252441
370
    25
100
AcDbLine
 10
37313.98256402711
 20
-12609.6600959607
 30
0.0
 11
37313.98256402711
 21
-12567.6600959607
 31
0.0
  0
LINE
  5
C3
330
1F
100
AcDbEntity
  8
MSS2-500-390
  6
Continuous
 62
    18
420
        0
 48
360.0000221252441
370
    25
100
AcDbLine
 10
37313.98256402711
 20
-12567.6600959607
 30
0.0
 11
37282.98256402711
 21
-12567.6600959607
 31
0.0
  0
LINE
  5
C4
330
1F
100
AcDbEntity
  8
MSS2-500-390
  6
Continuous
 62
    18
420
        0
 48
360.0000221252441
370
    25
100
AcDbLine
 10
37282.98256402711
 20
-12609.6600959607
 30
0.0
 11
37313.98256402711
 21
-12609.6600959607
 31
0.0
  0
LINE
  5
C5
330
1F
100
AcDbEntity
  8
MSS2-500-390
  6
Continuous
 62
    18
420
        0
 48
60.00000166893005
370
    25
100
AcDbLine
 10
37282.98256402711
 20
-12557.6600959607
 30
0.0
 11
37286.98256402711
 21
-12557.6600959607
 31
0.0
  0
LINE
  5
C6
330
1F
100
AcDbEntity
  8
MSS2-500-390
  6
Continuous
 62
    18
420
        0
 48
60.00000166893005
370
    25
100
AcDbLine
 10
37282.98256402711
 20
-12619.6600959607
 30
0.0
 11
37286.98256402711
 21
-12619.6600959607
 31
0.0
  0
LINE
  5
C7
330
1F
100
AcDbEntity
  8
MSS2-500-390
  6
Continuous
 62
    18
420
        0
 48
360.0000221252441
370
    25
100
AcDbLine
 10
37290.98256402711
 20
-12563.6600959607
 30
0.0
 11
37286.98256402711
 21
-12563.6600959607
 31
0.0
  0
LINE
  5
C8
330
1F
100
AcDbEntity
  8
MSS2-500-390
  6
Continuous
 62
    18
420
        0
 48
360.0000221252441
370
    25
100
AcDbLine
 10
37286.98256402711
 20
-12613.6600959607
 30
0.0
 11
37290.98256402711
 21
-12613.6600959607
 31
0.0
  0
LINE
  5
C9
330
1F
100
AcDbEntity
  8
MSS2-500-390
  6
Continuous
 62
    18
420
        0
 48
60.00000166893005
370
    25
100
AcDbLine
 10
37290.98256402711
 20
-12613.6600959607
 30
0.0
 11
37290.98256402711
 21
-12563.6600959607
 31
0.0
  0
LINE
  5
CA
330
1F
100
AcDbEntity
  8
MSS2-500-390
  6
Continuous
 62
    18
420
        0
 48
60.00000166893005
370
    25
100
AcDbLine
 10
37286.98256402711
 20
-12619.6600959607
 30
0.0
 11
37286.98256402711
 21
-12557.6600959607
 31
0.0
  0
LINE
  5
CB
330
1F
100
AcDbEntity
  8
MSS2-500-390
  6
Continuous
 62
    18
420
        0
 48
60.00000166893005
370
    25
100
AcDbLine
 10
37241.9825640271
 20
-12588.79076897975
 30
0.0
 11
37241.9825640271
 21
-12588.79076897975
 31
0.0
  0
LINE
  5
CC
330
1F
100
AcDbEntity
  8
MSS2-500-390
  6
Continuous
 62
    18
420
        0
 48
60.00000166893005
370
    25
100
AcDbLine
 10
36404.58477866925
 20
-13186.78770447628
 30
0.0
 11
36404.58477866925
 21
-13316.18548983414
 31
0.0
  0
LINE
  5
CD
330
1F
100
AcDbEntity
  8
MSS2-500-390
  6
Continuous
 62
    18
420
        0
 48
60.00000166893005
370
    25
100
AcDbLine
 10
36392.58477866925
 20
-13186.78770447628
 30
0.0
 11
36916.58477866925
 21
-13186.78770447628
 31
0.0
  0
LINE
  5
CE
330
1F
100
AcDbEntity
  8
MSS2-500-390
  6
Continuous
 62
    18
420
        0
 48
60.00000166893005
370
    25
100
AcDbLine
 10
36392.58477866925
 20
-13186.78770447628
 30
0.0
 11
36392.58477866925
 21
-13316.18548983414
 31
0.0
  0
LINE
  5
CF
330
1F
100
AcDbEntity
  8
MSS2-500-390
  6
Continuous
 62
    18
420
        0
 48
60.00000166893005
370
    25
100
AcDbLine
 10
36904.58477866925
 20
-13186.78770447628
 30
0.0
 11
36904.58477866925
 21
-13316.18548983414
 31
0.0
  0
LINE
  5
D0
330
1F
100
AcDbEntity
  8
MSS2-500-390
  6
Continuous
 62
    18
420
        0
 48
60.00000166893005
370
    25
100
AcDbLine
 10
36916.58477866925
 20
-13186.78770447628
 30
0.0
 11
36916.58477866925
 21
-13316.18548983414
 31
0.0
  0
LINE
  5
D1
330
1F
100
AcDbEntity
  8
MSS2-500-390
  6
DASHED1
 62
    18
420
        0
 48
15.00000041723251
370
    25
100
AcDbLine
 10
36404.58477866925
 20
-13291.3013646893
 30
0.0
 11
36904.58477866925
 21
-13291.3013646893
 31
0.0
  0
LINE
  5
D2
330
1F
100
AcDbEntity
  8
MSS2-500-390
  6
DASHED1
 62
    18
420
        0
 48
15.00000041723251
370
    25
100
AcDbLine
 10
36681.58477866925
 20
-13306.18548983414
 30
0.0
 11
36904.58477866925
 21
-13301.18548983414
 31
0.0
  0
LINE
  5
D3
330
1F
100
AcDbEntity
  8
MSS2-500-390
  6
Continuous
 62
    18
420
        0
 48
36.00000100135803
370
    25
100
AcDbLine
 10
36404.58477866925
 20
-13299.91140251409
 30
0.0
 11
36904.58477866925
 21
-13299.91140251409
 31
0.0
  0
LINE
  5
D4
330
1F
100
AcDbEntity
  8
MSS2-500-390
  6
Continuous
 62
    18
420
        0
 48
60.00000166893005
370
    25
100
AcDbLine
 10
36694.58477866925
 20
-13316.18548983414
 30
0.0
 11
36916.58477866925
 21
-13316.18548983414
 31
0.0
  0
LINE
  5
D5
330
1F
100
AcDbEntity
  8
MSS2-500-390
  6
Continuous
 62
    18
420
        0
 48
60.00000166893005
370
    25
100
AcDbLine
 10
36392.58477866925
 20
-13316.18548983414
 30
0.0
 11
36614.58477866925
 21
-13316.18548983414
 31
0.0
  0
LINE
  5
D6
330
1F
100
AcDbEntity
  8
MSS2-500-390
  6
DASHED1
 62
    18
420
        0
 48
15.00000041723251
370
    25
100
AcDbLine
 10
36404.58477866925
 20
-13301.18548983414
 30
0.0
 11
36627.58477866925
 21
-13306.18548983414
 31
0.0
  0
LINE
  5
D7
330
1F
100
AcDbEntity
  8
MSS2-500-390
  6
Continuous
 62
    18
420
        0
 48
60.00000166893005
370
    25
100
AcDbLine
 10
36614.58477866925
 20
-13299.91140251409
 30
0.0
 11
36614.58477866925
 21
-13347.18548983414
 31
0.0
  0
LINE
  5
D8
330
1F
100
AcDbEntity
  8
MSS2-500-390
  6
Continuous
 62
    18
420
        0
 48
60.00000166893005
370
    25
100
AcDbLine
 10
36694.58477866925
 20
-13347.18548983414
 30
0.0
 11
36614.58477866925
 21
-13347.18548983414
 31
0.0
  0
LINE
  5
D9
330
1F
100
AcDbEntity
  8
MSS2-500-390
  6
Continuous
 62
    18
420
        0
 48
60.00000166893005
370
    25
100
AcDbLine
 10
36694.58477866925
 20
-13299.91140251409
 30
0.0
 11
36694.58477866925
 21
-13347.18548983414
 31
0.0
  0
LINE
  5
DA
330
1F
100
AcDbEntity
  8
MSS2-500-390
  6
Continuous
 62
    18
420
        0
 48
60.00000166893005
370
    25
100
AcDbLine
 10
36681.58477866925
 20
-13306.18548983414
 30
0.0
 11
36681.58477866925
 21
-13316.18548983414
 31
0.0
  0
LINE
  5
DB
330
1F
100
AcDbEntity
  8
MSS2-500-390
  6
Continuous
 62
    18
420
        0
 48
60.00000166893005
370
    25
100
AcDbLine
 10
36627.58477866925
 20
-13306.18548983414
 30
0.0
 11
36627.58477866925
 21
-13316.18548983414
 31
0.0
  0
LINE
  5
DC
330
1F
100
AcDbEntity
  8
MSS2-500-390
  6
Continuous
 62
    92
420
    57600
 48
360.0000221252441
370
    18
100
AcDbLine
 10
36633.58477866925
 20
-13378.18548983414
 30
0.0
 11
36675.58477866925
 21
-13378.18548983414
 31
0.0
  0
LINE
  5
DD
330
1F
100
AcDbEntity
  8
MSS2-500-390
  6
Continuous
 62
    18
420
        0
 48
360.0000221252441
370
    25
100
AcDbLine
 10
36675.58477866925
 20
-13378.18548983414
 30
0.0
 11
36633.58477866925
 21
-13378.18548983414
 31
0.0
  0
LINE
  5
DE
330
1F
100
AcDbEntity
  8
MSS2-500-390
  6
Continuous
 62
    18
420
        0
 48
360.0000221252441
370
    25
100
AcDbLine
 10
36633.58477866925
 20
-13378.18548983414
 30
0.0
 11
36633.58477866925
 21
-13347.18548983414
 31
0.0
  0
LINE
  5
DF
330
1F
100
AcDbEntity
  8
MSS2-500-390
  6
Continuous
 62
    18
420
        0
 48
360.0000221252441
370
    25
100
AcDbLine
 10
36675.58477866925
 20
-13347.18548983414
 30
0.0
 11
36675.58477866925
 21
-13378.18548983414
 31
0.0
  0
LINE
  5
E0
330
1F
100
AcDbEntity
  8
MSS2-500-390
  6
Continuous
 62
    18
420
        0
 48
60.00000166893005
370
    25
100
AcDbLine
 10
36623.58477866925
 20
-13347.18548983414
 30
0.0
 11
36623.58477866925
 21
-13351.18548983414
 31
0.0
  0
LINE
  5
E1
330
1F
100
AcDbEntity
  8
MSS2-500-390
  6
Continuous
 62
    18
420
        0
 48
60.00000166893005
370
    25
100
AcDbLine
 10
36685.58477866925
 20
-13347.18548983414
 30
0.0
 11
36685.58477866925
 21
-13351.18548983414
 31
0.0
  0
LINE
  5
E2
330
1F
100
AcDbEntity
  8
MSS2-500-390
  6
Continuous
 62
    18
420
        0
 48
360.0000221252441
370
    25
100
AcDbLine
 10
36629.58477866925
 20
-13355.18548983414
 30
0.0
 11
36629.58477866925
 21
-13351.18548983414
 31
0.0
  0
LINE
  5
E3
330
1F
100
AcDbEntity
  8
MSS2-500-390
  6
Continuous
 62
    18
420
        0
 48
360.0000221252441
370
    25
100
AcDbLine
 10
36679.58477866925
 20
-13351.18548983414
 30
0.0
 11
36679.58477866925
 21
-13355.18548983414
 31
0.0
  0
LINE
  5
E4
330
1F
100
AcDbEntity
  8
MSS2-500-390
  6
Continuous
 62
    18
420
        0
 48
60.00000166893005
370
    25
100
AcDbLine
 10
36679.58477866925
 20
-13355.18548983414
 30
0.0
 11
36629.58477866925
 21
-13355.18548983414
 31
0.0
  0
LINE
  5
E5
330
1F
100
AcDbEntity
  8
MSS2-500-390
  6
Continuous
 62
    18
420
        0
 48
60.00000166893005
370
    25
100
AcDbLine
 10
36685.58477866925
 20
-13351.18548983414
 30
0.0
 11
36623.58477866925
 21
-13351.18548983414
 31
0.0
  0
LINE
  5
E6
330
1F
100
AcDbEntity
  8
MSS2-500-390
  6
DASHED1
 62
    18
420
        0
 48
15.00000041723251
370
    25
100
AcDbLine
 10
36614.58477866925
 20
-13316.18548983414
 30
0.0
 11
36694.58477866925
 21
-13316.18548983414
 31
0.0
  0
LINE
  5
E7
330
1F
100
AcDbEntity
  8
MSS2-500-390
  6
Continuous
 62
    18
420
        0
 48
0.3000000225380063
370
    25
100
AcDbLine
 10
37128.58477866925
 20
-12514.79076897975
 30
0.0
 11
37128.58477866925
 21
-12572.79076897974
 31
0.0
  0
LINE
  5
E8
330
1F
100
AcDbEntity
  8
MSS2-500-390
  6
Continuous
 62
    18
420
        0
 48
0.3000000225380063
370
    25
100
AcDbLine
 10
37116.58477866925
 20
-12514.79076897975
 30
0.0
 11
37116.58477866925
 21
-13014.78769245109
 31
0.0
  0
LINE
  5
E9
330
1F
100
AcDbEntity
  8
MSS2-500-390
  6
Continuous
 62
    18
420
        0
 48
0.3000000225380063
370
    25
100
AcDbLine
 10
37116.58477866925
 20
-12514.79076897975
 30
0.0
 11
37128.58477866925
 21
-12514.79076897975
 31
0.0
  0
LINE
  5
EA
330
1F
100
AcDbEntity
  8
MSS2-500-390
  6
Continuous
 62
    18
420
        0
 48
0.3000000225380063
370
    25
100
AcDbLine
 10
37116.58477866925
 20
-13014.78769245109
 30
0.0
 11
37128.58477866925
 21
-13014.78769245109
 31
0.0
  0
LINE
  5
EB
330
1F
100
AcDbEntity
  8
MSS2-500-390
  6
Continuous
 62
    18
420
        0
 48
0.3000000225380063
370
    25
100
AcDbLine
 10
37128.58477866925
 20
-12986.78769245109
 30
0.0
 11
37128.58477866925
 21
-13014.78769245109
 31
0.0
  0
LINE
  5
EC
330
1F
100
AcDbEntity
  8
MSS2-500-390
  6
Continuous
 62
    18
420
        0
 48
0.3000000225380063
370
    25
100
AcDbLine
 10
37183.0001939165
 20
-12986.78769245109
 30
0.0
 11
37122.58477866925
 21
-12986.78769245109
 31
0.0
  0
LINE
  5
ED
330
1F
100
AcDbEntity
  8
MSS2-500-390
  6
Continuous
 62
    18
420
        0
 48
0.3000000225380063
370
    25
100
AcDbLine
 10
37116.58477866925
 20
-12974.78923071542
 30
0.0
 11
37172.57836923456
 21
-12974.78923071542
 31
0.0
  0
LINE
  5
EE
330
1F
100
AcDbEntity
  8
MSS2-500-390
  6
Continuous
 62
    18
420
        0
 48
0.3000000225380063
370
    25
100
AcDbLine
 10
37226.57108467425
 20
-12592.79076897975
 30
0.0
 11
37172.57836923456
 21
-12974.78923071542
 31
0.0
  0
LINE
  5
EF
330
1F
100
AcDbEntity
  8
MSS2-500-390
  6
Continuous
 62
    18
420
        0
 48
0.3000000225380063
370
    25
100
AcDbLine
 10
37236.42732090892
 20
-12608.79076897974
 30
0.0
 11
37183.0001939165
 21
-12986.78769245109
 31
0.0
  0
LINE
  5
F0
330
1F
100
AcDbEntity
  8
MSS2-500-390
  6
Continuous
 62
    18
420
        0
 48
0.3000000225380063
370
    25
100
AcDbLine
 10
37122.58477866925
 20
-12572.79076897974
 30
0.0
 11
37251.98256402711
 21
-12572.79076897974
 31
0.0
  0
LINE
  5
F1
330
1F
100
AcDbEntity
  8
MSS2-500-390
  6
Continuous
 62
    18
420
        0
 48
0.3000000225380063
370
    25
100
AcDbLine
 10
37116.58477866925
 20
-12584.79076897975
 30
0.0
 11
37251.98256402711
 21
-12584.79076897975
 31
0.0
  0
LINE
  5
F2
330
1F
100
AcDbEntity
  8
MSS2-500-390
  6
Continuous
 62
    18
420
        0
 48
0.3000000225380063
370
    25
100
AcDbLine
 10
37226.57108467425
 20
-12592.79076897975
 30
0.0
 11
37251.98256402711
 21
-12592.79076897975
 31
0.0
  0
LINE
  5
F3
330
1F
100
AcDbEntity
  8
MSS2-500-390
  6
Continuous
 62
    18
420
        0
 48
0.3000000225380063
370
    25
100
AcDbLine
 10
37236.42732090892
 20
-12608.79076897974
 30
0.0
 11
37251.98256402711
 21
-12608.79076897974
 31
0.0
  0
LINE
  5
F4
330
1F
100
AcDbEntity
  8
MSS2-500-390
  6
Continuous
 62
    18
420
        0
 48
60.00000166893005
370
    25
100
AcDbLine
 10
36092.81162392461
 20
-12293.241903803
 30
0.0
 11
36092.81162392461
 21
-13728.24190990651
 31
0.0
  0
LINE
  5
F5
330
1F
100
AcDbEntity
  8
MSS2-500-390
  6
Continuous
 62
    18
420
        0
 48
120.0000033378601
370
    25
100
AcDbLine
 10
36092.81162392461
 20
-13728.24190990651
 30
0.0
 11
38142.81168801153
 21
-13728.24190990651
 31
0.0
  0
LINE
  5
F6
330
1F
100
AcDbEntity
  8
MSS2-500-390
  6
Continuous
 62
    18
420
        0
 48
60.00000166893005
370
    25
100
AcDbLine
 10
38142.81168801153
 20
-13728.24190990651
 30
0.0
 11
38142.81168801153
 21
-12293.241903803
 31
0.0
  0
LINE
  5
F7
330
1F
100
AcDbEntity
  8
MSS2-500-390
  6
Continuous
 62
    18
420
        0
 48
60.00000166893005
370
    25
100
AcDbLine
 10
36177.8116681751
 20
-13696.24181918824
 30
0.0
 11
38122.81135842168
 21
-13696.24181918824
 31
0.0
  0
LINE
  5
F8
330
1F
100
AcDbEntity
  8
MSS2-500-390
  6
Continuous
 62
    18
420
        0
 48
60.00000166893005
370
    25
100
AcDbLine
 10
38122.81135842168
 20
-13696.24181918824
 30
0.0
 11
38122.81135842168
 21
-12305.24194652761
 31
0.0
  0
LINE
  5
F9
330
1F
100
AcDbEntity
  8
MSS2-500-390
  6
Continuous
 62
    18
420
        0
 48
60.00000166893005
370
    25
100
AcDbLine
 10
36177.8116681751
 20
-12305.24194652761
 30
0.0
 11
36177.8116681751
 21
-13696.24181918824
 31
0.0
  0
LINE
  5
FA
330
1F
100
AcDbEntity
  8
MSS2-500-390
  6
Continuous
 62
    18
420
        0
 48
60.00000166893005
370
    25
100
AcDbLine
 10
37267.81162392461
 20
-13696.24181918824
 30
0.0
 11
37267.81162392461
 21
-13705.765429092
 31
0.0
  0
LINE
  5
FB
330
1F
100
AcDbEntity
  8
MSS2-500-390
  6
Continuous
 62
    18
420
        0
 48
60.00000166893005
370
    25
100
AcDbLine
 10
36742.81162392461
 20
-13696.24181918824
 30
0.0
 11
36742.81162392461
 21
-13705.765429092
 31
0.0
  0
LINE
  5
FC
330
1F
100
AcDbEntity
  8
MSS2-500-390
  6
Continuous
 62
    18
420
        0
 48
907.2000518798828
370
    25
100
AcDbLine
 10
38122.81135842168
 20
-13696.24181918824
 30
0.0
 11
38122.81135842168
 21
-13473.49181918824
 31
0.0
  0
LINE
  5
FD
330
1F
100
AcDbEntity
  8
MSS2-500-390
  6
Continuous
 62
    18
420
        0
 48
907.2000518798828
370
    25
100
AcDbLine
 10
37748.81135842168
 20
-13696.24181918824
 30
0.0
 11
37748.81135842168
 21
-13583.49181918825
 31
0.0
  0
LINE
  5
FE
330
1F
100
AcDbEntity
  8
MSS2-500-390
  6
Continuous
 62
    18
420
        0
 48
60.00000166893005
370
    25
100
AcDbLine
 10
37748.81135842168
 20
-13583.49181918825
 30
0.0
 11
38122.81135842168
 21
-13583.49181918825
 31
0.0
  0
LINE
  5
FF
330
1F
100
AcDbEntity
  8
MSS2-500-390
  6
Continuous
 62
    18
420
        0
 48
162.0000075340271
370
    25
100
AcDbLine
 10
37814.32220376549
 20
-13613.38310243998
 30
0.0
 11
37843.94770193589
 21
-13613.38118448159
 31
0.0
  0
LINE
  5
100
330
1F
100
AcDbEntity
  8
MSS2-500-390
  6
Continuous
 62
    18
420
        0
 48
162.0000075340271
370
    25
100
AcDbLine
 10
37810.49447431661
 20
-13622.64041809854
 30
0.0
 11
37847.77367233126
 21
-13622.63929955039
 31
0.0
  0
LINE
  5
101
330
1F
100
AcDbEntity
  8
MSS2-500-390
  6
Continuous
 62
    18
420
        0
 48
162.0000075340271
370
    25
100
AcDbLine
 10
37846.59514854834
 20
-13618.01216184986
 30
0.0
 11
37811.67441080404
 21
-13618.01106602071
 31
0.0
  0
LINE
  5
102
330
1F
100
AcDbEntity
  8
MSS2-500-390
  6
Continuous
 62
    18
420
        0
 48
162.0000075340271
370
    25
100
AcDbLine
 10
37811.67632891272
 20
-13631.83568720558
 30
0.0
 11
37846.59472096477
 21
-13631.83273340056
 31
0.0
  0
LINE
  5
103
330
1F
100
AcDbEntity
  8
MSS2-500-390
  6
Continuous
 62
    18
420
        0
 48
162.0000075340271
370
    25
100
AcDbLine
 10
37847.77465719914
 20
-13627.2022089137
 30
0.0
 11
37810.49545943756
 21
-13627.20449987088
 31
0.0
  0
LINE
  5
104
330
1F
100
AcDbEntity
  8
MSS2-500-390
  6
Continuous
 62
    18
420
        0
 48
162.0000075340271
370
    25
100
AcDbLine
 10
37843.94927321246
 20
-13636.46250838005
 30
0.0
 11
37814.32132322727
 21
-13636.46250838005
 31
0.0
  0
LINE
  5
105
330
1F
100
AcDbEntity
  8
MSS2-500-390
  6
Continuous
 62
    18
420
        0
 48
162.0000075340271
370
    25
100
AcDbLine
 10
37850.71312362067
 20
-13636.50528025373
 30
0.0
 11
37869.08914402601
 21
-13636.50600357143
 31
0.0
  0
LINE
  5
106
330
1F
100
AcDbEntity
  8
MSS2-500-390
  6
Continuous
 62
    18
420
        0
 48
162.0000075340271
370
    25
100
AcDbLine
 10
37869.08730503196
 20
-13622.55412269244
 30
0.0
 11
37857.58789005797
 21
-13622.55255460972
 31
0.0
  0
LINE
  5
107
330
1F
100
AcDbEntity
  8
MSS2-500-390
  6
Continuous
 62
    18
420
        0
 48
162.0000075340271
370
    25
100
AcDbLine
 10
37857.48335655569
 20
-13618.21988610778
 30
0.0
 11
37875.96190906878
 21
-13618.21877538978
 31
0.0
  0
LINE
  5
108
330
1F
100
AcDbEntity
  8
MSS2-500-390
  6
Continuous
 62
    18
420
        0
 48
162.0000075340271
370
    25
100
AcDbLine
 10
37875.96190906878
 20
-13618.21877538978
 30
0.0
 11
37875.96311051398
 21
-13613.41530852686
 31
0.0
  0
LINE
  5
109
330
1F
100
AcDbEntity
  8
MSS2-500-390
  6
Continuous
 62
    18
420
        0
 48
162.0000075340271
370
    25
100
AcDbLine
 10
37875.96311051398
 20
-13613.41530852686
 30
0.0
 11
37857.48349203647
 21
-13613.41577997908
 31
0.0
  0
LINE
  5
10A
330
1F
100
AcDbEntity
  8
MSS2-500-390
  6
Continuous
 62
    18
420
        0
 48
162.0000075340271
370
    25
100
AcDbLine
 10
37857.48532902908
 20
-13627.35838816846
 30
0.0
 11
37868.9847454984
 21
-13627.36688412273
 31
0.0
  0
LINE
  5
10B
330
1F
100
AcDbEntity
  8
MSS2-500-390
  6
Continuous
 62
    18
420
        0
 48
162.0000075340271
370
    25
100
AcDbLine
 10
37869.08810695972
 20
-13631.70125819995
 30
0.0
 11
37850.7132593545
 21
-13631.70234653406
 31
0.0
  0
LINE
  5
10C
330
1F
100
AcDbEntity
  8
MSS2-500-390
  6
Continuous
 62
    18
420
        0
 48
162.0000075340271
370
    25
100
AcDbLine
 10
37850.7132593545
 20
-13631.70234653406
 30
0.0
 11
37850.71312362067
 21
-13636.50528025373
 31
0.0
  0
LINE
  5
10D
330
1F
100
AcDbEntity
  8
MSS2-500-390
  6
Continuous
 62
    18
420
        0
 48
162.0000075340271
370
    25
100
AcDbLine
 10
37889.23219598085
 20
-13636.49696621665
 30
0.0
 11
37904.25501983885
 21
-13636.49777379943
 31
0.0
  0
LINE
  5
10E
330
1F
100
AcDbEntity
  8
MSS2-500-390
  6
Continuous
 62
    18
420
        0
 48
162.0000075340271
370
    25
100
AcDbLine
 10
37904.25501983885
 20
-13636.49777379943
 30
0.0
 11
37904.25515520461
 21
-13631.69313475754
 31
0.0
  0
LINE
  5
10F
330
1F
100
AcDbEntity
  8
MSS2-500-390
  6
Continuous
 62
    18
420
        0
 48
162.0000075340271
370
    25
100
AcDbLine
 10
37904.25515520461
 20
-13631.69313475754
 30
0.0
 11
37889.23115919064
 21
-13631.69349983685
 31
0.0
  0
LINE
  5
110
330
1F
100
AcDbEntity
  8
MSS2-500-390
  6
Continuous
 62
    18
420
        0
 48
162.0000075340271
370
    25
100
AcDbLine
 10
37883.66691571338
 20
-13627.29582194814
 30
0.0
 11
37904.25537826549
 21
-13627.29478873597
 31
0.0
  0
LINE
  5
111
330
1F
100
AcDbEntity
  8
MSS2-500-390
  6
Continuous
 62
    18
420
        0
 48
162.0000075340271
370
    25
100
AcDbLine
 10
37904.25537826549
 20
-13627.29478873597
 30
0.0
 11
37904.25434172832
 21
-13622.49249476519
 31
0.0
  0
LINE
  5
112
330
1F
100
AcDbEntity
  8
MSS2-500-390
  6
Continuous
 62
    18
420
        0
 48
162.0000075340271
370
    25
100
AcDbLine
 10
37904.25434172832
 20
-13622.49249476519
 30
0.0
 11
37883.66705156224
 21
-13622.49342114167
 31
0.0
  0
LINE
  5
113
330
1F
100
AcDbEntity
  8
MSS2-500-390
  6
Continuous
 62
    18
420
        0
 48
162.0000075340271
370
    25
100
AcDbLine
 10
37889.22928953052
 20
-13618.09334168996
 30
0.0
 11
37904.25573683016
 21
-13618.09244316834
 31
0.0
  0
LINE
  5
114
330
1F
100
AcDbEntity
  8
MSS2-500-390
  6
Continuous
 62
    18
420
        0
 48
162.0000075340271
370
    25
100
AcDbLine
 10
37904.25573683016
 20
-13618.09244316834
 30
0.0
 11
37904.25576598135
 21
-13613.28950947167
 31
0.0
  0
LINE
  5
115
330
1F
100
AcDbEntity
  8
MSS2-500-390
  6
Continuous
 62
    18
420
        0
 48
162.0000075340271
370
    25
100
AcDbLine
 10
37904.25576598135
 20
-13613.28950947167
 30
0.0
 11
37889.23166324672
 21
-13613.28923507815
 31
0.0
  0
LINE
  5
116
330
1F
100
AcDbEntity
  8
MSS2-500-390
  6
Continuous
 62
    18
420
        0
 48
162.0000075340271
370
    25
100
AcDbLine
 10
37907.7152195126
 20
-13636.47059444697
 30
0.0
 11
37912.82031487614
 21
-13636.47002546573
 31
0.0
  0
LINE
  5
117
330
1F
100
AcDbEntity
  8
MSS2-500-390
  6
Continuous
 62
    18
420
        0
 48
162.0000075340271
370
    25
100
AcDbLine
 10
37912.82031487614
 20
-13636.47002546573
 30
0.0
 11
37912.8209554674
 21
-13618.20453128017
 31
0.0
  0
LINE
  5
118
330
1F
100
AcDbEntity
  8
MSS2-500-390
  6
Continuous
 62
    18
420
        0
 48
162.0000075340271
370
    25
100
AcDbLine
 10
37912.8209554674
 20
-13618.20453128017
 30
0.0
 11
37925.27130060958
 21
-13618.20525461626
 31
0.0
  0
LINE
  5
119
330
1F
100
AcDbEntity
  8
MSS2-500-390
  6
Continuous
 62
    18
420
        0
 48
162.0000075340271
370
    25
100
AcDbLine
 10
37925.37583388181
 20
-13622.53685729181
 30
0.0
 11
37914.28953409122
 21
-13622.53925018193
 31
0.0
  0
LINE
  5
11A
330
1F
100
AcDbEntity
  8
MSS2-500-390
  6
Continuous
 62
    18
420
        0
 48
162.0000075340271
370
    25
100
AcDbLine
 10
37914.28953409122
 20
-13622.53925018193
 30
0.0
 11
37914.28950977108
 21
-13627.36456623281
 31
0.0
  0
LINE
  5
11B
330
1F
100
AcDbEntity
  8
MSS2-500-390
  6
Continuous
 62
    18
420
        0
 48
162.0000075340271
370
    25
100
AcDbLine
 10
37914.28950977108
 20
-13627.36456623281
 30
0.0
 11
37920.42941611585
 21
-13627.36441339168
 31
0.0
  0
LINE
  5
11C
330
1F
100
AcDbEntity
  8
MSS2-500-390
  6
Continuous
 62
    18
420
        0
 48
162.0000075340271
370
    25
100
AcDbLine
 10
37920.42941611585
 20
-13627.36441339168
 30
0.0
 11
37926.6829865923
 21
-13636.47055054496
 31
0.0
  0
LINE
  5
11D
330
1F
100
AcDbEntity
  8
MSS2-500-390
  6
Continuous
 62
    18
420
        0
 48
162.0000075340271
370
    25
100
AcDbLine
 10
37926.6829865923
 20
-13636.47055054496
 30
0.0
 11
37932.9368293872
 21
-13636.46856120659
 31
0.0
  0
LINE
  5
11E
330
1F
100
AcDbEntity
  8
MSS2-500-390
  6
Continuous
 62
    18
420
        0
 48
162.0000075340271
370
    25
100
AcDbLine
 10
37932.9368293872
 20
-13636.46856120659
 30
0.0
 11
37926.52561053475
 21
-13627.30383762622
 31
0.0
  0
LINE
  5
11F
330
1F
100
AcDbEntity
  8
MSS2-500-390
  6
Continuous
 62
    18
420
        0
 48
162.0000075340271
370
    25
100
AcDbLine
 10
37925.37492771792
 20
-13613.40059323649
 30
0.0
 11
37907.71599558464
 21
-13613.4009941327
 31
0.0
  0
LINE
  5
120
330
1F
100
AcDbEntity
  8
MSS2-500-390
  6
Continuous
 62
    18
420
        0
 48
162.0000075340271
370
    25
100
AcDbLine
 10
37907.71599558464
 20
-13613.4009941327
 30
0.0
 11
37907.7152195126
 21
-13636.47059444697
 31
0.0
  0
LINE
  5
121
330
1F
100
AcDbEntity
  8
MSS2-500-390
  6
Continuous
 62
    18
420
        0
 48
162.0000075340271
370
    25
100
AcDbLine
 10
37778.24960825902
 20
-13636.50194921968
 30
0.0
 11
37778.24752601374
 21
-13616.48508961423
 31
0.0
  0
LINE
  5
122
330
1F
100
AcDbEntity
  8
MSS2-500-390
  6
Continuous
 62
    18
420
        0
 48
162.0000075340271
370
    25
100
AcDbLine
 10
37784.36174205579
 20
-13614.98553768117
 30
0.0
 11
37792.55823819197
 21
-13628.67782639219
 31
0.0
  0
LINE
  5
123
330
1F
100
AcDbEntity
  8
MSS2-500-390
  6
Continuous
 62
    18
420
        0
 48
162.0000075340271
370
    25
100
AcDbLine
 10
37792.55823819197
 20
-13628.67782639219
 30
0.0
 11
37800.75330005032
 21
-13614.98551692028
 31
0.0
  0
LINE
  5
124
330
1F
100
AcDbEntity
  8
MSS2-500-390
  6
Continuous
 62
    18
420
        0
 48
162.0000075340271
370
    25
100
AcDbLine
 10
37806.86592496514
 20
-13616.48402852611
 30
0.0
 11
37806.86800723342
 21
-13636.5009947142
 31
0.0
  0
LINE
  5
125
330
1F
100
AcDbEntity
  8
MSS2-500-390
  6
Continuous
 62
    18
420
        0
 48
162.0000075340271
370
    25
100
AcDbLine
 10
37806.86800723342
 20
-13636.5009947142
 30
0.0
 11
37801.85958218554
 21
-13636.50090333404
 31
0.0
  0
LINE
  5
126
330
1F
100
AcDbEntity
  8
MSS2-500-390
  6
Continuous
 62
    18
420
        0
 48
162.0000075340271
370
    25
100
AcDbLine
 10
37801.85958218554
 20
-13636.50090333404
 30
0.0
 11
37801.85901350989
 21
-13623.00263791409
 31
0.0
  0
LINE
  5
127
330
1F
100
AcDbEntity
  8
MSS2-500-390
  6
Continuous
 62
    18
420
        0
 48
162.0000075340271
370
    25
100
AcDbLine
 10
37801.85901350989
 20
-13623.00263791409
 30
0.0
 11
37795.16888929281
 21
-13634.18289596662
 31
0.0
  0
LINE
  5
128
330
1F
100
AcDbEntity
  8
MSS2-500-390
  6
Continuous
 62
    18
420
        0
 48
162.0000075340271
370
    25
100
AcDbLine
 10
37789.94761908269
 20
-13634.18455584971
 30
0.0
 11
37783.25735830168
 21
-13623.00494761192
 31
0.0
  0
LINE
  5
129
330
1F
100
AcDbEntity
  8
MSS2-500-390
  6
Continuous
 62
    18
420
        0
 48
162.0000075340271
370
    25
100
AcDbLine
 10
37783.25735830168
 20
-13623.00494761192
 30
0.0
 11
37783.25686101291
 21
-13636.50257376609
 31
0.0
  0
LINE
  5
12A
330
1F
100
AcDbEntity
  8
MSS2-500-390
  6
Continuous
 62
    18
420
        0
 48
162.0000075340271
370
    25
100
AcDbLine
 10
37783.25686101291
 20
-13636.50257376609
 30
0.0
 11
37778.24960825902
 21
-13636.50194921968
 31
0.0
  0
LINE
  5
12B
330
1F
100
AcDbEntity
  8
MSS2-500-390
  6
Continuous
 62
    18
420
        0
 48
60.00000166893005
370
    25
100
AcDbLine
 10
37748.81135842168
 20
-13696.24181918824
 30
0.0
 11
38122.81135842168
 21
-13696.24181918824
 31
0.0
  0
LINE
  5
12C
330
1F
100
AcDbEntity
  8
MSS2-500-390
  6
Continuous
 62
    18
420
        0
 48
60.00000166893005
370
    25
100
AcDbLine
 10
36092.81162392461
 20
-13010.74190685476
 30
0.0
 11
36152.81162392462
 21
-13010.74190685476
 31
0.0
  0
LINE
  5
12D
330
1F
100
AcDbEntity
  8
MSS2-500-390
  6
Continuous
 62
    18
420
        0
 48
60.00000166893005
370
    25
100
AcDbLine
 10
38142.81168801153
 20
-12293.241903803
 30
0.0
 11
36092.81162392461
 21
-12293.241903803
 31
0.0
  0
LINE
  5
12E
330
1F
100
AcDbEntity
  8
MSS2-500-390
  6
Continuous
 62
    18
420
        0
 48
60.00000166893005
370
    25
100
AcDbLine
 10
38122.81135842168
 20
-12305.24194652761
 30
0.0
 11
36177.8116681751
 21
-12305.24194652761
 31
0.0
  0
LINE
  5
12F
330
1F
100
AcDbEntity
  8
MSS2-500-390
  6
Continuous
 62
    18
420
        0
 48
60.00000166893005
370
    25
100
AcDbLine
 10
37267.81162392461
 20
-12305.24194652761
 30
0.0
 11
37267.81162392461
 21
-12293.241903803
 31
0.0
  0
LINE
  5
130
330
1F
100
AcDbEntity
  8
MSS2-500-390
  6
Continuous
 62
    18
420
        0
 48
60.00000166893005
370
    25
100
AcDbLine
 10
36742.81162392461
 20
-12305.24194652761
 30
0.0
 11
36742.81162392461
 21
-12293.241903803
 31
0.0
  0
INSERT
  5
134
330
1F
100
AcDbEntity
  8
MSS2-500-390
  6
Continuous
 62
    18
420
        0
 48
50.00000038146973
370
    25
100
AcDbBlockReference
  2
Dimension14
 10
0.0
 20
0.0
 30
0.0
  0
INSERT
  5
138
330
1F
100
AcDbEntity
  8
MSS2-500-390
  6
Continuous
 62
    18
420
        0
 48
50.00000038146973
370
    25
100
AcDbBlockReference
  2
Dimension15
 10
0.0
 20
0.0
 30
0.0
  0
INSERT
  5
13C
330
1F
100
AcDbEntity
  8
MSS2-500-390
  6
Continuous
 62
    18
420
        0
 48
50.00000038146973
370
    25
100
AcDbBlockReference
  2
Dimension16
 10
0.0
 20
0.0
 30
0.0
  0
INSERT
  5
140
330
1F
100
AcDbEntity
  8
MSS2-500-390
  6
Continuous
 62
    18
420
        0
 48
50.00000038146973
370
    25
100
AcDbBlockReference
  2
Dimension17
 10
0.0
 20
0.0
 30
0.0
  0
INSERT
  5
144
330
1F
100
AcDbEntity
  8
MSS2-500-390
  6
Continuous
 62
    18
420
        0
 48
50.00000038146973
370
    25
100
AcDbBlockReference
  2
Dimension18
 10
0.0
 20
0.0
 30
0.0
  0
INSERT
  5
148
330
1F
100
AcDbEntity
  8
MSS2-500-390
  6
Continuous
 62
    18
420
        0
 48
50.00000038146973
370
    25
100
AcDbBlockReference
  2
Dimension19
 10
0.0
 20
0.0
 30
0.0
  0
DIMENSION
  5
14A
330
1F
100
AcDbEntity
  8
MSS2-500-390
  6
Continuous
 62
    18
420
        0
 48
50.00000038146973
370
    25
100
AcDbDimension
  2
*D20
 10
36904.58477814422
 20
-13045.7877170098
 30
0.0
 11
36654.58477814422
 21
-13005.36771292092
 31
0.0
 70
    32
 71
     5
 42
500.0
  3
ISO-25
100
AcDbAlignedDimension
 13
36404.58477814422
 23
-12974.78771454015
 33
0.0
 14
36904.58477814422
 24
-12974.78769242527
 34
0.0
100
AcDbRotatedDimension
1001
ACAD
1000
DSTYLE
1002
{
1070
   271
1070
     3
1070
   177
1070
    18
1070
   176
1070
    18
1070
   140
1040
40.0
1070
    76
1070
     0
1070
    75
1070
     0
1070
   282
1070
     0
1070
   281
1070
     0
1070
   174
1070
     1
1070
    42
1040
0.0
1070
    49
1040
19.9999995470047
1070
   290
1070
     1
1070
    44
1040
19.9999995470047
1070
    46
1040
0.0
1070
    41
1040
15.00000059604645
1070
   173
1070
     1
1070
   342
1005
0
1070
   344
1005
158
1070
   343
1005
158
1070
   147
1040
20.00000408887863
1070
    70
1070
    18
1070
    69
1070
     0
1070
   340
1005
149
1070
   278
1070
    46
1002
}
1001
ACAD_DSTYLE_DIMEXT_ENABLED
1070
   383
1070
     1
1001
ACAD_DSTYLE_DIMEXT_LENGTH
1070
   378
1040
19.9999995470047
  0
DIMENSION
  5
15F
330
1F
100
AcDbEntity
  8
MSS2-500-390
  6
Continuous
 62
    18
420
        0
 48
50.00000038146973
370
    25
100
AcDbDimension
  2
*D22
 10
36392.58477866925
 20
-13099.78769289952
 30
0.0
 11
36654.58477866925
 21
-13067.78768881064
 31
0.0
 70
    32
 71
     5
 42
523.9999999999927
  3
ISO-25
100
AcDbAlignedDimension
 13
36916.58477866925
 23
-12986.78769194276
 33
0.0
 14
36392.58477866925
 24
-12986.7877170098
 34
0.0
 50
180.0
100
AcDbRotatedDimension
1001
ACAD
1000
DSTYLE
1002
{
1070
    69
1070
     0
1070
   271
1070
     3
1070
   177
1070
    18
1070
   176
1070
    18
1070
   140
1040
24.0
1070
    76
1070
     0
1070
    75
1070
     0
1070
   282
1070
     0
1070
   281
1070
     0
1070
   174
1070
     1
1070
    42
1040
0.0
1070
    49
1040
19.9999995470047
1070
   290
1070
     1
1070
    44
1040
19.9999995470047
1070
    46
1040
0.0
1070
    41
1040
9.000000357627869
1070
   173
1070
     1
1070
   342
1005
0
1070
   344
1005
158
1070
   343
1005
158
1070
   147
1040
20.00000408887863
1070
   178
1070
    18
1070
   340
1005
15E
1070
   278
1070
    46
1002
}
1001
ACAD_DSTYLE_DIMEXT_ENABLED
1070
   383
1070
     1
1001
ACAD_DSTYLE_DIMEXT_LENGTH
1070
   378
1040
19.9999995470047
  0
DIMENSION
  5
16C
330
1F
100
AcDbEntity
  8
MSS2-500-390
  6
Continuous
 62
    18
420
        0
 48
50.00000038146973
370
    25
100
AcDbDimension
  2
*D23
 10
37057.58477866925
 20
-12974.78923071542
 30
0.0
 11
37017.16477458037
 21
-12779.78999984758
 31
0.0
 70
    32
 71
     5
 42
389.9984617356731
  3
ISO-25
100
AcDbAlignedDimension
 13
37116.58477866925
 23
-12584.79076897975
 33
0.0
 14
37116.58477866925
 24
-12974.78923071542
 34
0.0
 50
-90.0
100
AcDbRotatedDimension
1001
ACAD
1000
DSTYLE
1002
{
1070
   271
1070
     3
1070
   177
1070
    18
1070
   176
1070
    18
1070
   140
1040
40.0
1070
    76
1070
     0
1070
    75
1070
     0
1070
   282
1070
     0
1070
   281
1070
     0
1070
   174
1070
     1
1070
    42
1040
0.0
1070
    49
1040
19.9999995470047
1070
   290
1070
     1
1070
    44
1040
19.9999995470047
1070
    46
1040
0.0
1070
    41
1040
15.00000059604645
1070
   173
1070
     1
1070
   342
1005
0
1070
   344
1005
158
1070
   343
1005
158
1070
   147
1040
20.00000408887863
1070
    70
1070
    18
1070
    69
1070
     0
1070
   340
1005
149
1070
   278
1070
    46
1002
}
1001
ACAD_DSTYLE_DIMEXT_ENABLED
1070
   383
1070
     1
1001
ACAD_DSTYLE_DIMEXT_LENGTH
1070
   378
1040
19.9999995470047
  0
DIMENSION
  5
179
330
1F
100
AcDbEntity
  8
MSS2-500-390
  6
Continuous
 62
    18
420
        0
 48
50.00000038146973
370
    25
100
AcDbDimension
  2
*D24
 10
37226.57108467425
 20
-12455.79077064043
 30
0.0
 11
37171.57793167175
 21
-12415.37076655155
 31
0.0
 70
    32
 71
     5
 42
109.9863060050047
  3
ISO-25
100
AcDbAlignedDimension
 13
37116.58477866925
 23
-12514.79076897975
 33
0.0
 14
37226.57108467425
 24
-12592.79076897975
 34
0.0
100
AcDbRotatedDimension
1001
ACAD
1000
DSTYLE
1002
{
1070
   271
1070
     3
1070
   177
1070
    18
1070
   176
1070
    18
1070
   140
1040
40.0
1070
    76
1070
     0
1070
    75
1070
     0
1070
   282
1070
     0
1070
   281
1070
     0
1070
   174
1070
     1
1070
    42
1040
0.0
1070
    49
1040
19.9999995470047
1070
   290
1070
     1
1070
    44
1040
19.9999995470047
1070
    46
1040
0.0
1070
    41
1040
15.00000059604645
1070
   173
1070
     1
1070
   342
1005
0
1070
   344
1005
158
1070
   343
1005
158
1070
   147
1040
20.00000408887863
1070
    70
1070
    18
1070
    69
1070
     0
1070
   340
1005
149
1070
   278
1070
    46
1002
}
1001
ACAD_DSTYLE_DIMEXT_ENABLED
1070
   383
1070
     1
1001
ACAD_DSTYLE_DIMEXT_LENGTH
1070
   378
1040
19.9999995470047
  0
DIMENSION
  5
188
330
1F
100
AcDbEntity
  8
MSS2-500-390
  6
Continuous
 62
    18
420
        0
 48
50.00000038146973
370
    25
100
AcDbDimension
  2
*D25
 10
37172.57836923456
 20
-13074.23618723624
 30
0.0
 11
37144.5815739519
 21
-13042.23618314736
 31
0.0
 70
    32
 71
     5
 42
55.99359056531829
  3
ISO-25
100
AcDbAlignedDimension
 13
37116.58477866925
 23
-12974.78923071542
 33
0.0
 14
37172.57836923456
 24
-12974.78923071542
 34
0.0
100
AcDbRotatedDimension
1001
ACAD
1000
DSTYLE
1002
{
1070
    69
1070
     0
1070
   271
1070
     3
1070
   177
1070
    18
1070
   176
1070
    18
1070
   140
1040
24.0
1070
    76
1070
     0
1070
    75
1070
     0
1070
   282
1070
     0
1070
   281
1070
     0
1070
   174
1070
     1
1070
    42
1040
0.0
1070
    49
1040
19.9999995470047
1070
   290
1070
     1
1070
    44
1040
19.9999995470047
1070
    46
1040
0.0
1070
    41
1040
9.000000357627869
1070
   173
1070
     1
1070
   342
1005
0
1070
   344
1005
158
1070
   343
1005
158
1070
   147
1040
20.00000408887863
1070
   178
1070
    18
1070
   340
1005
15E
1070
   278
1070
    46
1002
}
1001
ACAD_DSTYLE_DIMEXT_ENABLED
1070
   383
1070
     1
1001
ACAD_DSTYLE_DIMEXT_LENGTH
1070
   378
1040
19.9999995470047
  0
DIMENSION
  5
197
330
1F
100
AcDbEntity
  8
MSS2-500-390
  6
Continuous
 62
    18
420
        0
 48
50.00000038146973
370
    25
100
AcDbDimension
  2
*D26
 10
36975.58478032992
 20
-13180.78770447628
 30
0.0
 11
36943.58477624104
 21
-13279.48659715521
 31
0.0
 70
    32
 71
     5
 42
197.3977853578544
  3
ISO-25
100
AcDbAlignedDimension
 13
37199.45410565021
 23
-13378.18548983414
 33
0.0
 14
37116.58477866925
 24
-13180.78770447628
 34
0.0
 50
90.0
100
AcDbRotatedDimension
1001
ACAD
1000
DSTYLE
1002
{
1070
    69
1070
     0
1070
   271
1070
     3
1070
   177
1070
    18
1070
   176
1070
    18
1070
   140
1040
24.0
1070
    76
1070
     0
1070
    75
1070
     0
1070
   282
1070
     0
1070
   281
1070
     0
1070
   174
1070
     1
1070
    42
1040
0.0
1070
    49
1040
19.9999995470047
1070
   290
1070
     1
1070
    44
1040
19.9999995470047
1070
    46
1040
0.0
1070
    41
1040
9.000000357627869
1070
   173
1070
     1
1070
   342
1005
0
1070
   344
1005
158
1070
   343
1005
158
1070
   147
1040
20.00000408887863
1070
   178
1070
    18
1070
   340
1005
15E
1070
   278
1070
    46
1002
}
1001
ACAD_DSTYLE_DIMEXT_ENABLED
1070
   383
1070
     1
1001
ACAD_DSTYLE_DIMEXT_LENGTH
1070
   378
1040
19.9999995470047
  0
INSERT
  5
1A7
330
1F
100
AcDbEntity
  8
MSS2-500-390
  6
Continuous
 62
    18
420
        0
 48
50.00000038146973
370
    25
100
AcDbBlockReference
  2
Dimension20
 10
0.0
 20
0.0
 30
0.0
  0
INSERT
  5
1AB
330
1F
100
AcDbEntity
  8
MSS2-500-390
  6
Continuous
 62
    18
420
        0
 48
50.00000038146973
370
    25
100
AcDbBlockReference
  2
Dimension21
 10
0.0
 20
0.0
 30
0.0
  0
INSERT
  5
1AF
330
1F
100
AcDbEntity
  8
MSS2-500-390
  6
Continuous
 62
    18
420
        0
 48
50.00000038146973
370
    25
100
AcDbBlockReference
  2
Dimension22
 10
0.0
 20
0.0
 30
0.0
  0
TEXT
  5
1B0
330
1F
100
AcDbEntity
  8
MSS2-500-390
  6
Continuous
 62
    18
420
        0
 48
50.00000038146973
370
    25
100
AcDbText
 10
37167.60104967119
 20
-12925.75418225074
 30
0.0
 40
31.99999893199144
  1
8%%d
 50
90.0
 41
0.67708330642846
  7
ARIAL
100
AcDbText
  0
TEXT
  5
1B2
330
1F
100
AcDbEntity
  8
MSS2-500-390
  6
Continuous
 62
    18
420
        0
 48
907.2000518798828
370
    25
100
AcDbText
 10
37980.52416190299
 20
-13623.81364951345
 30
0.0
 40
19.2
  1
Moser GmbH
 41
0.8125
  7
HLV-L
100
AcDbText
  0
TEXT
  5
1B3
330
1F
100
AcDbEntity
  8
MSS2-500-390
  6
Continuous
 62
    18
420
        0
 48
907.2000518798828
370
    25
100
AcDbText
 10
37980.52416190299
 20
-13644.43862888845
 30
0.0
 40
19.2
  1
Im Mühlegrün 13
 41
0.8125
  7
HLV-L
100
AcDbText
  0
TEXT
  5
1B4
330
1F
100
AcDbEntity
  8
MSS2-500-390
  6
Continuous
 62
    18
420
        0
 48
907.2000518798828
370
    25
100
AcDbText
 10
37980.52416190299
 20
-13665.06360826345
 30
0.0
 40
19.2
  1
77716 Haslach
 41
0.8125
  7
HLV-L
100
AcDbText
  0
TEXT
  5
1B5
330
1F
100
AcDbEntity
  8
MSS2-500-390
  6
Continuous
 62
    18
420
        0
 48
907.2000518798828
370
    25
100
AcDbText
 10
37980.52416190299
 20
-13685.68858763845
 30
0.0
 40
19.2
  1
www.moser.gmbh
 41
0.8125
  7
HLV-L
100
AcDbText
  0
TEXT
  5
1B6
330
1F
100
AcDbEntity
  8
MSS2-500-390
  6
Continuous
 62
    18
420
        0
 48
41.66666698455811
370
    25
100
AcDbText
 10
37750.11656525589
 20
-13542.76604272097
 30
0.0
 40
40.0
  1
MSS2-500-390
 41
0.8125
  7
ARIAL
100
AcDbText
  0
TEXT
  5
1B8
330
1F
100
AcDbEntity
  8
MSS2-500-390
  6
Continuous
 62
    18
420
        0
 48
16.94687619209289
370
    25
100
AcDbText
 10
37777.04719490966
 20
-13675.37909095438
 30
0.0
 40
10.86419914340973
  1
Mineralwerkstoffe
 41
0.8125
  7
HELV-HFT
100
AcDbText
  0
TEXT
  5
1BA
330
1F
100
AcDbEntity
  8
MSS2-500-390
  6
Continuous
 62
    18
420
        0
 48
50.00000038146973
370
    25
100
AcDbText
 10
37416.58476058969
 20
-12595.34598488427
 30
0.0
 40
32.00000000000001
  1
Nur ohne Überlauf lieferbar!
 41
0.8125
  7
CENTURY GOTHIC
100
AcDbText
  0
TEXT
  5
1BB
330
1F
100
AcDbEntity
  8
MSS2-500-390
  6
Continuous
 62
    18
420
        0
 48
50.00000038146973
370
    25
100
AcDbText
 10
37416.58476058969
 20
-12645.34598488427
 30
0.0
 40
32.00000000000001
  1
Gefälle im Schlitz 5 mm
 41
0.8125
  7
CENTURY GOTHIC
100
AcDbText
  0
CIRCLE
  5
1BC
330
1F
100
AcDbEntity
  8
MSS2-500-390
  6
DASHED1
 62
    18
420
        0
 48
15.00000041723251
370
    25
100
AcDbCircle
 10
36654.58476127176
 20
-12588.79078100038
 30
0.0
 40
22.00000000000005
  0
ENDSEC
  0
SECTION
  2
OBJECTS
  0
DICTIONARY
  5
C
330
0
100
AcDbDictionary
281
     1
  3
ACAD_GROUP
350
D
  3
ACAD_LAYOUT
350
1A
  3
ACAD_MATERIAL
350
3B
  3
ACAD_MLEADERSTYLE
350
20A
  3
ACAD_MLINESTYLE
350
17
  3
ACAD_PLOTSETTINGS
350
19
  3
ACAD_PLOTSTYLENAME
350
E
  3
ACAD_SCALELIST
350
1BD
  3
ACAD_TABLESTYLE
350
209
  3
ACAD_VISUALSTYLE
350
2A
  3
AcDbVariableDictionary
350
1E1
  0
DICTIONARY
  5
D
102
{ACAD_REACTORS
330
C
102
}
330
C
100
AcDbDictionary
281
     1
  0
DICTIONARY
  5
1A
102
{ACAD_REACTORS
330
C
102
}
330
C
100
AcDbDictionary
281
     1
  3
Layout1
350
1E
  3
Layout2
350
26
  3
Model
350
22
  0
DICTIONARY
  5
3B
102
{ACAD_REACTORS
330
C
102
}
330
C
100
AcDbDictionary
281
     1
  3
ByBlock
350
3D
  3
ByLayer
350
3C
  3
Global
350
3E
  0
DICTIONARY
  5
20A
102
{ACAD_REACTORS
330
C
102
}
330
C
100
AcDbDictionary
281
     1
  0
DICTIONARY
  5
17
102
{ACAD_REACTORS
330
C
102
}
330
C
100
AcDbDictionary
281
     1
  3
Standard
350
18
  0
DICTIONARY
  5
19
102
{ACAD_REACTORS
330
C
102
}
330
C
100
AcDbDictionary
281
     1
  0
ACDBDICTIONARYWDFLT
  5
E
102
{ACAD_REACTORS
330
C
102
}
330
C
100
AcDbDictionary
281
     1
  3
Normal
350
F
100
AcDbDictionaryWithDefault
340
F
  0
DICTIONARY
  5
1BD
102
{ACAD_REACTORS
330
C
102
}
330
C
100
AcDbDictionary
281
     1
  3
A0
350
1BE
  3
A1
350
1BF
  3
A2
350
1C0
  3
A3
350
1C1
  3
A4
350
1C2
  3
A5
350
1C3
  3
A6
350
1C4
  3
A7
350
1C5
  3
A8
350
1C6
  3
A9
350
1C7
  3
B0
350
1C8
  3
B1
350
1C9
  3
B2
350
1CA
  3
B3
350
1CB
  3
B4
350
1CC
  3
B5
350
1CD
  3
B6
350
1CE
  3
B7
350
1CF
  3
B8
350
1D0
  3
B9
350
1D1
  3
C0
350
1D2
  3
C1
350
1D3
  3
C2
350
1D4
  3
C3
350
1D5
  3
C4
350
1D6
  3
C5
350
1D7
  3
C6
350
1D8
  3
C7
350
1D9
  3
C8
350
1DA
  3
C9
350
1DB
  3
D0
350
1DC
  3
D1
350
1DD
  3
D2
350
1DE
  0
DICTIONARY
  5
209
102
{ACAD_REACTORS
330
C
102
}
330
C
100
AcDbDictionary
281
     1
  0
DICTIONARY
  5
2A
102
{ACAD_REACTORS
330
C
102
}
330
C
100
AcDbDictionary
281
     1
  3
2dWireframe
350
2F
  3
3D Hidden
350
31
  3
3dWireframe
350
30
  3
Basic
350
32
  3
Brighten
350
36
  3
ColorChange
350
3A
  3
Conceptual
350
34
  3
Dim
350
35
  3
Facepattern
350
39
  3
Flat
350
2B
  3
FlatWithEdges
350
2C
  3
Gouraud
350
2D
  3
GouraudWithEdges
350
2E
  3
Linepattern
350
38
  3
Realistic
350
33
  3
Thicken
350
37
  0
DICTIONARY
  5
1E1
102
{ACAD_REACTORS
330
C
102
}
330
C
100
AcDbDictionary
281
     1
  3
CANNOSCALE
350
1E2
  0
LAYOUT
  5
1E
102
{ACAD_REACTORS
330
1A
102
}
330
1A
100
AcDbPlotSettings
  1

  2
none_device
  4

  6

 40
0.0
 41
0.0
 42
0.0
 43
0.0
 44
0.0
 45
0.0
 46
0.0
 47
0.0
 48
0.0
 49
0.0
140
0.0
141
0.0
142
1.0
143
1.0
 70
   688
 72
     0
 73
     0
 74
     5
  7

 75
    16
 76
     0
 77
     2
 78
   300
147
1.0
148
0.0
149
0.0
100
AcDbLayout
  1
Layout1
 70
     1
 71
     1
 10
0.0
 20
0.0
 11
420.0
 21
297.0
 12
0.0
 22
0.0
 32
0.0
 14
1.000000000000000E+20
 24
1.000000000000000E+20
 34
1.000000000000000E+20
 15
-1.000000000000000E+20
 25
-1.000000000000000E+20
 35
-1.000000000000000E+20
146
0.0
 13
0.0
 23
0.0
 33
0.0
 16
1.0
 26
0.0
 36
0.0
 17
0.0
 27
1.0
 37
0.0
 76
     0
330
1B
  0
LAYOUT
  5
26
102
{ACAD_REACTORS
330
1A
102
}
330
1A
100
AcDbPlotSettings
  1

  2
none_device
  4

  6

 40
0.0
 41
0.0
 42
0.0
 43
0.0
 44
0.0
 45
0.0
 46
0.0
 47
0.0
 48
0.0
 49
0.0
140
0.0
141
0.0
142
1.0
143
1.0
 70
   688
 72
     0
 73
     0
 74
     5
  7

 75
    16
 76
     0
 77
     2
 78
   300
147
1.0
148
0.0
149
0.0
100
AcDbLayout
  1
Layout2
 70
     1
 71
     2
 10
0.0
 20
0.0
 11
0.0
 21
0.0
 12
0.0
 22
0.0
 32
0.0
 14
0.0
 24
0.0
 34
0.0
 15
0.0
 25
0.0
 35
0.0
146
0.0
 13
0.0
 23
0.0
 33
0.0
 16
1.0
 26
0.0
 36
0.0
 17
0.0
 27
1.0
 37
0.0
 76
     0
330
23
  0
LAYOUT
  5
22
102
{ACAD_REACTORS
330
1A
102
}
330
1A
100
AcDbPlotSettings
  1

  2
none_device
  4

  6

 40
0.0
 41
0.0
 42
0.0
 43
0.0
 44
0.0
 45
0.0
 46
0.0
 47
0.0
 48
0.0
 49
0.0
140
0.0
141
0.0
142
1.0
143
1.0
 70
  1712
 72
     0
 73
     0
 74
     0
  7

 75
     0
 76
     0
 77
     2
 78
   300
147
1.0
148
0.0
149
0.0
100
AcDbLayout
  1
Model
 70
     1
 71
     0
 10
0.0
 20
0.0
 11
420.0
 21
297.0
 12
0.0
 22
0.0
 32
0.0
 14
72886.69260095056
 24
-26887.48381676127
 34
0.0
 15
74977.20513892894
 25
-25452.48381065776
 35
0.0
146
0.0
 13
0.0
 23
0.0
 33
0.0
 16
1.0
 26
0.0
 36
0.0
 17
0.0
 27
1.0
 37
0.0
 76
     0
330
1F
331
29
  0
MATERIAL
  5
3D
102
{ACAD_REACTORS
330
3B
102
}
102
{ACAD_XDICTIONARY
360
205
102
}
330
3B
100
AcDbMaterial
  1
ByBlock
  0
MATERIAL
  5
3C
102
{ACAD_REACTORS
330
3B
102
}
102
{ACAD_XDICTIONARY
360
203
102
}
330
3B
100
AcDbMaterial
  1
ByLayer
  0
MATERIAL
  5
3E
102
{ACAD_REACTORS
330
3B
102
}
102
{ACAD_XDICTIONARY
360
207
102
}
330
3B
100
AcDbMaterial
  1
Global
  0
MLINESTYLE
  5
18
102
{ACAD_REACTORS
330
17
102
}
330
17
100
AcDbMlineStyle
  2
Standard
 70
     0
  3

 62
   256
 51
90.0
 52
90.0
 71
     2
 49
0.5
 62
   256
  6
BYLAYER
 49
-0.5
 62
   256
  6
BYLAYER
  0
ACDBPLACEHOLDER
  5
F
102
{ACAD_REACTORS
330
E
102
}
330
E
  0
SCALE
  5
1BE
102
{ACAD_REACTORS
330
1BD
102
}
330
1BD
100
AcDbScale
 70
     0
300
1:1
140
1.0
141
1.0
290
     1
  0
SCALE
  5
1BF
102
{ACAD_REACTORS
330
1BD
102
}
330
1BD
100
AcDbScale
 70
     0
300
1:2
140
1.0
141
2.0
290
     0
  0
SCALE
  5
1C0
102
{ACAD_REACTORS
330
1BD
102
}
330
1BD
100
AcDbScale
 70
     0
300
1:4
140
1.0
141
4.0
290
     0
  0
SCALE
  5
1C1
102
{ACAD_REACTORS
330
1BD
102
}
330
1BD
100
AcDbScale
 70
     0
300
1:5
140
1.0
141
5.0
290
     0
  0
SCALE
  5
1C2
102
{ACAD_REACTORS
330
1BD
102
}
330
1BD
100
AcDbScale
 70
     0
300
1:8
140
1.0
141
8.0
290
     0
  0
SCALE
  5
1C3
102
{ACAD_REACTORS
330
1BD
102
}
330
1BD
100
AcDbScale
 70
     0
300
1:10
140
1.0
141
10.0
290
     0
  0
SCALE
  5
1C4
102
{ACAD_REACTORS
330
1BD
102
}
330
1BD
100
AcDbScale
 70
     0
300
1:16
140
1.0
141
16.0
290
     0
  0
SCALE
  5
1C5
102
{ACAD_REACTORS
330
1BD
102
}
330
1BD
100
AcDbScale
 70
     0
300
1:20
140
1.0
141
20.0
290
     0
  0
SCALE
  5
1C6
102
{ACAD_REACTORS
330
1BD
102
}
330
1BD
100
AcDbScale
 70
     0
300
1:30
140
1.0
141
30.0
290
     0
  0
SCALE
  5
1C7
102
{ACAD_REACTORS
330
1BD
102
}
330
1BD
100
AcDbScale
 70
     0
300
1:40
140
1.0
141
40.0
290
     0
  0
SCALE
  5
1C8
102
{ACAD_REACTORS
330
1BD
102
}
330
1BD
100
AcDbScale
 70
     0
300
1:50
140
1.0
141
50.0
290
     0
  0
SCALE
  5
1C9
102
{ACAD_REACTORS
330
1BD
102
}
330
1BD
100
AcDbScale
 70
     0
300
1:100
140
1.0
141
100.0
290
     0
  0
SCALE
  5
1CA
102
{ACAD_REACTORS
330
1BD
102
}
330
1BD
100
AcDbScale
 70
     0
300
2:1
140
2.0
141
1.0
290
     0
  0
SCALE
  5
1CB
102
{ACAD_REACTORS
330
1BD
102
}
330
1BD
100
AcDbScale
 70
     0
300
4:1
140
4.0
141
1.0
290
     0
  0
SCALE
  5
1CC
102
{ACAD_REACTORS
330
1BD
102
}
330
1BD
100
AcDbScale
 70
     0
300
8:1
140
8.0
141
1.0
290
     0
  0
SCALE
  5
1CD
102
{ACAD_REACTORS
330
1BD
102
}
330
1BD
100
AcDbScale
 70
     0
300
10:1
140
10.0
141
1.0
290
     0
  0
SCALE
  5
1CE
102
{ACAD_REACTORS
330
1BD
102
}
330
1BD
100
AcDbScale
 70
     0
300
100:1
140
100.0
141
1.0
290
     0
  0
SCALE
  5
1CF
102
{ACAD_REACTORS
330
1BD
102
}
330
1BD
100
AcDbScale
 70
     0
300
1/128" = 1'-0"
140
0.0078125
141
12.0
290
     0
  0
SCALE
  5
1D0
102
{ACAD_REACTORS
330
1BD
102
}
330
1BD
100
AcDbScale
 70
     0
300
1/64" = 1'-0"
140
0.015625
141
12.0
290
     0
  0
SCALE
  5
1D1
102
{ACAD_REACTORS
330
1BD
102
}
330
1BD
100
AcDbScale
 70
     0
300
1/32" = 1'-0"
140
0.03125
141
12.0
290
     0
  0
SCALE
  5
1D2
102
{ACAD_REACTORS
330
1BD
102
}
330
1BD
100
AcDbScale
 70
     0
300
1/16" = 1'-0"
140
0.0625
141
12.0
290
     0
  0
SCALE
  5
1D3
102
{ACAD_REACTORS
330
1BD
102
}
330
1BD
100
AcDbScale
 70
     0
300
3/32" = 1'-0"
140
0.09375
141
12.0
290
     0
  0
SCALE
  5
1D4
102
{ACAD_REACTORS
330
1BD
102
}
330
1BD
100
AcDbScale
 70
     0
300
1/8" = 1'-0"
140
0.125
141
12.0
290
     0
  0
SCALE
  5
1D5
102
{ACAD_REACTORS
330
1BD
102
}
330
1BD
100
AcDbScale
 70
     0
300
3/16" = 1'-0"
140
0.1875
141
12.0
290
     0
  0
SCALE
  5
1D6
102
{ACAD_REACTORS
330
1BD
102
}
330
1BD
100
AcDbScale
 70
     0
300
1/4" = 1'-0"
140
0.25
141
12.0
290
     0
  0
SCALE
  5
1D7
102
{ACAD_REACTORS
330
1BD
102
}
330
1BD
100
AcDbScale
 70
     0
300
3/8" = 1'-0"
140
0.375
141
12.0
290
     0
  0
SCALE
  5
1D8
102
{ACAD_REACTORS
330
1BD
102
}
330
1BD
100
AcDbScale
 70
     0
300
1/2" = 1'-0"
140
0.5
141
12.0
290
     0
  0
SCALE
  5
1D9
102
{ACAD_REACTORS
330
1BD
102
}
330
1BD
100
AcDbScale
 70
     0
300
3/4" = 1'-0"
140
0.75
141
12.0
290
     0
  0
SCALE
  5
1DA
102
{ACAD_REACTORS
330
1BD
102
}
330
1BD
100
AcDbScale
 70
     0
300
1" = 1'-0"
140
1.0
141
12.0
290
     0
  0
SCALE
  5
1DB
102
{ACAD_REACTORS
330
1BD
102
}
330
1BD
100
AcDbScale
 70
     0
300
1-1/2" = 1'-0"
140
1.5
141
12.0
290
     0
  0
SCALE
  5
1DC
102
{ACAD_REACTORS
330
1BD
102
}
330
1BD
100
AcDbScale
 70
     0
300
3" = 1'-0"
140
3.0
141
12.0
290
     0
  0
SCALE
  5
1DD
102
{ACAD_REACTORS
330
1BD
102
}
330
1BD
100
AcDbScale
 70
     0
300
6" = 1'-0"
140
6.0
141
12.0
290
     0
  0
SCALE
  5
1DE
102
{ACAD_REACTORS
330
1BD
102
}
330
1BD
100
AcDbScale
 70
     0
300
1'-0" = 1'-0"
140
12.0
141
12.0
290
     0
  0
VISUALSTYLE
  5
2F
102
{ACAD_REACTORS
330
2A
102
}
102
{ACAD_XDICTIONARY
360
1EB
102
}
330
2A
100
AcDbVisualStyle
  2
2dWireframe
 70
     4
 71
     0
 72
     2
 73
     0
 90
        0
 40
-0.6
 41
-30.0
 62
     5
 63
     7
421
 16777215
 74
     1
 91
        4
 64
     7
 65
   257
 75
     1
175
     1
 42
1.0
 92
        0
 66
   257
 43
1.0
 76
     1
 77
     6
 78
     2
 67
     7
 79
     5
170
     0
171
     0
290
     0
174
     0
 93
        1
 44
0.0
173
     0
291
     0
 45
0.0
1001
ACAD
1000
AcDbSavedByObjectVersion
1070
     0
  0
VISUALSTYLE
  5
31
102
{ACAD_REACTORS
330
2A
102
}
102
{ACAD_XDICTIONARY
360
1EF
102
}
330
2A
100
AcDbVisualStyle
  2
3D Hidden
 70
     6
 71
     1
 72
     2
 73
     2
 90
        0
 40
-0.6
 41
-30.0
 62
     5
 63
     7
421
 16777215
 74
     2
 91
        2
 64
     7
 65
   257
 75
     2
175
     1
 42
40.0
 92
        0
 66
   257
 43
1.0
 76
     1
 77
     6
 78
     2
 67
     7
 79
     3
170
     0
171
     0
290
     0
174
     0
 93
        1
 44
0.0
173
     0
291
     0
 45
0.0
1001
ACAD
1000
AcDbSavedByObjectVersion
1070
     0
  0
VISUALSTYLE
  5
30
102
{ACAD_REACTORS
330
2A
102
}
102
{ACAD_XDICTIONARY
360
1ED
102
}
330
2A
100
AcDbVisualStyle
  2
3dWireframe
 70
     5
 71
     0
 72
     2
 73
     0
 90
        0
 40
-0.6
 41
-30.0
 62
     5
 63
     7
421
 16777215
 74
     1
 91
        4
 64
     7
 65
   257
 75
     1
175
     1
 42
1.0
 92
        0
 66
   257
 43
1.0
 76
     1
 77
     6
 78
     2
 67
     7
 79
     5
170
     0
171
     0
290
     0
174
     0
 93
        1
 44
0.0
173
     0
291
     0
 45
0.0
1001
ACAD
1000
AcDbSavedByObjectVersion
1070
     0
  0
VISUALSTYLE
  5
32
102
{ACAD_REACTORS
330
2A
102
}
102
{ACAD_XDICTIONARY
360
1F1
102
}
330
2A
100
AcDbVisualStyle
  2
Basic
 70
     7
 71
     1
 72
     0
 73
     1
 90
        0
 40
-0.6
 41
-30.0
 62
     5
 63
     7
421
 16777215
 74
     0
 91
        4
 64
     7
 65
   257
 75
     1
175
     1
 42
1.0
 92
        8
 66
     7
 43
1.0
 76
     1
 77
     6
 78
     2
 67
     7
 79
     5
170
     0
171
     0
290
     0
174
     0
 93
        1
 44
0.0
173
     0
291
     1
 45
0.0
1001
ACAD
1000
AcDbSavedByObjectVersion
1070
     0
  0
VISUALSTYLE
  5
36
102
{ACAD_REACTORS
330
2A
102
}
102
{ACAD_XDICTIONARY
360
1F9
102
}
330
2A
100
AcDbVisualStyle
  2
Brighten
 70
    12
 71
     2
 72
     2
 73
     0
 90
        0
 40
-0.6
 41
-30.0
 62
     5
 63
     7
421
 16777215
 74
     1
 91
        4
 64
     7
 65
   257
 75
     1
175
     1
 42
1.0
 92
        8
 66
     7
 43
1.0
 76
     1
 77
     6
 78
     2
 67
     7
 79
     5
170
     0
171
     0
290
     0
174
     0
 93
        1
 44
50.0
173
     0
291
     1
 45
0.0
1001
ACAD
1000
AcDbSavedByObjectVersion
1070
     0
  0
VISUALSTYLE
  5
3A
102
{ACAD_REACTORS
330
2A
102
}
102
{ACAD_XDICTIONARY
360
201
102
}
330
2A
100
AcDbVisualStyle
  2
ColorChange
 70
    16
 71
     2
 72
     2
 73
     3
 90
        0
 40
-0.6
 41
-30.0
 62
     5
 63
     8
421
  8421504
 74
     1
 91
        4
 64
     7
 65
   257
 75
     1
175
     1
 42
1.0
 92
        8
 66
     8
424
  8421504
 43
1.0
 76
     1
 77
     6
 78
     2
 67
     7
 79
     5
170
     0
171
     0
290
     0
174
     0
 93
        1
 44
0.0
173
     0
291
     1
 45
0.0
1001
ACAD
1000
AcDbSavedByObjectVersion
1070
     0
  0
VISUALSTYLE
  5
34
102
{ACAD_REACTORS
330
2A
102
}
102
{ACAD_XDICTIONARY
360
1F5
102
}
330
2A
100
AcDbVisualStyle
  2
Conceptual
 70
     9
 71
     3
 72
     2
 73
     0
 90
        0
 40
-0.6
 41
-30.0
 62
     5
 63
     7
421
 16777215
 74
     2
 91
        2
 64
     7
 65
   257
 75
     1
175
     1
 42
40.0
 92
        8
 66
     7
 43
1.0
 76
     1
 77
     6
 78
     2
 67
     7
 79
     3
170
     0
171
     0
290
     0
174
     0
 93
        1
 44
0.0
173
     0
291
     0
 45
0.0
1001
ACAD
1000
AcDbSavedByObjectVersion
1070
     0
  0
VISUALSTYLE
  5
35
102
{ACAD_REACTORS
330
2A
102
}
102
{ACAD_XDICTIONARY
360
1F7
102
}
330
2A
100
AcDbVisualStyle
  2
Dim
 70
    11
 71
     2
 72
     2
 73
     0
 90
        0
 40
-0.6
 41
-30.0
 62
     5
 63
     7
421
 16777215
 74
     1
 91
        4
 64
     7
 65
   257
 75
     1
175
     1
 42
1.0
 92
        8
 66
     7
 43
1.0
 76
     1
 77
     6
 78
     2
 67
     7
 79
     5
170
     0
171
     0
290
     0
174
     0
 93
        1
 44
-50.0
173
     0
291
     1
 45
0.0
1001
ACAD
1000
AcDbSavedByObjectVersion
1070
     0
  0
VISUALSTYLE
  5
39
102
{ACAD_REACTORS
330
2A
102
}
102
{ACAD_XDICTIONARY
360
1FF
102
}
330
2A
100
AcDbVisualStyle
  2
Facepattern
 70
    15
 71
     2
 72
     2
 73
     0
 90
        0
 40
-0.6
 41
-30.0
 62
     5
 63
     7
421
 16777215
 74
     1
 91
        4
 64
     7
 65
   257
 75
     1
175
     1
 42
1.0
 92
        8
 66
     7
 43
1.0
 76
     1
 77
     6
 78
     2
 67
     7
 79
     5
170
     0
171
     0
290
     0
174
     0
 93
        1
 44
0.0
173
     0
291
     1
 45
0.0
1001
ACAD
1000
AcDbSavedByObjectVersion
1070
     0
  0
VISUALSTYLE
  5
2B
102
{ACAD_REACTORS
330
2A
102
}
102
{ACAD_XDICTIONARY
360
1E3
102
}
330
2A
100
AcDbVisualStyle
  2
Flat
 70
     0
 71
     2
 72
     1
 73
     1
 90
        2
 40
-0.6
 41
30.0
 62
     5
 63
     7
421
 16777215
 74
     0
 91
        4
 64
     7
 65
   257
 75
     1
175
     1
 42
1.0
 92
        8
 66
     7
 43
1.0
 76
     1
 77
     6
 78
     2
 67
     7
 79
     5
170
     0
171
     0
290
     0
174
     0
 93
       13
 44
0.0
173
     0
291
     1
 45
0.0
1001
ACAD
1000
AcDbSavedByObjectVersion
1070
     0
  0
VISUALSTYLE
  5
2C
102
{ACAD_REACTORS
330
2A
102
}
102
{ACAD_XDICTIONARY
360
1E5
102
}
330
2A
100
AcDbVisualStyle
  2
FlatWithEdges
 70
     1
 71
     2
 72
     1
 73
     1
 90
        2
 40
-0.6
 41
30.0
 62
     5
 63
     7
421
 16777215
 74
     1
 91
        4
 64
     7
 65
   257
 75
     1
175
     1
 42
1.0
 92
        0
 66
   257
 43
1.0
 76
     1
 77
     6
 78
     2
 67
     7
 79
     5
170
     0
171
     0
290
     0
174
     0
 93
       13
 44
0.0
173
     0
291
     1
 45
0.0
1001
ACAD
1000
AcDbSavedByObjectVersion
1070
     0
  0
VISUALSTYLE
  5
2D
102
{ACAD_REACTORS
330
2A
102
}
102
{ACAD_XDICTIONARY
360
1E7
102
}
330
2A
100
AcDbVisualStyle
  2
Gouraud
 70
     2
 71
     2
 72
     2
 73
     1
 90
        2
 40
-0.6
 41
30.0
 62
     5
 63
     7
421
 16777215
 74
     0
 91
        4
 64
     7
 65
   257
 75
     1
175
     1
 42
1.0
 92
        0
 66
     7
 43
1.0
 76
     1
 77
     6
 78
     2
 67
     7
 79
     5
170
     0
171
     0
290
     0
174
     0
 93
       13
 44
0.0
173
     0
291
     1
 45
0.0
1001
ACAD
1000
AcDbSavedByObjectVersion
1070
     0
  0
VISUALSTYLE
  5
2E
102
{ACAD_REACTORS
330
2A
102
}
102
{ACAD_XDICTIONARY
360
1E9
102
}
330
2A
100
AcDbVisualStyle
  2
GouraudWithEdges
 70
     3
 71
     2
 72
     2
 73
     1
 90
        2
 40
-0.6
 41
30.0
 62
     5
 63
     7
421
 16777215
 74
     1
 91
        4
 64
     7
 65
   257
 75
     1
175
     1
 42
1.0
 92
        0
 66
   257
 43
1.0
 76
     1
 77
     6
 78
     2
 67
     7
 79
     5
170
     0
171
     0
290
     0
174
     0
 93
       13
 44
0.0
173
     0
291
     1
 45
0.0
1001
ACAD
1000
AcDbSavedByObjectVersion
1070
     0
  0
VISUALSTYLE
  5
38
102
{ACAD_REACTORS
330
2A
102
}
102
{ACAD_XDICTIONARY
360
1FD
102
}
330
2A
100
AcDbVisualStyle
  2
Linepattern
 70
    14
 71
     2
 72
     2
 73
     0
 90
        0
 40
-0.6
 41
-30.0
 62
     5
 63
     7
421
 16777215
 74
     1
 91
        4
 64
     7
 65
   257
 75
     7
175
     7
 42
1.0
 92
        8
 66
     7
 43
1.0
 76
     1
 77
     6
 78
     2
 67
     7
 79
     5
170
     0
171
     0
290
     0
174
     0
 93
        1
 44
0.0
173
     0
291
     1
 45
0.0
1001
ACAD
1000
AcDbSavedByObjectVersion
1070
     0
  0
VISUALSTYLE
  5
33
102
{ACAD_REACTORS
330
2A
102
}
102
{ACAD_XDICTIONARY
360
1F3
102
}
330
2A
100
AcDbVisualStyle
  2
Realistic
 70
     8
 71
     2
 72
     2
 73
     0
 90
        0
 40
-0.6
 41
-30.0
 62
     5
 63
     7
421
 16777215
 74
     1
 91
        0
 64
     7
 65
   257
 75
     1
175
     1
 42
1.0
 92
        8
 66
     8
424
  7895160
 43
1.0
 76
     1
 77
     6
 78
     2
 67
     7
 79
     5
170
     0
171
     0
290
     0
174
     0
 93
       13
 44
0.0
173
     0
291
     0
 45
0.0
1001
ACAD
1000
AcDbSavedByObjectVersion
1070
     0
  0
VISUALSTYLE
  5
37
102
{ACAD_REACTORS
330
2A
102
}
102
{ACAD_XDICTIONARY
360
1FB
102
}
330
2A
100
AcDbVisualStyle
  2
Thicken
 70
    13
 71
     2
 72
     2
 73
     0
 90
        0
 40
-0.6
 41
-30.0
 62
     5
 63
     7
421
 16777215
 74
     1
 91
        4
 64
     7
 65
   257
 75
     1
175
     1
 42
1.0
 92
       12
 66
     7
 43
1.0
 76
     1
 77
     6
 78
     2
 67
     7
 79
     5
170
     0
171
     0
290
     0
174
     0
 93
        1
 44
0.0
173
     0
291
     1
 45
0.0
1001
ACAD
1000
AcDbSavedByObjectVersion
1070
     0
  0
DICTIONARYVAR
  5
1E2
102
{ACAD_REACTORS
330
1E1
102
}
330
1E1
100
DictionaryVariables
280
     0
  1
1:1
  0
DICTIONARY
  5
205
330
3D
100
AcDbDictionary
280
     1
281
     1
  3
ACAD_XREC_ROUNDTRIP
360
206
  0
DICTIONARY
  5
203
330
3C
100
AcDbDictionary
280
     1
281
     1
  3
ACAD_XREC_ROUNDTRIP
360
204
  0
DICTIONARY
  5
207
330
3E
100
AcDbDictionary
280
     1
281
     1
  3
ACAD_XREC_ROUNDTRIP
360
208
  0
DICTIONARY
  5
1EB
330
2F
100
AcDbDictionary
280
     1
281
     1
  3
ACAD_XREC_ROUNDTRIP
360
1EC
  0
DICTIONARY
  5
1EF
330
31
100
AcDbDictionary
280
     1
281
     1
  3
ACAD_XREC_ROUNDTRIP
360
1F0
  0
DICTIONARY
  5
1ED
330
30
100
AcDbDictionary
280
     1
281
     1
  3
ACAD_XREC_ROUNDTRIP
360
1EE
  0
DICTIONARY
  5
1F1
330
32
100
AcDbDictionary
280
     1
281
     1
  3
ACAD_XREC_ROUNDTRIP
360
1F2
  0
DICTIONARY
  5
1F9
330
36
100
AcDbDictionary
280
     1
281
     1
  3
ACAD_XREC_ROUNDTRIP
360
1FA
  0
DICTIONARY
  5
201
330
3A
100
AcDbDictionary
280
     1
281
     1
  3
ACAD_XREC_ROUNDTRIP
360
202
  0
DICTIONARY
  5
1F5
330
34
100
AcDbDictionary
280
     1
281
     1
  3
ACAD_XREC_ROUNDTRIP
360
1F6
  0
DICTIONARY
  5
1F7
330
35
100
AcDbDictionary
280
     1
281
     1
  3
ACAD_XREC_ROUNDTRIP
360
1F8
  0
DICTIONARY
  5
1FF
330
39
100
AcDbDictionary
280
     1
281
     1
  3
ACAD_XREC_ROUNDTRIP
360
200
  0
DICTIONARY
  5
1E3
330
2B
100
AcDbDictionary
280
     1
281
     1
  3
ACAD_XREC_ROUNDTRIP
360
1E4
  0
DICTIONARY
  5
1E5
330
2C
100
AcDbDictionary
280
     1
281
     1
  3
ACAD_XREC_ROUNDTRIP
360
1E6
  0
DICTIONARY
  5
1E7
330
2D
100
AcDbDictionary
280
     1
281
     1
  3
ACAD_XREC_ROUNDTRIP
360
1E8
  0
DICTIONARY
  5
1E9
330
2E
100
AcDbDictionary
280
     1
281
     1
  3
ACAD_XREC_ROUNDTRIP
360
1EA
  0
DICTIONARY
  5
1FD
330
38
100
AcDbDictionary
280
     1
281
     1
  3
ACAD_XREC_ROUNDTRIP
360
1FE
  0
DICTIONARY
  5
1F3
330
33
100
AcDbDictionary
280
     1
281
     1
  3
ACAD_XREC_ROUNDTRIP
360
1F4
  0
DICTIONARY
  5
1FB
330
37
100
AcDbDictionary
280
     1
281
     1
  3
ACAD_XREC_ROUNDTRIP
360
1FC
  0
XRECORD
  5
206
102
{ACAD_REACTORS
330
205
102
}
330
205
100
AcDbXrecord
280
     1
102
MATERIAL
148
0.0
149
0.0
149
0.0
 93
        0
 94
      127
282
     0
 72
     1
 77
     1
171
     1
175
     1
179
     1
273
     0
  0
XRECORD
  5
204
102
{ACAD_REACTORS
330
203
102
}
330
203
100
AcDbXrecord
280
     1
102
MATERIAL
148
0.0
149
0.0
149
0.0
 93
        0
 94
      127
282
     0
 72
     1
 77
     1
171
     1
175
     1
179
     1
273
     0
  0
XRECORD
  5
208
102
{ACAD_REACTORS
330
207
102
}
330
207
100
AcDbXrecord
280
     1
102
MATERIAL
148
0.0
149
0.0
149
0.0
 93
        0
 94
      127
282
     0
 72
     1
 77
     1
171
     1
175
     1
179
     1
273
     0
  0
XRECORD
  5
1EC
102
{ACAD_REACTORS
330
1EB
102
}
330
1EB
100
AcDbXrecord
280
     1
102
RTVSPropertyOp0
 70
     1
102
RTVSPropertyOp1
 70
     1
102
RTVSPropertyOp2
 70
     1
102
RTVSPropertyOp3
 70
     1
102
RTVSPropertyOp4
 70
     1
102
RTVSPropertyOp5
 70
     1
102
RTVSPropertyOp6
 70
     1
102
RTVSPropertyOp7
 70
     1
102
RTVSPropertyOp8
 70
     1
102
RTVSPropertyOp9
 70
     1
102
RTVSPropertyOp10
 70
     1
102
RTVSPropertyOp11
 70
     1
102
RTVSPropertyOp12
 70
     1
102
RTVSPropertyOp13
 70
     1
102
RTVSPropertyOp14
 70
     1
102
RTVSPropertyOp15
 70
     1
102
RTVSPropertyOp16
 70
     1
102
RTVSPropertyOp17
 70
     1
102
RTVSPropertyOp18
 70
     1
102
RTVSPropertyOp19
 70
     1
102
RTVSPropertyOp20
 70
     1
102
RTVSPropertyOp21
 70
     1
102
RTVSPropertyOp22
 70
     1
102
RTVSPropertyOp23
 70
     1
102
RTVSPropertyOp24
 70
     1
102
RTVSPropertyOp25
 70
     1
102
RTVSPropertyOp26
 70
     1
102
RTVSPropertyOp27
 70
     1
  0
XRECORD
  5
1F0
102
{ACAD_REACTORS
330
1EF
102
}
330
1EF
100
AcDbXrecord
280
     1
102
RTVSPropertyOp0
 70
     1
102
RTVSPropertyOp1
 70
     1
102
RTVSPropertyOp2
 70
     1
102
RTVSPropertyOp3
 70
     1
102
RTVSPropertyOp4
 70
     1
102
RTVSPropertyOp5
 70
     1
102
RTVSPropertyOp6
 70
     1
102
RTVSPropertyOp7
 70
     1
102
RTVSPropertyOp8
 70
     1
102
RTVSPropertyOp9
 70
     1
102
RTVSPropertyOp10
 70
     1
102
RTVSPropertyOp11
 70
     1
102
RTVSPropertyOp12
 70
     1
102
RTVSPropertyOp13
 70
     1
102
RTVSPropertyOp14
 70
     1
102
RTVSPropertyOp15
 70
     1
102
RTVSPropertyOp16
 70
     1
102
RTVSPropertyOp17
 70
     1
102
RTVSPropertyOp18
 70
     1
102
RTVSPropertyOp19
 70
     1
102
RTVSPropertyOp20
 70
     1
102
RTVSPropertyOp21
 70
     1
102
RTVSPropertyOp22
 70
     1
102
RTVSPropertyOp23
 70
     1
102
RTVSPropertyOp24
 70
     1
102
RTVSPropertyOp25
 70
     1
102
RTVSPropertyOp26
 70
     1
102
RTVSPropertyOp27
 70
     1
  0
XRECORD
  5
1EE
102
{ACAD_REACTORS
330
1ED
102
}
330
1ED
100
AcDbXrecord
280
     1
102
RTVSPropertyOp0
 70
     1
102
RTVSPropertyOp1
 70
     1
102
RTVSPropertyOp2
 70
     1
102
RTVSPropertyOp3
 70
     1
102
RTVSPropertyOp4
 70
     1
102
RTVSPropertyOp5
 70
     1
102
RTVSPropertyOp6
 70
     1
102
RTVSPropertyOp7
 70
     1
102
RTVSPropertyOp8
 70
     1
102
RTVSPropertyOp9
 70
     1
102
RTVSPropertyOp10
 70
     1
102
RTVSPropertyOp11
 70
     1
102
RTVSPropertyOp12
 70
     1
102
RTVSPropertyOp13
 70
     1
102
RTVSPropertyOp14
 70
     1
102
RTVSPropertyOp15
 70
     1
102
RTVSPropertyOp16
 70
     1
102
RTVSPropertyOp17
 70
     1
102
RTVSPropertyOp18
 70
     1
102
RTVSPropertyOp19
 70
     1
102
RTVSPropertyOp20
 70
     1
102
RTVSPropertyOp21
 70
     1
102
RTVSPropertyOp22
 70
     1
102
RTVSPropertyOp23
 70
     1
102
RTVSPropertyOp24
 70
     1
102
RTVSPropertyOp25
 70
     1
102
RTVSPropertyOp26
 70
     1
102
RTVSPropertyOp27
 70
     1
  0
XRECORD
  5
1F2
102
{ACAD_REACTORS
330
1F1
102
}
330
1F1
100
AcDbXrecord
280
     1
102
RTVSPropertyOp0
 70
     1
102
RTVSPropertyOp1
 70
     1
102
RTVSPropertyOp2
 70
     1
102
RTVSPropertyOp3
 70
     1
102
RTVSPropertyOp4
 70
     1
102
RTVSPropertyOp5
 70
     1
102
RTVSPropertyOp6
 70
     1
102
RTVSPropertyOp7
 70
     1
102
RTVSPropertyOp8
 70
     1
102
RTVSPropertyOp9
 70
     1
102
RTVSPropertyOp10
 70
     1
102
RTVSPropertyOp11
 70
     1
102
RTVSPropertyOp12
 70
     1
102
RTVSPropertyOp13
 70
     1
102
RTVSPropertyOp14
 70
     1
102
RTVSPropertyOp15
 70
     1
102
RTVSPropertyOp16
 70
     1
102
RTVSPropertyOp17
 70
     1
102
RTVSPropertyOp18
 70
     1
102
RTVSPropertyOp19
 70
     1
102
RTVSPropertyOp20
 70
     1
102
RTVSPropertyOp21
 70
     1
102
RTVSPropertyOp22
 70
     1
102
RTVSPropertyOp23
 70
     1
102
RTVSPropertyOp24
 70
     1
102
RTVSPropertyOp25
 70
     1
102
RTVSPropertyOp26
 70
     1
102
RTVSPropertyOp27
 70
     1
  0
XRECORD
  5
1FA
102
{ACAD_REACTORS
330
1F9
102
}
330
1F9
100
AcDbXrecord
280
     1
102
RTVSPropertyOp0
 70
     1
102
RTVSPropertyOp1
 70
     1
102
RTVSPropertyOp2
 70
     1
102
RTVSPropertyOp3
 70
     1
102
RTVSPropertyOp4
 70
     1
102
RTVSPropertyOp5
 70
     1
102
RTVSPropertyOp6
 70
     1
102
RTVSPropertyOp7
 70
     1
102
RTVSPropertyOp8
 70
     1
102
RTVSPropertyOp9
 70
     1
102
RTVSPropertyOp10
 70
     1
102
RTVSPropertyOp11
 70
     1
102
RTVSPropertyOp12
 70
     1
102
RTVSPropertyOp13
 70
     1
102
RTVSPropertyOp14
 70
     1
102
RTVSPropertyOp15
 70
     1
102
RTVSPropertyOp16
 70
     1
102
RTVSPropertyOp17
 70
     1
102
RTVSPropertyOp18
 70
     1
102
RTVSPropertyOp19
 70
     1
102
RTVSPropertyOp20
 70
     1
102
RTVSPropertyOp21
 70
     1
102
RTVSPropertyOp22
 70
     1
102
RTVSPropertyOp23
 70
     1
102
RTVSPropertyOp24
 70
     1
102
RTVSPropertyOp25
 70
     1
102
RTVSPropertyOp26
 70
     1
102
RTVSPropertyOp27
 70
     1
  0
XRECORD
  5
202
102
{ACAD_REACTORS
330
201
102
}
330
201
100
AcDbXrecord
280
     1
102
RTVSPropertyOp0
 70
     1
102
RTVSPropertyOp1
 70
     1
102
RTVSPropertyOp2
 70
     1
102
RTVSPropertyOp3
 70
     1
102
RTVSPropertyOp4
 70
     1
102
RTVSPropertyOp5
 70
     1
102
RTVSPropertyOp6
 70
     1
102
RTVSPropertyOp7
 70
     1
102
RTVSPropertyOp8
 70
     1
102
RTVSPropertyOp9
 70
     1
102
RTVSPropertyOp10
 70
     1
102
RTVSPropertyOp11
 70
     1
102
RTVSPropertyOp12
 70
     1
102
RTVSPropertyOp13
 70
     1
102
RTVSPropertyOp14
 70
     1
102
RTVSPropertyOp15
 70
     1
102
RTVSPropertyOp16
 70
     1
102
RTVSPropertyOp17
 70
     1
102
RTVSPropertyOp18
 70
     1
102
RTVSPropertyOp19
 70
     1
102
RTVSPropertyOp20
 70
     1
102
RTVSPropertyOp21
 70
     1
102
RTVSPropertyOp22
 70
     1
102
RTVSPropertyOp23
 70
     1
102
RTVSPropertyOp24
 70
     1
102
RTVSPropertyOp25
 70
     1
102
RTVSPropertyOp26
 70
     1
102
RTVSPropertyOp27
 70
     1
  0
XRECORD
  5
1F6
102
{ACAD_REACTORS
330
1F5
102
}
330
1F5
100
AcDbXrecord
280
     1
102
RTVSPropertyOp0
 70
     1
102
RTVSPropertyOp1
 70
     1
102
RTVSPropertyOp2
 70
     1
102
RTVSPropertyOp3
 70
     1
102
RTVSPropertyOp4
 70
     1
102
RTVSPropertyOp5
 70
     1
102
RTVSPropertyOp6
 70
     1
102
RTVSPropertyOp7
 70
     1
102
RTVSPropertyOp8
 70
     1
102
RTVSPropertyOp9
 70
     1
102
RTVSPropertyOp10
 70
     1
102
RTVSPropertyOp11
 70
     1
102
RTVSPropertyOp12
 70
     1
102
RTVSPropertyOp13
 70
     1
102
RTVSPropertyOp14
 70
     1
102
RTVSPropertyOp15
 70
     1
102
RTVSPropertyOp16
 70
     1
102
RTVSPropertyOp17
 70
     1
102
RTVSPropertyOp18
 70
     1
102
RTVSPropertyOp19
 70
     1
102
RTVSPropertyOp20
 70
     1
102
RTVSPropertyOp21
 70
     1
102
RTVSPropertyOp22
 70
     1
102
RTVSPropertyOp23
 70
     1
102
RTVSPropertyOp24
 70
     1
102
RTVSPropertyOp25
 70
     1
102
RTVSPropertyOp26
 70
     1
102
RTVSPropertyOp27
 70
     1
  0
XRECORD
  5
1F8
102
{ACAD_REACTORS
330
1F7
102
}
330
1F7
100
AcDbXrecord
280
     1
102
RTVSPropertyOp0
 70
     1
102
RTVSPropertyOp1
 70
     1
102
RTVSPropertyOp2
 70
     1
102
RTVSPropertyOp3
 70
     1
102
RTVSPropertyOp4
 70
     1
102
RTVSPropertyOp5
 70
     1
102
RTVSPropertyOp6
 70
     1
102
RTVSPropertyOp7
 70
     1
102
RTVSPropertyOp8
 70
     1
102
RTVSPropertyOp9
 70
     1
102
RTVSPropertyOp10
 70
     1
102
RTVSPropertyOp11
 70
     1
102
RTVSPropertyOp12
 70
     1
102
RTVSPropertyOp13
 70
     1
102
RTVSPropertyOp14
 70
     1
102
RTVSPropertyOp15
 70
     1
102
RTVSPropertyOp16
 70
     1
102
RTVSPropertyOp17
 70
     1
102
RTVSPropertyOp18
 70
     1
102
RTVSPropertyOp19
 70
     1
102
RTVSPropertyOp20
 70
     1
102
RTVSPropertyOp21
 70
     1
102
RTVSPropertyOp22
 70
     1
102
RTVSPropertyOp23
 70
     1
102
RTVSPropertyOp24
 70
     1
102
RTVSPropertyOp25
 70
     1
102
RTVSPropertyOp26
 70
     1
102
RTVSPropertyOp27
 70
     1
  0
XRECORD
  5
200
102
{ACAD_REACTORS
330
1FF
102
}
330
1FF
100
AcDbXrecord
280
     1
102
RTVSPropertyOp0
 70
     1
102
RTVSPropertyOp1
 70
     1
102
RTVSPropertyOp2
 70
     1
102
RTVSPropertyOp3
 70
     1
102
RTVSPropertyOp4
 70
     1
102
RTVSPropertyOp5
 70
     1
102
RTVSPropertyOp6
 70
     1
102
RTVSPropertyOp7
 70
     1
102
RTVSPropertyOp8
 70
     1
102
RTVSPropertyOp9
 70
     1
102
RTVSPropertyOp10
 70
     1
102
RTVSPropertyOp11
 70
     1
102
RTVSPropertyOp12
 70
     1
102
RTVSPropertyOp13
 70
     1
102
RTVSPropertyOp14
 70
     1
102
RTVSPropertyOp15
 70
     1
102
RTVSPropertyOp16
 70
     1
102
RTVSPropertyOp17
 70
     1
102
RTVSPropertyOp18
 70
     1
102
RTVSPropertyOp19
 70
     1
102
RTVSPropertyOp20
 70
     1
102
RTVSPropertyOp21
 70
     1
102
RTVSPropertyOp22
 70
     1
102
RTVSPropertyOp23
 70
     1
102
RTVSPropertyOp24
 70
     1
102
RTVSPropertyOp25
 70
     1
102
RTVSPropertyOp26
 70
     1
102
RTVSPropertyOp27
 70
     1
  0
XRECORD
  5
1E4
102
{ACAD_REACTORS
330
1E3
102
}
330
1E3
100
AcDbXrecord
280
     1
102
RTVSPropertyOp0
 70
     1
102
RTVSPropertyOp1
 70
     1
102
RTVSPropertyOp2
 70
     1
102
RTVSPropertyOp3
 70
     1
102
RTVSPropertyOp4
 70
     1
102
RTVSPropertyOp5
 70
     1
102
RTVSPropertyOp6
 70
     1
102
RTVSPropertyOp7
 70
     1
102
RTVSPropertyOp8
 70
     1
102
RTVSPropertyOp9
 70
     1
102
RTVSPropertyOp10
 70
     1
102
RTVSPropertyOp11
 70
     1
102
RTVSPropertyOp12
 70
     1
102
RTVSPropertyOp13
 70
     1
102
RTVSPropertyOp14
 70
     1
102
RTVSPropertyOp15
 70
     1
102
RTVSPropertyOp16
 70
     1
102
RTVSPropertyOp17
 70
     1
102
RTVSPropertyOp18
 70
     1
102
RTVSPropertyOp19
 70
     1
102
RTVSPropertyOp20
 70
     1
102
RTVSPropertyOp21
 70
     1
102
RTVSPropertyOp22
 70
     1
102
RTVSPropertyOp23
 70
     1
102
RTVSPropertyOp24
 70
     1
102
RTVSPropertyOp25
 70
     1
102
RTVSPropertyOp26
 70
     1
102
RTVSPropertyOp27
 70
     1
  0
XRECORD
  5
1E6
102
{ACAD_REACTORS
330
1E5
102
}
330
1E5
100
AcDbXrecord
280
     1
102
RTVSPropertyOp0
 70
     1
102
RTVSPropertyOp1
 70
     1
102
RTVSPropertyOp2
 70
     1
102
RTVSPropertyOp3
 70
     1
102
RTVSPropertyOp4
 70
     1
102
RTVSPropertyOp5
 70
     1
102
RTVSPropertyOp6
 70
     1
102
RTVSPropertyOp7
 70
     1
102
RTVSPropertyOp8
 70
     1
102
RTVSPropertyOp9
 70
     1
102
RTVSPropertyOp10
 70
     1
102
RTVSPropertyOp11
 70
     1
102
RTVSPropertyOp12
 70
     1
102
RTVSPropertyOp13
 70
     1
102
RTVSPropertyOp14
 70
     1
102
RTVSPropertyOp15
 70
     1
102
RTVSPropertyOp16
 70
     1
102
RTVSPropertyOp17
 70
     1
102
RTVSPropertyOp18
 70
     1
102
RTVSPropertyOp19
 70
     1
102
RTVSPropertyOp20
 70
     1
102
RTVSPropertyOp21
 70
     1
102
RTVSPropertyOp22
 70
     1
102
RTVSPropertyOp23
 70
     1
102
RTVSPropertyOp24
 70
     1
102
RTVSPropertyOp25
 70
     1
102
RTVSPropertyOp26
 70
     1
102
RTVSPropertyOp27
 70
     1
  0
XRECORD
  5
1E8
102
{ACAD_REACTORS
330
1E7
102
}
330
1E7
100
AcDbXrecord
280
     1
102
RTVSPropertyOp0
 70
     1
102
RTVSPropertyOp1
 70
     1
102
RTVSPropertyOp2
 70
     1
102
RTVSPropertyOp3
 70
     1
102
RTVSPropertyOp4
 70
     1
102
RTVSPropertyOp5
 70
     1
102
RTVSPropertyOp6
 70
     1
102
RTVSPropertyOp7
 70
     1
102
RTVSPropertyOp8
 70
     1
102
RTVSPropertyOp9
 70
     1
102
RTVSPropertyOp10
 70
     1
102
RTVSPropertyOp11
 70
     1
102
RTVSPropertyOp12
 70
     1
102
RTVSPropertyOp13
 70
     1
102
RTVSPropertyOp14
 70
     1
102
RTVSPropertyOp15
 70
     1
102
RTVSPropertyOp16
 70
     1
102
RTVSPropertyOp17
 70
     1
102
RTVSPropertyOp18
 70
     1
102
RTVSPropertyOp19
 70
     1
102
RTVSPropertyOp20
 70
     1
102
RTVSPropertyOp21
 70
     1
102
RTVSPropertyOp22
 70
     1
102
RTVSPropertyOp23
 70
     1
102
RTVSPropertyOp24
 70
     1
102
RTVSPropertyOp25
 70
     1
102
RTVSPropertyOp26
 70
     1
102
RTVSPropertyOp27
 70
     1
  0
XRECORD
  5
1EA
102
{ACAD_REACTORS
330
1E9
102
}
330
1E9
100
AcDbXrecord
280
     1
102
RTVSPropertyOp0
 70
     1
102
RTVSPropertyOp1
 70
     1
102
RTVSPropertyOp2
 70
     1
102
RTVSPropertyOp3
 70
     1
102
RTVSPropertyOp4
 70
     1
102
RTVSPropertyOp5
 70
     1
102
RTVSPropertyOp6
 70
     1
102
RTVSPropertyOp7
 70
     1
102
RTVSPropertyOp8
 70
     1
102
RTVSPropertyOp9
 70
     1
102
RTVSPropertyOp10
 70
     1
102
RTVSPropertyOp11
 70
     1
102
RTVSPropertyOp12
 70
     1
102
RTVSPropertyOp13
 70
     1
102
RTVSPropertyOp14
 70
     1
102
RTVSPropertyOp15
 70
     1
102
RTVSPropertyOp16
 70
     1
102
RTVSPropertyOp17
 70
     1
102
RTVSPropertyOp18
 70
     1
102
RTVSPropertyOp19
 70
     1
102
RTVSPropertyOp20
 70
     1
102
RTVSPropertyOp21
 70
     1
102
RTVSPropertyOp22
 70
     1
102
RTVSPropertyOp23
 70
     1
102
RTVSPropertyOp24
 70
     1
102
RTVSPropertyOp25
 70
     1
102
RTVSPropertyOp26
 70
     1
102
RTVSPropertyOp27
 70
     1
  0
XRECORD
  5
1FE
102
{ACAD_REACTORS
330
1FD
102
}
330
1FD
100
AcDbXrecord
280
     1
102
RTVSPropertyOp0
 70
     1
102
RTVSPropertyOp1
 70
     1
102
RTVSPropertyOp2
 70
     1
102
RTVSPropertyOp3
 70
     1
102
RTVSPropertyOp4
 70
     1
102
RTVSPropertyOp5
 70
     1
102
RTVSPropertyOp6
 70
     1
102
RTVSPropertyOp7
 70
     1
102
RTVSPropertyOp8
 70
     1
102
RTVSPropertyOp9
 70
     1
102
RTVSPropertyOp10
 70
     1
102
RTVSPropertyOp11
 70
     1
102
RTVSPropertyOp12
 70
     1
102
RTVSPropertyOp13
 70
     1
102
RTVSPropertyOp14
 70
     1
102
RTVSPropertyOp15
 70
     1
102
RTVSPropertyOp16
 70
     1
102
RTVSPropertyOp17
 70
     1
102
RTVSPropertyOp18
 70
     1
102
RTVSPropertyOp19
 70
     1
102
RTVSPropertyOp20
 70
     1
102
RTVSPropertyOp21
 70
     1
102
RTVSPropertyOp22
 70
     1
102
RTVSPropertyOp23
 70
     1
102
RTVSPropertyOp24
 70
     1
102
RTVSPropertyOp25
 70
     1
102
RTVSPropertyOp26
 70
     1
102
RTVSPropertyOp27
 70
     1
  0
XRECORD
  5
1F4
102
{ACAD_REACTORS
330
1F3
102
}
330
1F3
100
AcDbXrecord
280
     1
102
RTVSPropertyOp0
 70
     1
102
RTVSPropertyOp1
 70
     1
102
RTVSPropertyOp2
 70
     1
102
RTVSPropertyOp3
 70
     1
102
RTVSPropertyOp4
 70
     1
102
RTVSPropertyOp5
 70
     1
102
RTVSPropertyOp6
 70
     1
102
RTVSPropertyOp7
 70
     1
102
RTVSPropertyOp8
 70
     1
102
RTVSPropertyOp9
 70
     1
102
RTVSPropertyOp10
 70
     1
102
RTVSPropertyOp11
 70
     1
102
RTVSPropertyOp12
 70
     1
102
RTVSPropertyOp13
 70
     1
102
RTVSPropertyOp14
 70
     1
102
RTVSPropertyOp15
 70
     1
102
RTVSPropertyOp16
 70
     1
102
RTVSPropertyOp17
 70
     1
102
RTVSPropertyOp18
 70
     1
102
RTVSPropertyOp19
 70
     1
102
RTVSPropertyOp20
 70
     1
102
RTVSPropertyOp21
 70
     1
102
RTVSPropertyOp22
 70
     1
102
RTVSPropertyOp23
 70
     1
102
RTVSPropertyOp24
 70
     1
102
RTVSPropertyOp25
 70
     1
102
RTVSPropertyOp26
 70
     1
102
RTVSPropertyOp27
 70
     1
  0
XRECORD
  5
1FC
102
{ACAD_REACTORS
330
1FB
102
}
330
1FB
100
AcDbXrecord
280
     1
102
RTVSPropertyOp0
 70
     1
102
RTVSPropertyOp1
 70
     1
102
RTVSPropertyOp2
 70
     1
102
RTVSPropertyOp3
 70
     1
102
RTVSPropertyOp4
 70
     1
102
RTVSPropertyOp5
 70
     1
102
RTVSPropertyOp6
 70
     1
102
RTVSPropertyOp7
 70
     1
102
RTVSPropertyOp8
 70
     1
102
RTVSPropertyOp9
 70
     1
102
RTVSPropertyOp10
 70
     1
102
RTVSPropertyOp11
 70
     1
102
RTVSPropertyOp12
 70
     1
102
RTVSPropertyOp13
 70
     1
102
RTVSPropertyOp14
 70
     1
102
RTVSPropertyOp15
 70
     1
102
RTVSPropertyOp16
 70
     1
102
RTVSPropertyOp17
 70
     1
102
RTVSPropertyOp18
 70
     1
102
RTVSPropertyOp19
 70
     1
102
RTVSPropertyOp20
 70
     1
102
RTVSPropertyOp21
 70
     1
102
RTVSPropertyOp22
 70
     1
102
RTVSPropertyOp23
 70
     1
102
RTVSPropertyOp24
 70
     1
102
RTVSPropertyOp25
 70
     1
102
RTVSPropertyOp26
 70
     1
102
RTVSPropertyOp27
 70
     1
  0
ENDSEC
  0
EOF
