  0
SECTION
  2
HEADER
  9
$ACADVER
  1
AC1018
  9
$ACADMAINTVER
 70
     0
  9
$DWGCODEPAGE
  3
ANSI_1252
  9
$INSBASE
 10
0.0
 20
0.0
 30
0.0
  9
$EXTMIN
 10
72780.9396511572
 20
35292.11445230429
 30
0.0
  9
$EXTMAX
 10
74871.45218913558
 20
36727.1144584078
 30
3.174999952316284
  9
$LIMMIN
 10
0.0
 20
0.0
  9
$LIMMAX
 10
420.0
 20
297.0
  9
$ORTHOMODE
 70
     0
  9
$REGENMODE
 70
     1
  9
$FILLMODE
 70
     1
  9
$QTEXTMODE
 70
     0
  9
$MIRRTEXT
 70
     1
  9
$LTSCALE
 40
1.0
  9
$ATTMODE
 70
     1
  9
$TEXTSIZE
 40
0.2
  9
$TRACEWID
 40
1.0
  9
$TEXTSTYLE
  7
ARIAL
  9
$CLAYER
  8
MO-565
  9
$CELTYPE
  6
Continuous
  9
$CECOLOR
 62
   256
  9
$CELTSCALE
 40
1.0
  9
$DISPSILH
 70
     0
  9
$DIMSCALE
 40
1.0
  9
$DIMASZ
 40
2.5
  9
$DIMEXO
 40
0.625
  9
$DIMDLI
 40
3.75
  9
$DIMRND
 40
0.0
  9
$DIMDLE
 40
0.0
  9
$DIMEXE
 40
1.25
  9
$DIMTP
 40
0.0
  9
$DIMTM
 40
0.0
  9
$DIMTXT
 40
2.5
  9
$DIMCEN
 40
2.5
  9
$DIMTSZ
 40
0.0
  9
$DIMTOL
 70
     0
  9
$DIMLIM
 70
     0
  9
$DIMTIH
 70
     0
  9
$DIMTOH
 70
     0
  9
$DIMSE1
 70
     0
  9
$DIMSE2
 70
     0
  9
$DIMTAD
 70
     1
  9
$DIMZIN
 70
     8
  9
$DIMBLK
  1

  9
$DIMASO
 70
     1
  9
$DIMSHO
 70
     1
  9
$DIMPOST
  1

  9
$DIMAPOST
  1

  9
$DIMALT
 70
     0
  9
$DIMALTD
 70
     3
  9
$DIMALTF
 40
0.03937007874016
  9
$DIMLFAC
 40
1.0
  9
$DIMTOFL
 70
     1
  9
$DIMTVP
 40
0.0
  9
$DIMTIX
 70
     0
  9
$DIMSOXD
 70
     0
  9
$DIMSAH
 70
     0
  9
$DIMBLK1
  1

  9
$DIMBLK2
  1

  9
$DIMSTYLE
  2
ISO-25
  9
$DIMCLRD
 70
     0
  9
$DIMCLRE
 70
     0
  9
$DIMCLRT
 70
     0
  9
$DIMTFAC
 40
1.0
  9
$DIMGAP
 40
0.625
  9
$DIMJUST
 70
     0
  9
$DIMSD1
 70
     0
  9
$DIMSD2
 70
     0
  9
$DIMTOLJ
 70
     0
  9
$DIMTZIN
 70
     8
  9
$DIMALTZ
 70
     0
  9
$DIMALTTZ
 70
     0
  9
$DIMUPT
 70
     0
  9
$DIMDEC
 70
     2
  9
$DIMTDEC
 70
     2
  9
$DIMALTU
 70
     2
  9
$DIMALTTD
 70
     3
  9
$DIMTXSTY
  7
Standard
  9
$DIMAUNIT
 70
     0
  9
$DIMADEC
 70
     0
  9
$DIMALTRND
 40
0.0
  9
$DIMAZIN
 70
     0
  9
$DIMDSEP
 70
    44
  9
$DIMATFIT
 70
     3
  9
$DIMFRAC
 70
     0
  9
$DIMLDRBLK
  1

  9
$DIMLUNIT
 70
     2
  9
$DIMLWD
 70
    -2
  9
$DIMLWE
 70
    -2
  9
$DIMTMOVE
 70
     0
  9
$LUNITS
 70
     2
  9
$LUPREC
 70
     4
  9
$SKETCHINC
 40
1.0
  9
$FILLETRAD
 40
10.0
  9
$AUNITS
 70
     0
  9
$AUPREC
 70
     0
  9
$MENU
  1
.
  9
$ELEVATION
 40
0.0
  9
$PELEVATION
 40
0.0
  9
$THICKNESS
 40
0.0
  9
$LIMCHECK
 70
     0
  9
$CHAMFERA
 40
10.0
  9
$CHAMFERB
 40
10.0
  9
$CHAMFERC
 40
20.0
  9
$CHAMFERD
 40
0.0
  9
$SKPOLY
 70
     0
  9
$TDCREATE
 40
2457970.421071146
  9
$TDUCREATE
 40
2457970.337737813
  9
$TDUPDATE
 40
2457970.421101435
  9
$TDUUPDATE
 40
2457970.337768102
  9
$TDINDWG
 40
0.0000000116
  9
$TDUSRTIMER
 40
0.0000000116
  9
$USRTIMER
 70
     1
  9
$ANGBASE
 50
0.0
  9
$ANGDIR
 70
     0
  9
$PDMODE
 70
     0
  9
$PDSIZE
 40
0.0
  9
$PLINEWID
 40
0.0
  9
$SPLFRAME
 70
     0
  9
$SPLINETYPE
 70
     6
  9
$SPLINESEGS
 70
     8
  9
$HANDSEED
  5
60E
  9
$SURFTAB1
 70
     6
  9
$SURFTAB2
 70
     6
  9
$SURFTYPE
 70
     6
  9
$SURFU
 70
     6
  9
$SURFV
 70
     6
  9
$UCSBASE
  2

  9
$UCSNAME
  2

  9
$UCSORG
 10
0.0
 20
0.0
 30
0.0
  9
$UCSXDIR
 10
1.0
 20
0.0
 30
0.0
  9
$UCSYDIR
 10
0.0
 20
1.0
 30
0.0
  9
$UCSORTHOREF
  2

  9
$UCSORTHOVIEW
 70
     0
  9
$UCSORGTOP
 10
0.0
 20
0.0
 30
0.0
  9
$UCSORGBOTTOM
 10
0.0
 20
0.0
 30
0.0
  9
$UCSORGLEFT
 10
0.0
 20
0.0
 30
0.0
  9
$UCSORGRIGHT
 10
0.0
 20
0.0
 30
0.0
  9
$UCSORGFRONT
 10
0.0
 20
0.0
 30
0.0
  9
$UCSORGBACK
 10
0.0
 20
0.0
 30
0.0
  9
$PUCSBASE
  2

  9
$PUCSNAME
  2

  9
$PUCSORG
 10
0.0
 20
0.0
 30
0.0
  9
$PUCSXDIR
 10
1.0
 20
0.0
 30
0.0
  9
$PUCSYDIR
 10
0.0
 20
1.0
 30
0.0
  9
$PUCSORTHOREF
  2

  9
$PUCSORTHOVIEW
 70
     0
  9
$PUCSORGTOP
 10
0.0
 20
0.0
 30
0.0
  9
$PUCSORGBOTTOM
 10
0.0
 20
0.0
 30
0.0
  9
$PUCSORGLEFT
 10
0.0
 20
0.0
 30
0.0
  9
$PUCSORGRIGHT
 10
0.0
 20
0.0
 30
0.0
  9
$PUCSORGFRONT
 10
0.0
 20
0.0
 30
0.0
  9
$PUCSORGBACK
 10
0.0
 20
0.0
 30
0.0
  9
$USERI1
 70
     0
  9
$USERI2
 70
     0
  9
$USERI3
 70
     0
  9
$USERI4
 70
     0
  9
$USERI5
 70
     0
  9
$USERR1
 40
0.0
  9
$USERR2
 40
0.0
  9
$USERR3
 40
0.0
  9
$USERR4
 40
0.0
  9
$USERR5
 40
0.0
  9
$WORLDVIEW
 70
     1
  9
$SHADEDGE
 70
     3
  9
$SHADEDIF
 70
    70
  9
$TILEMODE
 70
     1
  9
$MAXACTVP
 70
    64
  9
$PINSBASE
 10
0.0
 20
0.0
 30
0.0
  9
$PLIMCHECK
 70
     0
  9
$PEXTMIN
 10
1.000000000000000E+20
 20
1.000000000000000E+20
 30
1.000000000000000E+20
  9
$PEXTMAX
 10
-1.000000000000000E+20
 20
-1.000000000000000E+20
 30
-1.000000000000000E+20
  9
$PLIMMIN
 10
0.0
 20
0.0
  9
$PLIMMAX
 10
420.0
 20
297.0
  9
$UNITMODE
 70
     0
  9
$VISRETAIN
 70
     1
  9
$PLINEGEN
 70
     0
  9
$PSLTSCALE
 70
     1
  9
$TREEDEPTH
 70
  3020
  9
$CMLSTYLE
  2
Standard
  9
$CMLJUST
 70
     0
  9
$CMLSCALE
 40
20.0
  9
$PROXYGRAPHICS
 70
     1
  9
$MEASUREMENT
 70
     1
  9
$CELWEIGHT
370
    -1
  9
$ENDCAPS
280
     0
  9
$JOINSTYLE
280
     0
  9
$LWDISPLAY
290
     0
  9
$INSUNITS
 70
     4
  9
$HYPERLINKBASE
  1

  9
$STYLESHEET
  1

  9
$XEDIT
290
     1
  9
$CEPSNTYPE
380
     0
  9
$PSTYLEMODE
290
     1
  9
$FINGERPRINTGUID
  2
{47309DA0-5D21-4C36-832C-1AFF9A0682DA}
  9
$VERSIONGUID
  2
{FAEB1C32-E019-11D5-929B-00C0DF256EC4}
  9
$EXTNAMES
290
     1
  9
$PSVPSCALE
 40
0.0
  9
$OLESTARTUP
290
     0
  9
$SORTENTS
280
   127
  9
$INDEXCTL
280
     0
  9
$HIDETEXT
280
     1
  9
$XCLIPFRAME
290
     0
  9
$HALOGAP
280
     0
  9
$OBSCOLOR
 70
   257
  9
$OBSLTYPE
280
     0
  9
$INTERSECTIONDISPLAY
280
     0
  9
$INTERSECTIONCOLOR
 70
   257
  9
$DIMASSOC
280
     2
  9
$PROJECTNAME
  1

  0
ENDSEC
  0
SECTION
  2
CLASSES
  0
CLASS
  1
ACDBDICTIONARYWDFLT
  2
AcDbDictionaryWithDefault
  3
ObjectDBX Classes
 90
        0
 91
        4
280
     0
281
     0
  0
CLASS
  1
VISUALSTYLE
  2
AcDbVisualStyle
  3
ObjectDBX Classes
 90
     4095
 91
        4
280
     0
281
     0
  0
CLASS
  1
MATERIAL
  2
AcDbMaterial
  3
ObjectDBX Classes
 90
     1153
 91
        4
280
     0
281
     0
  0
ENDSEC
  0
SECTION
  2
TABLES
  0
TABLE
  2
VPORT
  5
8
330
0
100
AcDbSymbolTable
 70
     1
  0
VPORT
  5
29
330
8
100
AcDbSymbolTableRecord
100
AcDbViewportTableRecord
  2
*Active
 70
     0
 10
0.0
 20
0.0
 11
1.0
 21
1.0
 12
37085.19141801712
 22
18079.05722767802
 13
0.0
 23
0.0
 14
10.0
 24
10.0
 15
10.0
 25
10.0
 16
0.0
 26
0.0
 36
1.0
 17
0.0
 27
0.0
 37
0.0
 40
1463.700006225587
 41
1.456803156158023
 42
50.0
 43
0.0
 44
0.0
 50
0.0
 51
0.0
 71
     0
 72
   100
 73
     1
 74
     3
 75
     0
 76
     0
 77
     0
 78
     0
281
     0
 65
     1
110
0.0
120
0.0
130
0.0
111
1.0
121
0.0
131
0.0
112
0.0
122
1.0
132
0.0
 79
     0
146
0.0
  0
ENDTAB
  0
TABLE
  2
LTYPE
  5
5
330
0
100
AcDbSymbolTable
 70
     1
  0
LTYPE
  5
14
330
5
100
AcDbSymbolTableRecord
100
AcDbLinetypeTableRecord
  2
ByBlock
 70
     0
  3

 72
    65
 73
     0
 40
0.0
  0
LTYPE
  5
15
330
5
100
AcDbSymbolTableRecord
100
AcDbLinetypeTableRecord
  2
ByLayer
 70
     0
  3

 72
    65
 73
     0
 40
0.0
  0
LTYPE
  5
16
330
5
100
AcDbSymbolTableRecord
100
AcDbLinetypeTableRecord
  2
Continuous
 70
     0
  3
Solid line
 72
    65
 73
     0
 40
0.0
  0
ENDTAB
  0
TABLE
  2
LAYER
  5
2
330
0
100
AcDbSymbolTable
 70
    16
  0
LAYER
  5
10
330
2
100
AcDbSymbolTableRecord
100
AcDbLayerTableRecord
  2
0
 70
     0
 62
     7
  6
Continuous
370
    -3
390
F
  0
LAYER
  5
3F
330
2
100
AcDbSymbolTableRecord
100
AcDbLayerTableRecord
  2
allgemein
 70
     0
 62
    18
420
        0
  6
Continuous
370
    25
390
F
  0
LAYER
  5
40
330
2
100
AcDbSymbolTableRecord
100
AcDbLayerTableRecord
  2
Beschriftung Allgemein
 70
     0
 62
    18
420
        0
  6
Continuous
370
    25
390
F
  0
LAYER
  5
41
330
2
100
AcDbSymbolTableRecord
100
AcDbLayerTableRecord
  2
Smart 8213
 70
     0
 62
    18
420
        0
  6
Continuous
370
    25
390
F
  0
LAYER
  5
AE
330
2
100
AcDbSymbolTableRecord
100
AcDbLayerTableRecord
  2
Smart 8214
 70
     0
 62
    18
420
        0
  6
Continuous
370
    25
390
F
  0
LAYER
  5
11B
330
2
100
AcDbSymbolTableRecord
100
AcDbLayerTableRecord
  2
Smart 8215
 70
     0
 62
    18
420
        0
  6
Continuous
370
    25
390
F
  0
LAYER
  5
188
330
2
100
AcDbSymbolTableRecord
100
AcDbLayerTableRecord
  2
Smart 8216
 70
     0
 62
    18
420
        0
  6
Continuous
370
    25
390
F
  0
LAYER
  5
1F5
330
2
100
AcDbSymbolTableRecord
100
AcDbLayerTableRecord
  2
Smart 8221
 70
     0
 62
    18
420
        0
  6
Continuous
370
    25
390
F
  0
LAYER
  5
262
330
2
100
AcDbSymbolTableRecord
100
AcDbLayerTableRecord
  2
Smart 8222
 70
     0
 62
    18
420
        0
  6
Continuous
370
    25
390
F
  0
LAYER
  5
2CF
330
2
100
AcDbSymbolTableRecord
100
AcDbLayerTableRecord
  2
Smart 8223
 70
     0
 62
    18
420
        0
  6
Continuous
370
    25
390
F
  0
LAYER
  5
33C
330
2
100
AcDbSymbolTableRecord
100
AcDbLayerTableRecord
  2
Smart 8224
 70
     0
 62
    18
420
        0
  6
Continuous
370
    25
390
F
  0
LAYER
  5
3A9
330
2
100
AcDbSymbolTableRecord
100
AcDbLayerTableRecord
  2
Smart 8225
 70
     0
 62
    18
420
        0
  6
Continuous
370
    25
390
F
  0
LAYER
  5
416
330
2
100
AcDbSymbolTableRecord
100
AcDbLayerTableRecord
  2
Smart 8226
 70
     0
 62
    18
420
        0
  6
Continuous
370
    25
390
F
  0
LAYER
  5
483
330
2
100
AcDbSymbolTableRecord
100
AcDbLayerTableRecord
  2
MO-525
 70
     0
 62
    18
420
        0
  6
Continuous
370
    25
390
F
  0
LAYER
  5
4D8
330
2
100
AcDbSymbolTableRecord
100
AcDbLayerTableRecord
  2
MO-565
 70
     0
 62
    18
420
        0
  6
Continuous
370
    25
390
F
  0
LAYER
  5
4FD
330
2
100
AcDbSymbolTableRecord
100
AcDbLayerTableRecord
  2
Defpoints
 70
     0
 62
     7
  6
Continuous
290
     0
370
    -3
390
F
  0
ENDTAB
  0
TABLE
  2
STYLE
  5
3
330
0
100
AcDbSymbolTable
 70
     6
  0
STYLE
  5
11
330
3
100
AcDbSymbolTableRecord
100
AcDbTextStyleTableRecord
  2
Standard
 70
     0
 40
0.0
 41
1.0
 50
0.0
 71
     0
 42
2.5
  3
txt
  4

  0
STYLE
  5
4D9
330
3
100
AcDbSymbolTableRecord
100
AcDbTextStyleTableRecord
  2
CENTURY GOTHIC
 70
     0
 40
0.0
 41
1.0
 50
0.0
 71
     0
 42
0.2
  3
CENTURY GOTHIC
  4

  0
STYLE
  5
4DB
330
3
100
AcDbSymbolTableRecord
100
AcDbTextStyleTableRecord
  2
HLV-L
 70
     0
 40
0.0
 41
1.0
 50
0.0
 71
     0
 42
0.2
  3
HLV-L
  4

  0
STYLE
  5
4E0
330
3
100
AcDbSymbolTableRecord
100
AcDbTextStyleTableRecord
  2
ARIAL
 70
     0
 40
0.0
 41
1.0
 50
0.0
 71
     0
 42
0.2
  3
ARIAL
  4

  0
STYLE
  5
4E2
330
3
100
AcDbSymbolTableRecord
100
AcDbTextStyleTableRecord
  2
HELV-HFT
 70
     0
 40
0.0
 41
1.0
 50
0.0
 71
     0
 42
0.2
  3
HELV-HFT
  4

  0
STYLE
  5
510
330
3
100
AcDbSymbolTableRecord
100
AcDbTextStyleTableRecord
  2
ROMAN
 70
     0
 40
0.0
 41
1.0
 50
0.0
 71
     0
 42
0.2
  3
ROMAN
  4

  0
ENDTAB
  0
TABLE
  2
VIEW
  5
6
330
0
100
AcDbSymbolTable
 70
     0
  0
ENDTAB
  0
TABLE
  2
UCS
  5
7
330
0
100
AcDbSymbolTable
 70
     0
  0
ENDTAB
  0
TABLE
  2
APPID
  5
9
330
0
100
AcDbSymbolTable
 70
     3
  0
APPID
  5
12
330
9
100
AcDbSymbolTableRecord
100
AcDbRegAppTableRecord
  2
ACAD
 70
     0
  0
APPID
  5
5E4
330
9
100
AcDbSymbolTableRecord
100
AcDbRegAppTableRecord
  2
ACAD_DSTYLE_DIMEXT_ENABLED
 70
     0
  0
APPID
  5
5E5
330
9
100
AcDbSymbolTableRecord
100
AcDbRegAppTableRecord
  2
ACAD_DSTYLE_DIMEXT_LENGTH
 70
     0
  0
ENDTAB
  0
TABLE
  2
DIMSTYLE
  5
A
330
0
100
AcDbSymbolTable
 70
     1
100
AcDbDimStyleTable
  0
DIMSTYLE
105
27
102
{ACAD_REACTORS
330
4FC
330
511
330
51E
330
52B
330
538
330
545
330
5D5
102
}
330
A
100
AcDbSymbolTableRecord
100
AcDbDimStyleTableRecord
  2
ISO-25
 70
     0
 41
2.5
 42
0.625
 43
3.75
 44
1.25
 73
     0
 74
     0
 77
     1
 78
     8
140
2.5
141
2.5
143
0.03937007874016
147
0.625
171
     3
172
     1
178
     0
271
     2
272
     2
274
     3
278
    44
283
     0
284
     8
340
11
  0
ENDTAB
  0
TABLE
  2
BLOCK_RECORD
  5
1
330
0
100
AcDbSymbolTable
 70
   310
  0
BLOCK_RECORD
  5
1F
330
1
100
AcDbSymbolTableRecord
100
AcDbBlockTableRecord
  2
*Model_Space
340
22
  0
BLOCK_RECORD
  5
1B
330
1
100
AcDbSymbolTableRecord
100
AcDbBlockTableRecord
  2
*Paper_Space
340
1E
  0
BLOCK_RECORD
  5
23
330
1
100
AcDbSymbolTableRecord
100
AcDbBlockTableRecord
  2
*Paper_Space0
340
26
  0
BLOCK_RECORD
  5
42
330
1
100
AcDbSymbolTableRecord
100
AcDbBlockTableRecord
  2
Dimension1
340
0
102
{BLKREFS
331
45
102
}
  0
BLOCK_RECORD
  5
46
330
1
100
AcDbSymbolTableRecord
100
AcDbBlockTableRecord
  2
Dimension2
340
0
102
{BLKREFS
331
49
102
}
  0
BLOCK_RECORD
  5
4A
330
1
100
AcDbSymbolTableRecord
100
AcDbBlockTableRecord
  2
Dimension3
340
0
102
{BLKREFS
331
4D
102
}
  0
BLOCK_RECORD
  5
4E
330
1
100
AcDbSymbolTableRecord
100
AcDbBlockTableRecord
  2
Dimension4
340
0
102
{BLKREFS
331
51
102
}
  0
BLOCK_RECORD
  5
52
330
1
100
AcDbSymbolTableRecord
100
AcDbBlockTableRecord
  2
Dimension5
340
0
102
{BLKREFS
331
55
102
}
  0
BLOCK_RECORD
  5
56
330
1
100
AcDbSymbolTableRecord
100
AcDbBlockTableRecord
  2
Dimension6
340
0
102
{BLKREFS
331
59
102
}
  0
BLOCK_RECORD
  5
5A
330
1
100
AcDbSymbolTableRecord
100
AcDbBlockTableRecord
  2
Dimension7
340
0
102
{BLKREFS
331
5D
102
}
  0
BLOCK_RECORD
  5
5E
330
1
100
AcDbSymbolTableRecord
100
AcDbBlockTableRecord
  2
Dimension8
340
0
102
{BLKREFS
331
61
102
}
  0
BLOCK_RECORD
  5
62
330
1
100
AcDbSymbolTableRecord
100
AcDbBlockTableRecord
  2
Dimension9
340
0
102
{BLKREFS
331
65
102
}
  0
BLOCK_RECORD
  5
66
330
1
100
AcDbSymbolTableRecord
100
AcDbBlockTableRecord
  2
Dimension10
340
0
102
{BLKREFS
331
69
102
}
  0
BLOCK_RECORD
  5
6A
330
1
100
AcDbSymbolTableRecord
100
AcDbBlockTableRecord
  2
Dimension11
340
0
102
{BLKREFS
331
6D
102
}
  0
BLOCK_RECORD
  5
6E
330
1
100
AcDbSymbolTableRecord
100
AcDbBlockTableRecord
  2
Dimension12
340
0
102
{BLKREFS
331
71
102
}
  0
BLOCK_RECORD
  5
72
330
1
100
AcDbSymbolTableRecord
100
AcDbBlockTableRecord
  2
Dimension13
340
0
102
{BLKREFS
331
75
102
}
  0
BLOCK_RECORD
  5
76
330
1
100
AcDbSymbolTableRecord
100
AcDbBlockTableRecord
  2
Dimension14
340
0
102
{BLKREFS
331
79
102
}
  0
BLOCK_RECORD
  5
7A
330
1
100
AcDbSymbolTableRecord
100
AcDbBlockTableRecord
  2
Dimension15
340
0
102
{BLKREFS
331
7D
102
}
  0
BLOCK_RECORD
  5
7E
330
1
100
AcDbSymbolTableRecord
100
AcDbBlockTableRecord
  2
Dimension16
340
0
102
{BLKREFS
331
81
102
}
  0
BLOCK_RECORD
  5
82
330
1
100
AcDbSymbolTableRecord
100
AcDbBlockTableRecord
  2
Dimension17
340
0
102
{BLKREFS
331
85
102
}
  0
BLOCK_RECORD
  5
86
330
1
100
AcDbSymbolTableRecord
100
AcDbBlockTableRecord
  2
Dimension18
340
0
102
{BLKREFS
331
89
102
}
  0
BLOCK_RECORD
  5
8A
330
1
100
AcDbSymbolTableRecord
100
AcDbBlockTableRecord
  2
Dimension19
340
0
102
{BLKREFS
331
8D
102
}
  0
BLOCK_RECORD
  5
8E
330
1
100
AcDbSymbolTableRecord
100
AcDbBlockTableRecord
  2
Dimension20
340
0
102
{BLKREFS
331
91
102
}
  0
BLOCK_RECORD
  5
92
330
1
100
AcDbSymbolTableRecord
100
AcDbBlockTableRecord
  2
Dimension21
340
0
102
{BLKREFS
331
95
102
}
  0
BLOCK_RECORD
  5
96
330
1
100
AcDbSymbolTableRecord
100
AcDbBlockTableRecord
  2
Dimension22
340
0
102
{BLKREFS
331
99
102
}
  0
BLOCK_RECORD
  5
9A
330
1
100
AcDbSymbolTableRecord
100
AcDbBlockTableRecord
  2
Dimension23
340
0
102
{BLKREFS
331
9D
102
}
  0
BLOCK_RECORD
  5
9E
330
1
100
AcDbSymbolTableRecord
100
AcDbBlockTableRecord
  2
Dimension24
340
0
102
{BLKREFS
331
A1
102
}
  0
BLOCK_RECORD
  5
A2
330
1
100
AcDbSymbolTableRecord
100
AcDbBlockTableRecord
  2
Dimension25
340
0
102
{BLKREFS
331
A5
102
}
  0
BLOCK_RECORD
  5
A6
330
1
100
AcDbSymbolTableRecord
100
AcDbBlockTableRecord
  2
Dimension26
340
0
102
{BLKREFS
331
A9
102
}
  0
BLOCK_RECORD
  5
AA
330
1
100
AcDbSymbolTableRecord
100
AcDbBlockTableRecord
  2
Dimension27
340
0
102
{BLKREFS
331
AD
102
}
  0
BLOCK_RECORD
  5
AF
330
1
100
AcDbSymbolTableRecord
100
AcDbBlockTableRecord
  2
Dimension28
340
0
102
{BLKREFS
331
B2
102
}
  0
BLOCK_RECORD
  5
B3
330
1
100
AcDbSymbolTableRecord
100
AcDbBlockTableRecord
  2
Dimension29
340
0
102
{BLKREFS
331
B6
102
}
  0
BLOCK_RECORD
  5
B7
330
1
100
AcDbSymbolTableRecord
100
AcDbBlockTableRecord
  2
Dimension30
340
0
102
{BLKREFS
331
BA
102
}
  0
BLOCK_RECORD
  5
BB
330
1
100
AcDbSymbolTableRecord
100
AcDbBlockTableRecord
  2
Dimension31
340
0
102
{BLKREFS
331
BE
102
}
  0
BLOCK_RECORD
  5
BF
330
1
100
AcDbSymbolTableRecord
100
AcDbBlockTableRecord
  2
Dimension32
340
0
102
{BLKREFS
331
C2
102
}
  0
BLOCK_RECORD
  5
C3
330
1
100
AcDbSymbolTableRecord
100
AcDbBlockTableRecord
  2
Dimension33
340
0
102
{BLKREFS
331
C6
102
}
  0
BLOCK_RECORD
  5
C7
330
1
100
AcDbSymbolTableRecord
100
AcDbBlockTableRecord
  2
Dimension34
340
0
102
{BLKREFS
331
CA
102
}
  0
BLOCK_RECORD
  5
CB
330
1
100
AcDbSymbolTableRecord
100
AcDbBlockTableRecord
  2
Dimension35
340
0
102
{BLKREFS
331
CE
102
}
  0
BLOCK_RECORD
  5
CF
330
1
100
AcDbSymbolTableRecord
100
AcDbBlockTableRecord
  2
Dimension36
340
0
102
{BLKREFS
331
D2
102
}
  0
BLOCK_RECORD
  5
D3
330
1
100
AcDbSymbolTableRecord
100
AcDbBlockTableRecord
  2
Dimension37
340
0
102
{BLKREFS
331
D6
102
}
  0
BLOCK_RECORD
  5
D7
330
1
100
AcDbSymbolTableRecord
100
AcDbBlockTableRecord
  2
Dimension38
340
0
102
{BLKREFS
331
DA
102
}
  0
BLOCK_RECORD
  5
DB
330
1
100
AcDbSymbolTableRecord
100
AcDbBlockTableRecord
  2
Dimension39
340
0
102
{BLKREFS
331
DE
102
}
  0
BLOCK_RECORD
  5
DF
330
1
100
AcDbSymbolTableRecord
100
AcDbBlockTableRecord
  2
Dimension40
340
0
102
{BLKREFS
331
E2
102
}
  0
BLOCK_RECORD
  5
E3
330
1
100
AcDbSymbolTableRecord
100
AcDbBlockTableRecord
  2
Dimension41
340
0
102
{BLKREFS
331
E6
102
}
  0
BLOCK_RECORD
  5
E7
330
1
100
AcDbSymbolTableRecord
100
AcDbBlockTableRecord
  2
Dimension42
340
0
102
{BLKREFS
331
EA
102
}
  0
BLOCK_RECORD
  5
EB
330
1
100
AcDbSymbolTableRecord
100
AcDbBlockTableRecord
  2
Dimension43
340
0
102
{BLKREFS
331
EE
102
}
  0
BLOCK_RECORD
  5
EF
330
1
100
AcDbSymbolTableRecord
100
AcDbBlockTableRecord
  2
Dimension44
340
0
102
{BLKREFS
331
F2
102
}
  0
BLOCK_RECORD
  5
F3
330
1
100
AcDbSymbolTableRecord
100
AcDbBlockTableRecord
  2
Dimension45
340
0
102
{BLKREFS
331
F6
102
}
  0
BLOCK_RECORD
  5
F7
330
1
100
AcDbSymbolTableRecord
100
AcDbBlockTableRecord
  2
Dimension46
340
0
102
{BLKREFS
331
FA
102
}
  0
BLOCK_RECORD
  5
FB
330
1
100
AcDbSymbolTableRecord
100
AcDbBlockTableRecord
  2
Dimension47
340
0
102
{BLKREFS
331
FE
102
}
  0
BLOCK_RECORD
  5
FF
330
1
100
AcDbSymbolTableRecord
100
AcDbBlockTableRecord
  2
Dimension48
340
0
102
{BLKREFS
331
102
102
}
  0
BLOCK_RECORD
  5
103
330
1
100
AcDbSymbolTableRecord
100
AcDbBlockTableRecord
  2
Dimension49
340
0
102
{BLKREFS
331
106
102
}
  0
BLOCK_RECORD
  5
107
330
1
100
AcDbSymbolTableRecord
100
AcDbBlockTableRecord
  2
Dimension50
340
0
102
{BLKREFS
331
10A
102
}
  0
BLOCK_RECORD
  5
10B
330
1
100
AcDbSymbolTableRecord
100
AcDbBlockTableRecord
  2
Dimension51
340
0
102
{BLKREFS
331
10E
102
}
  0
BLOCK_RECORD
  5
10F
330
1
100
AcDbSymbolTableRecord
100
AcDbBlockTableRecord
  2
Dimension52
340
0
102
{BLKREFS
331
112
102
}
  0
BLOCK_RECORD
  5
113
330
1
100
AcDbSymbolTableRecord
100
AcDbBlockTableRecord
  2
Dimension53
340
0
102
{BLKREFS
331
116
102
}
  0
BLOCK_RECORD
  5
117
330
1
100
AcDbSymbolTableRecord
100
AcDbBlockTableRecord
  2
Dimension54
340
0
102
{BLKREFS
331
11A
102
}
  0
BLOCK_RECORD
  5
11C
330
1
100
AcDbSymbolTableRecord
100
AcDbBlockTableRecord
  2
Dimension55
340
0
102
{BLKREFS
331
11F
102
}
  0
BLOCK_RECORD
  5
120
330
1
100
AcDbSymbolTableRecord
100
AcDbBlockTableRecord
  2
Dimension56
340
0
102
{BLKREFS
331
123
102
}
  0
BLOCK_RECORD
  5
124
330
1
100
AcDbSymbolTableRecord
100
AcDbBlockTableRecord
  2
Dimension57
340
0
102
{BLKREFS
331
127
102
}
  0
BLOCK_RECORD
  5
128
330
1
100
AcDbSymbolTableRecord
100
AcDbBlockTableRecord
  2
Dimension58
340
0
102
{BLKREFS
331
12B
102
}
  0
BLOCK_RECORD
  5
12C
330
1
100
AcDbSymbolTableRecord
100
AcDbBlockTableRecord
  2
Dimension59
340
0
102
{BLKREFS
331
12F
102
}
  0
BLOCK_RECORD
  5
130
330
1
100
AcDbSymbolTableRecord
100
AcDbBlockTableRecord
  2
Dimension60
340
0
102
{BLKREFS
331
133
102
}
  0
BLOCK_RECORD
  5
134
330
1
100
AcDbSymbolTableRecord
100
AcDbBlockTableRecord
  2
Dimension61
340
0
102
{BLKREFS
331
137
102
}
  0
BLOCK_RECORD
  5
138
330
1
100
AcDbSymbolTableRecord
100
AcDbBlockTableRecord
  2
Dimension62
340
0
102
{BLKREFS
331
13B
102
}
  0
BLOCK_RECORD
  5
13C
330
1
100
AcDbSymbolTableRecord
100
AcDbBlockTableRecord
  2
Dimension63
340
0
102
{BLKREFS
331
13F
102
}
  0
BLOCK_RECORD
  5
140
330
1
100
AcDbSymbolTableRecord
100
AcDbBlockTableRecord
  2
Dimension64
340
0
102
{BLKREFS
331
143
102
}
  0
BLOCK_RECORD
  5
144
330
1
100
AcDbSymbolTableRecord
100
AcDbBlockTableRecord
  2
Dimension65
340
0
102
{BLKREFS
331
147
102
}
  0
BLOCK_RECORD
  5
148
330
1
100
AcDbSymbolTableRecord
100
AcDbBlockTableRecord
  2
Dimension66
340
0
102
{BLKREFS
331
14B
102
}
  0
BLOCK_RECORD
  5
14C
330
1
100
AcDbSymbolTableRecord
100
AcDbBlockTableRecord
  2
Dimension67
340
0
102
{BLKREFS
331
14F
102
}
  0
BLOCK_RECORD
  5
150
330
1
100
AcDbSymbolTableRecord
100
AcDbBlockTableRecord
  2
Dimension68
340
0
102
{BLKREFS
331
153
102
}
  0
BLOCK_RECORD
  5
154
330
1
100
AcDbSymbolTableRecord
100
AcDbBlockTableRecord
  2
Dimension69
340
0
102
{BLKREFS
331
157
102
}
  0
BLOCK_RECORD
  5
158
330
1
100
AcDbSymbolTableRecord
100
AcDbBlockTableRecord
  2
Dimension70
340
0
102
{BLKREFS
331
15B
102
}
  0
BLOCK_RECORD
  5
15C
330
1
100
AcDbSymbolTableRecord
100
AcDbBlockTableRecord
  2
Dimension71
340
0
102
{BLKREFS
331
15F
102
}
  0
BLOCK_RECORD
  5
160
330
1
100
AcDbSymbolTableRecord
100
AcDbBlockTableRecord
  2
Dimension72
340
0
102
{BLKREFS
331
163
102
}
  0
BLOCK_RECORD
  5
164
330
1
100
AcDbSymbolTableRecord
100
AcDbBlockTableRecord
  2
Dimension73
340
0
102
{BLKREFS
331
167
102
}
  0
BLOCK_RECORD
  5
168
330
1
100
AcDbSymbolTableRecord
100
AcDbBlockTableRecord
  2
Dimension74
340
0
102
{BLKREFS
331
16B
102
}
  0
BLOCK_RECORD
  5
16C
330
1
100
AcDbSymbolTableRecord
100
AcDbBlockTableRecord
  2
Dimension75
340
0
102
{BLKREFS
331
16F
102
}
  0
BLOCK_RECORD
  5
170
330
1
100
AcDbSymbolTableRecord
100
AcDbBlockTableRecord
  2
Dimension76
340
0
102
{BLKREFS
331
173
102
}
  0
BLOCK_RECORD
  5
174
330
1
100
AcDbSymbolTableRecord
100
AcDbBlockTableRecord
  2
Dimension77
340
0
102
{BLKREFS
331
177
102
}
  0
BLOCK_RECORD
  5
178
330
1
100
AcDbSymbolTableRecord
100
AcDbBlockTableRecord
  2
Dimension78
340
0
102
{BLKREFS
331
17B
102
}
  0
BLOCK_RECORD
  5
17C
330
1
100
AcDbSymbolTableRecord
100
AcDbBlockTableRecord
  2
Dimension79
340
0
102
{BLKREFS
331
17F
102
}
  0
BLOCK_RECORD
  5
180
330
1
100
AcDbSymbolTableRecord
100
AcDbBlockTableRecord
  2
Dimension80
340
0
102
{BLKREFS
331
183
102
}
  0
BLOCK_RECORD
  5
184
330
1
100
AcDbSymbolTableRecord
100
AcDbBlockTableRecord
  2
Dimension81
340
0
102
{BLKREFS
331
187
102
}
  0
BLOCK_RECORD
  5
189
330
1
100
AcDbSymbolTableRecord
100
AcDbBlockTableRecord
  2
Dimension82
340
0
102
{BLKREFS
331
18C
102
}
  0
BLOCK_RECORD
  5
18D
330
1
100
AcDbSymbolTableRecord
100
AcDbBlockTableRecord
  2
Dimension83
340
0
102
{BLKREFS
331
190
102
}
  0
BLOCK_RECORD
  5
191
330
1
100
AcDbSymbolTableRecord
100
AcDbBlockTableRecord
  2
Dimension84
340
0
102
{BLKREFS
331
194
102
}
  0
BLOCK_RECORD
  5
195
330
1
100
AcDbSymbolTableRecord
100
AcDbBlockTableRecord
  2
Dimension85
340
0
102
{BLKREFS
331
198
102
}
  0
BLOCK_RECORD
  5
199
330
1
100
AcDbSymbolTableRecord
100
AcDbBlockTableRecord
  2
Dimension86
340
0
102
{BLKREFS
331
19C
102
}
  0
BLOCK_RECORD
  5
19D
330
1
100
AcDbSymbolTableRecord
100
AcDbBlockTableRecord
  2
Dimension87
340
0
102
{BLKREFS
331
1A0
102
}
  0
BLOCK_RECORD
  5
1A1
330
1
100
AcDbSymbolTableRecord
100
AcDbBlockTableRecord
  2
Dimension88
340
0
102
{BLKREFS
331
1A4
102
}
  0
BLOCK_RECORD
  5
1A5
330
1
100
AcDbSymbolTableRecord
100
AcDbBlockTableRecord
  2
Dimension89
340
0
102
{BLKREFS
331
1A8
102
}
  0
BLOCK_RECORD
  5
1A9
330
1
100
AcDbSymbolTableRecord
100
AcDbBlockTableRecord
  2
Dimension90
340
0
102
{BLKREFS
331
1AC
102
}
  0
BLOCK_RECORD
  5
1AD
330
1
100
AcDbSymbolTableRecord
100
AcDbBlockTableRecord
  2
Dimension91
340
0
102
{BLKREFS
331
1B0
102
}
  0
BLOCK_RECORD
  5
1B1
330
1
100
AcDbSymbolTableRecord
100
AcDbBlockTableRecord
  2
Dimension92
340
0
102
{BLKREFS
331
1B4
102
}
  0
BLOCK_RECORD
  5
1B5
330
1
100
AcDbSymbolTableRecord
100
AcDbBlockTableRecord
  2
Dimension93
340
0
102
{BLKREFS
331
1B8
102
}
  0
BLOCK_RECORD
  5
1B9
330
1
100
AcDbSymbolTableRecord
100
AcDbBlockTableRecord
  2
Dimension94
340
0
102
{BLKREFS
331
1BC
102
}
  0
BLOCK_RECORD
  5
1BD
330
1
100
AcDbSymbolTableRecord
100
AcDbBlockTableRecord
  2
Dimension95
340
0
102
{BLKREFS
331
1C0
102
}
  0
BLOCK_RECORD
  5
1C1
330
1
100
AcDbSymbolTableRecord
100
AcDbBlockTableRecord
  2
Dimension96
340
0
102
{BLKREFS
331
1C4
102
}
  0
BLOCK_RECORD
  5
1C5
330
1
100
AcDbSymbolTableRecord
100
AcDbBlockTableRecord
  2
Dimension97
340
0
102
{BLKREFS
331
1C8
102
}
  0
BLOCK_RECORD
  5
1C9
330
1
100
AcDbSymbolTableRecord
100
AcDbBlockTableRecord
  2
Dimension98
340
0
102
{BLKREFS
331
1CC
102
}
  0
BLOCK_RECORD
  5
1CD
330
1
100
AcDbSymbolTableRecord
100
AcDbBlockTableRecord
  2
Dimension99
340
0
102
{BLKREFS
331
1D0
102
}
  0
BLOCK_RECORD
  5
1D1
330
1
100
AcDbSymbolTableRecord
100
AcDbBlockTableRecord
  2
Dimension100
340
0
102
{BLKREFS
331
1D4
102
}
  0
BLOCK_RECORD
  5
1D5
330
1
100
AcDbSymbolTableRecord
100
AcDbBlockTableRecord
  2
Dimension101
340
0
102
{BLKREFS
331
1D8
102
}
  0
BLOCK_RECORD
  5
1D9
330
1
100
AcDbSymbolTableRecord
100
AcDbBlockTableRecord
  2
Dimension102
340
0
102
{BLKREFS
331
1DC
102
}
  0
BLOCK_RECORD
  5
1DD
330
1
100
AcDbSymbolTableRecord
100
AcDbBlockTableRecord
  2
Dimension103
340
0
102
{BLKREFS
331
1E0
102
}
  0
BLOCK_RECORD
  5
1E1
330
1
100
AcDbSymbolTableRecord
100
AcDbBlockTableRecord
  2
Dimension104
340
0
102
{BLKREFS
331
1E4
102
}
  0
BLOCK_RECORD
  5
1E5
330
1
100
AcDbSymbolTableRecord
100
AcDbBlockTableRecord
  2
Dimension105
340
0
102
{BLKREFS
331
1E8
102
}
  0
BLOCK_RECORD
  5
1E9
330
1
100
AcDbSymbolTableRecord
100
AcDbBlockTableRecord
  2
Dimension106
340
0
102
{BLKREFS
331
1EC
102
}
  0
BLOCK_RECORD
  5
1ED
330
1
100
AcDbSymbolTableRecord
100
AcDbBlockTableRecord
  2
Dimension107
340
0
102
{BLKREFS
331
1F0
102
}
  0
BLOCK_RECORD
  5
1F1
330
1
100
AcDbSymbolTableRecord
100
AcDbBlockTableRecord
  2
Dimension108
340
0
102
{BLKREFS
331
1F4
102
}
  0
BLOCK_RECORD
  5
1F6
330
1
100
AcDbSymbolTableRecord
100
AcDbBlockTableRecord
  2
Dimension109
340
0
102
{BLKREFS
331
1F9
102
}
  0
BLOCK_RECORD
  5
1FA
330
1
100
AcDbSymbolTableRecord
100
AcDbBlockTableRecord
  2
Dimension110
340
0
102
{BLKREFS
331
1FD
102
}
  0
BLOCK_RECORD
  5
1FE
330
1
100
AcDbSymbolTableRecord
100
AcDbBlockTableRecord
  2
Dimension111
340
0
102
{BLKREFS
331
201
102
}
  0
BLOCK_RECORD
  5
202
330
1
100
AcDbSymbolTableRecord
100
AcDbBlockTableRecord
  2
Dimension112
340
0
102
{BLKREFS
331
205
102
}
  0
BLOCK_RECORD
  5
206
330
1
100
AcDbSymbolTableRecord
100
AcDbBlockTableRecord
  2
Dimension113
340
0
102
{BLKREFS
331
209
102
}
  0
BLOCK_RECORD
  5
20A
330
1
100
AcDbSymbolTableRecord
100
AcDbBlockTableRecord
  2
Dimension114
340
0
102
{BLKREFS
331
20D
102
}
  0
BLOCK_RECORD
  5
20E
330
1
100
AcDbSymbolTableRecord
100
AcDbBlockTableRecord
  2
Dimension115
340
0
102
{BLKREFS
331
211
102
}
  0
BLOCK_RECORD
  5
212
330
1
100
AcDbSymbolTableRecord
100
AcDbBlockTableRecord
  2
Dimension116
340
0
102
{BLKREFS
331
215
102
}
  0
BLOCK_RECORD
  5
216
330
1
100
AcDbSymbolTableRecord
100
AcDbBlockTableRecord
  2
Dimension117
340
0
102
{BLKREFS
331
219
102
}
  0
BLOCK_RECORD
  5
21A
330
1
100
AcDbSymbolTableRecord
100
AcDbBlockTableRecord
  2
Dimension118
340
0
102
{BLKREFS
331
21D
102
}
  0
BLOCK_RECORD
  5
21E
330
1
100
AcDbSymbolTableRecord
100
AcDbBlockTableRecord
  2
Dimension119
340
0
102
{BLKREFS
331
221
102
}
  0
BLOCK_RECORD
  5
222
330
1
100
AcDbSymbolTableRecord
100
AcDbBlockTableRecord
  2
Dimension120
340
0
102
{BLKREFS
331
225
102
}
  0
BLOCK_RECORD
  5
226
330
1
100
AcDbSymbolTableRecord
100
AcDbBlockTableRecord
  2
Dimension121
340
0
102
{BLKREFS
331
229
102
}
  0
BLOCK_RECORD
  5
22A
330
1
100
AcDbSymbolTableRecord
100
AcDbBlockTableRecord
  2
Dimension122
340
0
102
{BLKREFS
331
22D
102
}
  0
BLOCK_RECORD
  5
22E
330
1
100
AcDbSymbolTableRecord
100
AcDbBlockTableRecord
  2
Dimension123
340
0
102
{BLKREFS
331
231
102
}
  0
BLOCK_RECORD
  5
232
330
1
100
AcDbSymbolTableRecord
100
AcDbBlockTableRecord
  2
Dimension124
340
0
102
{BLKREFS
331
235
102
}
  0
BLOCK_RECORD
  5
236
330
1
100
AcDbSymbolTableRecord
100
AcDbBlockTableRecord
  2
Dimension125
340
0
102
{BLKREFS
331
239
102
}
  0
BLOCK_RECORD
  5
23A
330
1
100
AcDbSymbolTableRecord
100
AcDbBlockTableRecord
  2
Dimension126
340
0
102
{BLKREFS
331
23D
102
}
  0
BLOCK_RECORD
  5
23E
330
1
100
AcDbSymbolTableRecord
100
AcDbBlockTableRecord
  2
Dimension127
340
0
102
{BLKREFS
331
241
102
}
  0
BLOCK_RECORD
  5
242
330
1
100
AcDbSymbolTableRecord
100
AcDbBlockTableRecord
  2
Dimension128
340
0
102
{BLKREFS
331
245
102
}
  0
BLOCK_RECORD
  5
246
330
1
100
AcDbSymbolTableRecord
100
AcDbBlockTableRecord
  2
Dimension129
340
0
102
{BLKREFS
331
249
102
}
  0
BLOCK_RECORD
  5
24A
330
1
100
AcDbSymbolTableRecord
100
AcDbBlockTableRecord
  2
Dimension130
340
0
102
{BLKREFS
331
24D
102
}
  0
BLOCK_RECORD
  5
24E
330
1
100
AcDbSymbolTableRecord
100
AcDbBlockTableRecord
  2
Dimension131
340
0
102
{BLKREFS
331
251
102
}
  0
BLOCK_RECORD
  5
252
330
1
100
AcDbSymbolTableRecord
100
AcDbBlockTableRecord
  2
Dimension132
340
0
102
{BLKREFS
331
255
102
}
  0
BLOCK_RECORD
  5
256
330
1
100
AcDbSymbolTableRecord
100
AcDbBlockTableRecord
  2
Dimension133
340
0
102
{BLKREFS
331
259
102
}
  0
BLOCK_RECORD
  5
25A
330
1
100
AcDbSymbolTableRecord
100
AcDbBlockTableRecord
  2
Dimension134
340
0
102
{BLKREFS
331
25D
102
}
  0
BLOCK_RECORD
  5
25E
330
1
100
AcDbSymbolTableRecord
100
AcDbBlockTableRecord
  2
Dimension135
340
0
102
{BLKREFS
331
261
102
}
  0
BLOCK_RECORD
  5
263
330
1
100
AcDbSymbolTableRecord
100
AcDbBlockTableRecord
  2
Dimension136
340
0
102
{BLKREFS
331
266
102
}
  0
BLOCK_RECORD
  5
267
330
1
100
AcDbSymbolTableRecord
100
AcDbBlockTableRecord
  2
Dimension137
340
0
102
{BLKREFS
331
26A
102
}
  0
BLOCK_RECORD
  5
26B
330
1
100
AcDbSymbolTableRecord
100
AcDbBlockTableRecord
  2
Dimension138
340
0
102
{BLKREFS
331
26E
102
}
  0
BLOCK_RECORD
  5
26F
330
1
100
AcDbSymbolTableRecord
100
AcDbBlockTableRecord
  2
Dimension139
340
0
102
{BLKREFS
331
272
102
}
  0
BLOCK_RECORD
  5
273
330
1
100
AcDbSymbolTableRecord
100
AcDbBlockTableRecord
  2
Dimension140
340
0
102
{BLKREFS
331
276
102
}
  0
BLOCK_RECORD
  5
277
330
1
100
AcDbSymbolTableRecord
100
AcDbBlockTableRecord
  2
Dimension141
340
0
102
{BLKREFS
331
27A
102
}
  0
BLOCK_RECORD
  5
27B
330
1
100
AcDbSymbolTableRecord
100
AcDbBlockTableRecord
  2
Dimension142
340
0
102
{BLKREFS
331
27E
102
}
  0
BLOCK_RECORD
  5
27F
330
1
100
AcDbSymbolTableRecord
100
AcDbBlockTableRecord
  2
Dimension143
340
0
102
{BLKREFS
331
282
102
}
  0
BLOCK_RECORD
  5
283
330
1
100
AcDbSymbolTableRecord
100
AcDbBlockTableRecord
  2
Dimension144
340
0
102
{BLKREFS
331
286
102
}
  0
BLOCK_RECORD
  5
287
330
1
100
AcDbSymbolTableRecord
100
AcDbBlockTableRecord
  2
Dimension145
340
0
102
{BLKREFS
331
28A
102
}
  0
BLOCK_RECORD
  5
28B
330
1
100
AcDbSymbolTableRecord
100
AcDbBlockTableRecord
  2
Dimension146
340
0
102
{BLKREFS
331
28E
102
}
  0
BLOCK_RECORD
  5
28F
330
1
100
AcDbSymbolTableRecord
100
AcDbBlockTableRecord
  2
Dimension147
340
0
102
{BLKREFS
331
292
102
}
  0
BLOCK_RECORD
  5
293
330
1
100
AcDbSymbolTableRecord
100
AcDbBlockTableRecord
  2
Dimension148
340
0
102
{BLKREFS
331
296
102
}
  0
BLOCK_RECORD
  5
297
330
1
100
AcDbSymbolTableRecord
100
AcDbBlockTableRecord
  2
Dimension149
340
0
102
{BLKREFS
331
29A
102
}
  0
BLOCK_RECORD
  5
29B
330
1
100
AcDbSymbolTableRecord
100
AcDbBlockTableRecord
  2
Dimension150
340
0
102
{BLKREFS
331
29E
102
}
  0
BLOCK_RECORD
  5
29F
330
1
100
AcDbSymbolTableRecord
100
AcDbBlockTableRecord
  2
Dimension151
340
0
102
{BLKREFS
331
2A2
102
}
  0
BLOCK_RECORD
  5
2A3
330
1
100
AcDbSymbolTableRecord
100
AcDbBlockTableRecord
  2
Dimension152
340
0
102
{BLKREFS
331
2A6
102
}
  0
BLOCK_RECORD
  5
2A7
330
1
100
AcDbSymbolTableRecord
100
AcDbBlockTableRecord
  2
Dimension153
340
0
102
{BLKREFS
331
2AA
102
}
  0
BLOCK_RECORD
  5
2AB
330
1
100
AcDbSymbolTableRecord
100
AcDbBlockTableRecord
  2
Dimension154
340
0
102
{BLKREFS
331
2AE
102
}
  0
BLOCK_RECORD
  5
2AF
330
1
100
AcDbSymbolTableRecord
100
AcDbBlockTableRecord
  2
Dimension155
340
0
102
{BLKREFS
331
2B2
102
}
  0
BLOCK_RECORD
  5
2B3
330
1
100
AcDbSymbolTableRecord
100
AcDbBlockTableRecord
  2
Dimension156
340
0
102
{BLKREFS
331
2B6
102
}
  0
BLOCK_RECORD
  5
2B7
330
1
100
AcDbSymbolTableRecord
100
AcDbBlockTableRecord
  2
Dimension157
340
0
102
{BLKREFS
331
2BA
102
}
  0
BLOCK_RECORD
  5
2BB
330
1
100
AcDbSymbolTableRecord
100
AcDbBlockTableRecord
  2
Dimension158
340
0
102
{BLKREFS
331
2BE
102
}
  0
BLOCK_RECORD
  5
2BF
330
1
100
AcDbSymbolTableRecord
100
AcDbBlockTableRecord
  2
Dimension159
340
0
102
{BLKREFS
331
2C2
102
}
  0
BLOCK_RECORD
  5
2C3
330
1
100
AcDbSymbolTableRecord
100
AcDbBlockTableRecord
  2
Dimension160
340
0
102
{BLKREFS
331
2C6
102
}
  0
BLOCK_RECORD
  5
2C7
330
1
100
AcDbSymbolTableRecord
100
AcDbBlockTableRecord
  2
Dimension161
340
0
102
{BLKREFS
331
2CA
102
}
  0
BLOCK_RECORD
  5
2CB
330
1
100
AcDbSymbolTableRecord
100
AcDbBlockTableRecord
  2
Dimension162
340
0
102
{BLKREFS
331
2CE
102
}
  0
BLOCK_RECORD
  5
2D0
330
1
100
AcDbSymbolTableRecord
100
AcDbBlockTableRecord
  2
Dimension163
340
0
102
{BLKREFS
331
2D3
102
}
  0
BLOCK_RECORD
  5
2D4
330
1
100
AcDbSymbolTableRecord
100
AcDbBlockTableRecord
  2
Dimension164
340
0
102
{BLKREFS
331
2D7
102
}
  0
BLOCK_RECORD
  5
2D8
330
1
100
AcDbSymbolTableRecord
100
AcDbBlockTableRecord
  2
Dimension165
340
0
102
{BLKREFS
331
2DB
102
}
  0
BLOCK_RECORD
  5
2DC
330
1
100
AcDbSymbolTableRecord
100
AcDbBlockTableRecord
  2
Dimension166
340
0
102
{BLKREFS
331
2DF
102
}
  0
BLOCK_RECORD
  5
2E0
330
1
100
AcDbSymbolTableRecord
100
AcDbBlockTableRecord
  2
Dimension167
340
0
102
{BLKREFS
331
2E3
102
}
  0
BLOCK_RECORD
  5
2E4
330
1
100
AcDbSymbolTableRecord
100
AcDbBlockTableRecord
  2
Dimension168
340
0
102
{BLKREFS
331
2E7
102
}
  0
BLOCK_RECORD
  5
2E8
330
1
100
AcDbSymbolTableRecord
100
AcDbBlockTableRecord
  2
Dimension169
340
0
102
{BLKREFS
331
2EB
102
}
  0
BLOCK_RECORD
  5
2EC
330
1
100
AcDbSymbolTableRecord
100
AcDbBlockTableRecord
  2
Dimension170
340
0
102
{BLKREFS
331
2EF
102
}
  0
BLOCK_RECORD
  5
2F0
330
1
100
AcDbSymbolTableRecord
100
AcDbBlockTableRecord
  2
Dimension171
340
0
102
{BLKREFS
331
2F3
102
}
  0
BLOCK_RECORD
  5
2F4
330
1
100
AcDbSymbolTableRecord
100
AcDbBlockTableRecord
  2
Dimension172
340
0
102
{BLKREFS
331
2F7
102
}
  0
BLOCK_RECORD
  5
2F8
330
1
100
AcDbSymbolTableRecord
100
AcDbBlockTableRecord
  2
Dimension173
340
0
102
{BLKREFS
331
2FB
102
}
  0
BLOCK_RECORD
  5
2FC
330
1
100
AcDbSymbolTableRecord
100
AcDbBlockTableRecord
  2
Dimension174
340
0
102
{BLKREFS
331
2FF
102
}
  0
BLOCK_RECORD
  5
300
330
1
100
AcDbSymbolTableRecord
100
AcDbBlockTableRecord
  2
Dimension175
340
0
102
{BLKREFS
331
303
102
}
  0
BLOCK_RECORD
  5
304
330
1
100
AcDbSymbolTableRecord
100
AcDbBlockTableRecord
  2
Dimension176
340
0
102
{BLKREFS
331
307
102
}
  0
BLOCK_RECORD
  5
308
330
1
100
AcDbSymbolTableRecord
100
AcDbBlockTableRecord
  2
Dimension177
340
0
102
{BLKREFS
331
30B
102
}
  0
BLOCK_RECORD
  5
30C
330
1
100
AcDbSymbolTableRecord
100
AcDbBlockTableRecord
  2
Dimension178
340
0
102
{BLKREFS
331
30F
102
}
  0
BLOCK_RECORD
  5
310
330
1
100
AcDbSymbolTableRecord
100
AcDbBlockTableRecord
  2
Dimension179
340
0
102
{BLKREFS
331
313
102
}
  0
BLOCK_RECORD
  5
314
330
1
100
AcDbSymbolTableRecord
100
AcDbBlockTableRecord
  2
Dimension180
340
0
102
{BLKREFS
331
317
102
}
  0
BLOCK_RECORD
  5
318
330
1
100
AcDbSymbolTableRecord
100
AcDbBlockTableRecord
  2
Dimension181
340
0
102
{BLKREFS
331
31B
102
}
  0
BLOCK_RECORD
  5
31C
330
1
100
AcDbSymbolTableRecord
100
AcDbBlockTableRecord
  2
Dimension182
340
0
102
{BLKREFS
331
31F
102
}
  0
BLOCK_RECORD
  5
320
330
1
100
AcDbSymbolTableRecord
100
AcDbBlockTableRecord
  2
Dimension183
340
0
102
{BLKREFS
331
323
102
}
  0
BLOCK_RECORD
  5
324
330
1
100
AcDbSymbolTableRecord
100
AcDbBlockTableRecord
  2
Dimension184
340
0
102
{BLKREFS
331
327
102
}
  0
BLOCK_RECORD
  5
328
330
1
100
AcDbSymbolTableRecord
100
AcDbBlockTableRecord
  2
Dimension185
340
0
102
{BLKREFS
331
32B
102
}
  0
BLOCK_RECORD
  5
32C
330
1
100
AcDbSymbolTableRecord
100
AcDbBlockTableRecord
  2
Dimension186
340
0
102
{BLKREFS
331
32F
102
}
  0
BLOCK_RECORD
  5
330
330
1
100
AcDbSymbolTableRecord
100
AcDbBlockTableRecord
  2
Dimension187
340
0
102
{BLKREFS
331
333
102
}
  0
BLOCK_RECORD
  5
334
330
1
100
AcDbSymbolTableRecord
100
AcDbBlockTableRecord
  2
Dimension188
340
0
102
{BLKREFS
331
337
102
}
  0
BLOCK_RECORD
  5
338
330
1
100
AcDbSymbolTableRecord
100
AcDbBlockTableRecord
  2
Dimension189
340
0
102
{BLKREFS
331
33B
102
}
  0
BLOCK_RECORD
  5
33D
330
1
100
AcDbSymbolTableRecord
100
AcDbBlockTableRecord
  2
Dimension190
340
0
102
{BLKREFS
331
340
102
}
  0
BLOCK_RECORD
  5
341
330
1
100
AcDbSymbolTableRecord
100
AcDbBlockTableRecord
  2
Dimension191
340
0
102
{BLKREFS
331
344
102
}
  0
BLOCK_RECORD
  5
345
330
1
100
AcDbSymbolTableRecord
100
AcDbBlockTableRecord
  2
Dimension192
340
0
102
{BLKREFS
331
348
102
}
  0
BLOCK_RECORD
  5
349
330
1
100
AcDbSymbolTableRecord
100
AcDbBlockTableRecord
  2
Dimension193
340
0
102
{BLKREFS
331
34C
102
}
  0
BLOCK_RECORD
  5
34D
330
1
100
AcDbSymbolTableRecord
100
AcDbBlockTableRecord
  2
Dimension194
340
0
102
{BLKREFS
331
350
102
}
  0
BLOCK_RECORD
  5
351
330
1
100
AcDbSymbolTableRecord
100
AcDbBlockTableRecord
  2
Dimension195
340
0
102
{BLKREFS
331
354
102
}
  0
BLOCK_RECORD
  5
355
330
1
100
AcDbSymbolTableRecord
100
AcDbBlockTableRecord
  2
Dimension196
340
0
102
{BLKREFS
331
358
102
}
  0
BLOCK_RECORD
  5
359
330
1
100
AcDbSymbolTableRecord
100
AcDbBlockTableRecord
  2
Dimension197
340
0
102
{BLKREFS
331
35C
102
}
  0
BLOCK_RECORD
  5
35D
330
1
100
AcDbSymbolTableRecord
100
AcDbBlockTableRecord
  2
Dimension198
340
0
102
{BLKREFS
331
360
102
}
  0
BLOCK_RECORD
  5
361
330
1
100
AcDbSymbolTableRecord
100
AcDbBlockTableRecord
  2
Dimension199
340
0
102
{BLKREFS
331
364
102
}
  0
BLOCK_RECORD
  5
365
330
1
100
AcDbSymbolTableRecord
100
AcDbBlockTableRecord
  2
Dimension200
340
0
102
{BLKREFS
331
368
102
}
  0
BLOCK_RECORD
  5
369
330
1
100
AcDbSymbolTableRecord
100
AcDbBlockTableRecord
  2
Dimension201
340
0
102
{BLKREFS
331
36C
102
}
  0
BLOCK_RECORD
  5
36D
330
1
100
AcDbSymbolTableRecord
100
AcDbBlockTableRecord
  2
Dimension202
340
0
102
{BLKREFS
331
370
102
}
  0
BLOCK_RECORD
  5
371
330
1
100
AcDbSymbolTableRecord
100
AcDbBlockTableRecord
  2
Dimension203
340
0
102
{BLKREFS
331
374
102
}
  0
BLOCK_RECORD
  5
375
330
1
100
AcDbSymbolTableRecord
100
AcDbBlockTableRecord
  2
Dimension204
340
0
102
{BLKREFS
331
378
102
}
  0
BLOCK_RECORD
  5
379
330
1
100
AcDbSymbolTableRecord
100
AcDbBlockTableRecord
  2
Dimension205
340
0
102
{BLKREFS
331
37C
102
}
  0
BLOCK_RECORD
  5
37D
330
1
100
AcDbSymbolTableRecord
100
AcDbBlockTableRecord
  2
Dimension206
340
0
102
{BLKREFS
331
380
102
}
  0
BLOCK_RECORD
  5
381
330
1
100
AcDbSymbolTableRecord
100
AcDbBlockTableRecord
  2
Dimension207
340
0
102
{BLKREFS
331
384
102
}
  0
BLOCK_RECORD
  5
385
330
1
100
AcDbSymbolTableRecord
100
AcDbBlockTableRecord
  2
Dimension208
340
0
102
{BLKREFS
331
388
102
}
  0
BLOCK_RECORD
  5
389
330
1
100
AcDbSymbolTableRecord
100
AcDbBlockTableRecord
  2
Dimension209
340
0
102
{BLKREFS
331
38C
102
}
  0
BLOCK_RECORD
  5
38D
330
1
100
AcDbSymbolTableRecord
100
AcDbBlockTableRecord
  2
Dimension210
340
0
102
{BLKREFS
331
390
102
}
  0
BLOCK_RECORD
  5
391
330
1
100
AcDbSymbolTableRecord
100
AcDbBlockTableRecord
  2
Dimension211
340
0
102
{BLKREFS
331
394
102
}
  0
BLOCK_RECORD
  5
395
330
1
100
AcDbSymbolTableRecord
100
AcDbBlockTableRecord
  2
Dimension212
340
0
102
{BLKREFS
331
398
102
}
  0
BLOCK_RECORD
  5
399
330
1
100
AcDbSymbolTableRecord
100
AcDbBlockTableRecord
  2
Dimension213
340
0
102
{BLKREFS
331
39C
102
}
  0
BLOCK_RECORD
  5
39D
330
1
100
AcDbSymbolTableRecord
100
AcDbBlockTableRecord
  2
Dimension214
340
0
102
{BLKREFS
331
3A0
102
}
  0
BLOCK_RECORD
  5
3A1
330
1
100
AcDbSymbolTableRecord
100
AcDbBlockTableRecord
  2
Dimension215
340
0
102
{BLKREFS
331
3A4
102
}
  0
BLOCK_RECORD
  5
3A5
330
1
100
AcDbSymbolTableRecord
100
AcDbBlockTableRecord
  2
Dimension216
340
0
102
{BLKREFS
331
3A8
102
}
  0
BLOCK_RECORD
  5
3AA
330
1
100
AcDbSymbolTableRecord
100
AcDbBlockTableRecord
  2
Dimension217
340
0
102
{BLKREFS
331
3AD
102
}
  0
BLOCK_RECORD
  5
3AE
330
1
100
AcDbSymbolTableRecord
100
AcDbBlockTableRecord
  2
Dimension218
340
0
102
{BLKREFS
331
3B1
102
}
  0
BLOCK_RECORD
  5
3B2
330
1
100
AcDbSymbolTableRecord
100
AcDbBlockTableRecord
  2
Dimension219
340
0
102
{BLKREFS
331
3B5
102
}
  0
BLOCK_RECORD
  5
3B6
330
1
100
AcDbSymbolTableRecord
100
AcDbBlockTableRecord
  2
Dimension220
340
0
102
{BLKREFS
331
3B9
102
}
  0
BLOCK_RECORD
  5
3BA
330
1
100
AcDbSymbolTableRecord
100
AcDbBlockTableRecord
  2
Dimension221
340
0
102
{BLKREFS
331
3BD
102
}
  0
BLOCK_RECORD
  5
3BE
330
1
100
AcDbSymbolTableRecord
100
AcDbBlockTableRecord
  2
Dimension222
340
0
102
{BLKREFS
331
3C1
102
}
  0
BLOCK_RECORD
  5
3C2
330
1
100
AcDbSymbolTableRecord
100
AcDbBlockTableRecord
  2
Dimension223
340
0
102
{BLKREFS
331
3C5
102
}
  0
BLOCK_RECORD
  5
3C6
330
1
100
AcDbSymbolTableRecord
100
AcDbBlockTableRecord
  2
Dimension224
340
0
102
{BLKREFS
331
3C9
102
}
  0
BLOCK_RECORD
  5
3CA
330
1
100
AcDbSymbolTableRecord
100
AcDbBlockTableRecord
  2
Dimension225
340
0
102
{BLKREFS
331
3CD
102
}
  0
BLOCK_RECORD
  5
3CE
330
1
100
AcDbSymbolTableRecord
100
AcDbBlockTableRecord
  2
Dimension226
340
0
102
{BLKREFS
331
3D1
102
}
  0
BLOCK_RECORD
  5
3D2
330
1
100
AcDbSymbolTableRecord
100
AcDbBlockTableRecord
  2
Dimension227
340
0
102
{BLKREFS
331
3D5
102
}
  0
BLOCK_RECORD
  5
3D6
330
1
100
AcDbSymbolTableRecord
100
AcDbBlockTableRecord
  2
Dimension228
340
0
102
{BLKREFS
331
3D9
102
}
  0
BLOCK_RECORD
  5
3DA
330
1
100
AcDbSymbolTableRecord
100
AcDbBlockTableRecord
  2
Dimension229
340
0
102
{BLKREFS
331
3DD
102
}
  0
BLOCK_RECORD
  5
3DE
330
1
100
AcDbSymbolTableRecord
100
AcDbBlockTableRecord
  2
Dimension230
340
0
102
{BLKREFS
331
3E1
102
}
  0
BLOCK_RECORD
  5
3E2
330
1
100
AcDbSymbolTableRecord
100
AcDbBlockTableRecord
  2
Dimension231
340
0
102
{BLKREFS
331
3E5
102
}
  0
BLOCK_RECORD
  5
3E6
330
1
100
AcDbSymbolTableRecord
100
AcDbBlockTableRecord
  2
Dimension232
340
0
102
{BLKREFS
331
3E9
102
}
  0
BLOCK_RECORD
  5
3EA
330
1
100
AcDbSymbolTableRecord
100
AcDbBlockTableRecord
  2
Dimension233
340
0
102
{BLKREFS
331
3ED
102
}
  0
BLOCK_RECORD
  5
3EE
330
1
100
AcDbSymbolTableRecord
100
AcDbBlockTableRecord
  2
Dimension234
340
0
102
{BLKREFS
331
3F1
102
}
  0
BLOCK_RECORD
  5
3F2
330
1
100
AcDbSymbolTableRecord
100
AcDbBlockTableRecord
  2
Dimension235
340
0
102
{BLKREFS
331
3F5
102
}
  0
BLOCK_RECORD
  5
3F6
330
1
100
AcDbSymbolTableRecord
100
AcDbBlockTableRecord
  2
Dimension236
340
0
102
{BLKREFS
331
3F9
102
}
  0
BLOCK_RECORD
  5
3FA
330
1
100
AcDbSymbolTableRecord
100
AcDbBlockTableRecord
  2
Dimension237
340
0
102
{BLKREFS
331
3FD
102
}
  0
BLOCK_RECORD
  5
3FE
330
1
100
AcDbSymbolTableRecord
100
AcDbBlockTableRecord
  2
Dimension238
340
0
102
{BLKREFS
331
401
102
}
  0
BLOCK_RECORD
  5
402
330
1
100
AcDbSymbolTableRecord
100
AcDbBlockTableRecord
  2
Dimension239
340
0
102
{BLKREFS
331
405
102
}
  0
BLOCK_RECORD
  5
406
330
1
100
AcDbSymbolTableRecord
100
AcDbBlockTableRecord
  2
Dimension240
340
0
102
{BLKREFS
331
409
102
}
  0
BLOCK_RECORD
  5
40A
330
1
100
AcDbSymbolTableRecord
100
AcDbBlockTableRecord
  2
Dimension241
340
0
102
{BLKREFS
331
40D
102
}
  0
BLOCK_RECORD
  5
40E
330
1
100
AcDbSymbolTableRecord
100
AcDbBlockTableRecord
  2
Dimension242
340
0
102
{BLKREFS
331
411
102
}
  0
BLOCK_RECORD
  5
412
330
1
100
AcDbSymbolTableRecord
100
AcDbBlockTableRecord
  2
Dimension243
340
0
102
{BLKREFS
331
415
102
}
  0
BLOCK_RECORD
  5
417
330
1
100
AcDbSymbolTableRecord
100
AcDbBlockTableRecord
  2
Dimension244
340
0
102
{BLKREFS
331
41A
102
}
  0
BLOCK_RECORD
  5
41B
330
1
100
AcDbSymbolTableRecord
100
AcDbBlockTableRecord
  2
Dimension245
340
0
102
{BLKREFS
331
41E
102
}
  0
BLOCK_RECORD
  5
41F
330
1
100
AcDbSymbolTableRecord
100
AcDbBlockTableRecord
  2
Dimension246
340
0
102
{BLKREFS
331
422
102
}
  0
BLOCK_RECORD
  5
423
330
1
100
AcDbSymbolTableRecord
100
AcDbBlockTableRecord
  2
Dimension247
340
0
102
{BLKREFS
331
426
102
}
  0
BLOCK_RECORD
  5
427
330
1
100
AcDbSymbolTableRecord
100
AcDbBlockTableRecord
  2
Dimension248
340
0
102
{BLKREFS
331
42A
102
}
  0
BLOCK_RECORD
  5
42B
330
1
100
AcDbSymbolTableRecord
100
AcDbBlockTableRecord
  2
Dimension249
340
0
102
{BLKREFS
331
42E
102
}
  0
BLOCK_RECORD
  5
42F
330
1
100
AcDbSymbolTableRecord
100
AcDbBlockTableRecord
  2
Dimension250
340
0
102
{BLKREFS
331
432
102
}
  0
BLOCK_RECORD
  5
433
330
1
100
AcDbSymbolTableRecord
100
AcDbBlockTableRecord
  2
Dimension251
340
0
102
{BLKREFS
331
436
102
}
  0
BLOCK_RECORD
  5
437
330
1
100
AcDbSymbolTableRecord
100
AcDbBlockTableRecord
  2
Dimension252
340
0
102
{BLKREFS
331
43A
102
}
  0
BLOCK_RECORD
  5
43B
330
1
100
AcDbSymbolTableRecord
100
AcDbBlockTableRecord
  2
Dimension253
340
0
102
{BLKREFS
331
43E
102
}
  0
BLOCK_RECORD
  5
43F
330
1
100
AcDbSymbolTableRecord
100
AcDbBlockTableRecord
  2
Dimension254
340
0
102
{BLKREFS
331
442
102
}
  0
BLOCK_RECORD
  5
443
330
1
100
AcDbSymbolTableRecord
100
AcDbBlockTableRecord
  2
Dimension255
340
0
102
{BLKREFS
331
446
102
}
  0
BLOCK_RECORD
  5
447
330
1
100
AcDbSymbolTableRecord
100
AcDbBlockTableRecord
  2
Dimension256
340
0
102
{BLKREFS
331
44A
102
}
  0
BLOCK_RECORD
  5
44B
330
1
100
AcDbSymbolTableRecord
100
AcDbBlockTableRecord
  2
Dimension257
340
0
102
{BLKREFS
331
44E
102
}
  0
BLOCK_RECORD
  5
44F
330
1
100
AcDbSymbolTableRecord
100
AcDbBlockTableRecord
  2
Dimension258
340
0
102
{BLKREFS
331
452
102
}
  0
BLOCK_RECORD
  5
453
330
1
100
AcDbSymbolTableRecord
100
AcDbBlockTableRecord
  2
Dimension259
340
0
102
{BLKREFS
331
456
102
}
  0
BLOCK_RECORD
  5
457
330
1
100
AcDbSymbolTableRecord
100
AcDbBlockTableRecord
  2
Dimension260
340
0
102
{BLKREFS
331
45A
102
}
  0
BLOCK_RECORD
  5
45B
330
1
100
AcDbSymbolTableRecord
100
AcDbBlockTableRecord
  2
Dimension261
340
0
102
{BLKREFS
331
45E
102
}
  0
BLOCK_RECORD
  5
45F
330
1
100
AcDbSymbolTableRecord
100
AcDbBlockTableRecord
  2
Dimension262
340
0
102
{BLKREFS
331
462
102
}
  0
BLOCK_RECORD
  5
463
330
1
100
AcDbSymbolTableRecord
100
AcDbBlockTableRecord
  2
Dimension263
340
0
102
{BLKREFS
331
466
102
}
  0
BLOCK_RECORD
  5
467
330
1
100
AcDbSymbolTableRecord
100
AcDbBlockTableRecord
  2
Dimension264
340
0
102
{BLKREFS
331
46A
102
}
  0
BLOCK_RECORD
  5
46B
330
1
100
AcDbSymbolTableRecord
100
AcDbBlockTableRecord
  2
Dimension265
340
0
102
{BLKREFS
331
46E
102
}
  0
BLOCK_RECORD
  5
46F
330
1
100
AcDbSymbolTableRecord
100
AcDbBlockTableRecord
  2
Dimension266
340
0
102
{BLKREFS
331
472
102
}
  0
BLOCK_RECORD
  5
473
330
1
100
AcDbSymbolTableRecord
100
AcDbBlockTableRecord
  2
Dimension267
340
0
102
{BLKREFS
331
476
102
}
  0
BLOCK_RECORD
  5
477
330
1
100
AcDbSymbolTableRecord
100
AcDbBlockTableRecord
  2
Dimension268
340
0
102
{BLKREFS
331
47A
102
}
  0
BLOCK_RECORD
  5
47B
330
1
100
AcDbSymbolTableRecord
100
AcDbBlockTableRecord
  2
Dimension269
340
0
102
{BLKREFS
331
47E
102
}
  0
BLOCK_RECORD
  5
47F
330
1
100
AcDbSymbolTableRecord
100
AcDbBlockTableRecord
  2
Dimension270
340
0
102
{BLKREFS
331
482
102
}
  0
BLOCK_RECORD
  5
484
330
1
100
AcDbSymbolTableRecord
100
AcDbBlockTableRecord
  2
Dimension271
340
0
102
{BLKREFS
331
487
102
}
  0
BLOCK_RECORD
  5
488
330
1
100
AcDbSymbolTableRecord
100
AcDbBlockTableRecord
  2
Dimension272
340
0
102
{BLKREFS
331
48B
102
}
  0
BLOCK_RECORD
  5
48C
330
1
100
AcDbSymbolTableRecord
100
AcDbBlockTableRecord
  2
Dimension273
340
0
102
{BLKREFS
331
48F
102
}
  0
BLOCK_RECORD
  5
490
330
1
100
AcDbSymbolTableRecord
100
AcDbBlockTableRecord
  2
Dimension274
340
0
102
{BLKREFS
331
493
102
}
  0
BLOCK_RECORD
  5
494
330
1
100
AcDbSymbolTableRecord
100
AcDbBlockTableRecord
  2
Dimension275
340
0
102
{BLKREFS
331
497
102
}
  0
BLOCK_RECORD
  5
498
330
1
100
AcDbSymbolTableRecord
100
AcDbBlockTableRecord
  2
Dimension276
340
0
102
{BLKREFS
331
49B
102
}
  0
BLOCK_RECORD
  5
49C
330
1
100
AcDbSymbolTableRecord
100
AcDbBlockTableRecord
  2
Dimension277
340
0
102
{BLKREFS
331
49F
102
}
  0
BLOCK_RECORD
  5
4A0
330
1
100
AcDbSymbolTableRecord
100
AcDbBlockTableRecord
  2
Dimension278
340
0
102
{BLKREFS
331
4A3
102
}
  0
BLOCK_RECORD
  5
4A4
330
1
100
AcDbSymbolTableRecord
100
AcDbBlockTableRecord
  2
Dimension279
340
0
102
{BLKREFS
331
4A7
102
}
  0
BLOCK_RECORD
  5
4A8
330
1
100
AcDbSymbolTableRecord
100
AcDbBlockTableRecord
  2
Dimension280
340
0
102
{BLKREFS
331
4AB
102
}
  0
BLOCK_RECORD
  5
4AC
330
1
100
AcDbSymbolTableRecord
100
AcDbBlockTableRecord
  2
Dimension281
340
0
102
{BLKREFS
331
4AF
102
}
  0
BLOCK_RECORD
  5
4B0
330
1
100
AcDbSymbolTableRecord
100
AcDbBlockTableRecord
  2
Dimension282
340
0
102
{BLKREFS
331
4B3
102
}
  0
BLOCK_RECORD
  5
4B4
330
1
100
AcDbSymbolTableRecord
100
AcDbBlockTableRecord
  2
Dimension283
340
0
102
{BLKREFS
331
4B7
102
}
  0
BLOCK_RECORD
  5
4B8
330
1
100
AcDbSymbolTableRecord
100
AcDbBlockTableRecord
  2
Dimension284
340
0
102
{BLKREFS
331
4BB
102
}
  0
BLOCK_RECORD
  5
4BC
330
1
100
AcDbSymbolTableRecord
100
AcDbBlockTableRecord
  2
Dimension285
340
0
102
{BLKREFS
331
4BF
102
}
  0
BLOCK_RECORD
  5
4C0
330
1
100
AcDbSymbolTableRecord
100
AcDbBlockTableRecord
  2
Dimension286
340
0
102
{BLKREFS
331
4C3
102
}
  0
BLOCK_RECORD
  5
4C4
330
1
100
AcDbSymbolTableRecord
100
AcDbBlockTableRecord
  2
Dimension287
340
0
102
{BLKREFS
331
4C7
102
}
  0
BLOCK_RECORD
  5
4C8
330
1
100
AcDbSymbolTableRecord
100
AcDbBlockTableRecord
  2
Dimension288
340
0
102
{BLKREFS
331
4CB
102
}
  0
BLOCK_RECORD
  5
4CC
330
1
100
AcDbSymbolTableRecord
100
AcDbBlockTableRecord
  2
Dimension289
340
0
102
{BLKREFS
331
4CF
102
}
  0
BLOCK_RECORD
  5
4D0
330
1
100
AcDbSymbolTableRecord
100
AcDbBlockTableRecord
  2
Dimension290
340
0
102
{BLKREFS
331
4D3
102
}
  0
BLOCK_RECORD
  5
4D4
330
1
100
AcDbSymbolTableRecord
100
AcDbBlockTableRecord
  2
Dimension291
340
0
102
{BLKREFS
331
4D7
102
}
  0
BLOCK_RECORD
  5
4E4
330
1
100
AcDbSymbolTableRecord
100
AcDbBlockTableRecord
  2
Dimension292
340
0
102
{BLKREFS
331
4E7
102
}
  0
BLOCK_RECORD
  5
4E8
330
1
100
AcDbSymbolTableRecord
100
AcDbBlockTableRecord
  2
Dimension293
340
0
102
{BLKREFS
331
4EB
102
}
  0
BLOCK_RECORD
  5
4EC
330
1
100
AcDbSymbolTableRecord
100
AcDbBlockTableRecord
  2
Dimension294
340
0
102
{BLKREFS
331
4EF
102
}
  0
BLOCK_RECORD
  5
4F0
330
1
100
AcDbSymbolTableRecord
100
AcDbBlockTableRecord
  2
Dimension295
340
0
102
{BLKREFS
331
4F3
102
}
  0
BLOCK_RECORD
  5
4F4
330
1
100
AcDbSymbolTableRecord
100
AcDbBlockTableRecord
  2
Dimension296
340
0
102
{BLKREFS
331
4F7
102
}
  0
BLOCK_RECORD
  5
4F8
330
1
100
AcDbSymbolTableRecord
100
AcDbBlockTableRecord
  2
Dimension297
340
0
102
{BLKREFS
331
4FB
102
}
  0
BLOCK_RECORD
  5
4FE
330
1
100
AcDbSymbolTableRecord
100
AcDbBlockTableRecord
  2
*D298
340
0
  0
BLOCK_RECORD
  5
50A
330
1
100
AcDbSymbolTableRecord
100
AcDbBlockTableRecord
  2
_OPEN30
340
0
102
{BLKREFS
331
502
331
503
331
516
331
517
331
523
331
524
331
530
331
531
331
53D
331
53E
331
0
331
0
331
54D
331
54C
331
0
331
0
331
5DD
331
5DC
102
}
  0
BLOCK_RECORD
  5
512
330
1
100
AcDbSymbolTableRecord
100
AcDbBlockTableRecord
  2
*D300
340
0
  0
BLOCK_RECORD
  5
51F
330
1
100
AcDbSymbolTableRecord
100
AcDbBlockTableRecord
  2
*D301
340
0
  0
BLOCK_RECORD
  5
52C
330
1
100
AcDbSymbolTableRecord
100
AcDbBlockTableRecord
  2
*D302
340
0
  0
BLOCK_RECORD
  5
539
330
1
100
AcDbSymbolTableRecord
100
AcDbBlockTableRecord
  2
*D303
340
0
  0
BLOCK_RECORD
  5
546
330
1
100
AcDbSymbolTableRecord
100
AcDbBlockTableRecord
  2
*D304
340
0
  0
BLOCK_RECORD
  5
554
330
1
100
AcDbSymbolTableRecord
100
AcDbBlockTableRecord
  2
Dimension298
340
0
102
{BLKREFS
331
557
102
}
  0
BLOCK_RECORD
  5
558
330
1
100
AcDbSymbolTableRecord
100
AcDbBlockTableRecord
  2
Dimension299
340
0
102
{BLKREFS
331
55B
102
}
  0
BLOCK_RECORD
  5
5CD
330
1
100
AcDbSymbolTableRecord
100
AcDbBlockTableRecord
  2
Dimension300
340
0
102
{BLKREFS
331
5D0
102
}
  0
BLOCK_RECORD
  5
5D1
330
1
100
AcDbSymbolTableRecord
100
AcDbBlockTableRecord
  2
Dimension301
340
0
102
{BLKREFS
331
5D4
102
}
  0
BLOCK_RECORD
  5
5D6
330
1
100
AcDbSymbolTableRecord
100
AcDbBlockTableRecord
  2
*D309
340
0
  0
ENDTAB
  0
ENDSEC
  0
SECTION
  2
BLOCKS
  0
BLOCK
  5
20
330
1F
100
AcDbEntity
  8
0
100
AcDbBlockBegin
  2
*Model_Space
 70
     0
 10
0.0
 20
0.0
 30
0.0
  3
*Model_Space
  1

  0
ENDBLK
  5
21
330
1F
100
AcDbEntity
  8
0
100
AcDbBlockEnd
  0
BLOCK
  5
1C
330
1B
100
AcDbEntity
 67
     1
  8
0
100
AcDbBlockBegin
  2
*Paper_Space
 70
     0
 10
0.0
 20
0.0
 30
0.0
  3
*Paper_Space
  1

  0
ENDBLK
  5
1D
330
1B
100
AcDbEntity
 67
     1
  8
0
100
AcDbBlockEnd
  0
BLOCK
  5
24
330
23
100
AcDbEntity
  8
0
100
AcDbBlockBegin
  2
*Paper_Space0
 70
     0
 10
0.0
 20
0.0
 30
0.0
  3
*Paper_Space0
  1

  0
ENDBLK
  5
25
330
23
100
AcDbEntity
  8
0
100
AcDbBlockEnd
  0
BLOCK
  5
43
330
42
100
AcDbEntity
  8
0
100
AcDbBlockBegin
  2
Dimension1
 70
     0
 10
0.0
 20
0.0
 30
0.0
  3
Dimension1
  1

  0
ENDBLK
  5
44
330
42
100
AcDbEntity
  8
0
100
AcDbBlockEnd
  0
BLOCK
  5
47
330
46
100
AcDbEntity
  8
0
100
AcDbBlockBegin
  2
Dimension2
 70
     0
 10
0.0
 20
0.0
 30
0.0
  3
Dimension2
  1

  0
ENDBLK
  5
48
330
46
100
AcDbEntity
  8
0
100
AcDbBlockEnd
  0
BLOCK
  5
4B
330
4A
100
AcDbEntity
  8
0
100
AcDbBlockBegin
  2
Dimension3
 70
     0
 10
0.0
 20
0.0
 30
0.0
  3
Dimension3
  1

  0
ENDBLK
  5
4C
330
4A
100
AcDbEntity
  8
0
100
AcDbBlockEnd
  0
BLOCK
  5
4F
330
4E
100
AcDbEntity
  8
0
100
AcDbBlockBegin
  2
Dimension4
 70
     0
 10
0.0
 20
0.0
 30
0.0
  3
Dimension4
  1

  0
ENDBLK
  5
50
330
4E
100
AcDbEntity
  8
0
100
AcDbBlockEnd
  0
BLOCK
  5
53
330
52
100
AcDbEntity
  8
0
100
AcDbBlockBegin
  2
Dimension5
 70
     0
 10
0.0
 20
0.0
 30
0.0
  3
Dimension5
  1

  0
ENDBLK
  5
54
330
52
100
AcDbEntity
  8
0
100
AcDbBlockEnd
  0
BLOCK
  5
57
330
56
100
AcDbEntity
  8
0
100
AcDbBlockBegin
  2
Dimension6
 70
     0
 10
0.0
 20
0.0
 30
0.0
  3
Dimension6
  1

  0
ENDBLK
  5
58
330
56
100
AcDbEntity
  8
0
100
AcDbBlockEnd
  0
BLOCK
  5
5B
330
5A
100
AcDbEntity
  8
0
100
AcDbBlockBegin
  2
Dimension7
 70
     0
 10
0.0
 20
0.0
 30
0.0
  3
Dimension7
  1

  0
ENDBLK
  5
5C
330
5A
100
AcDbEntity
  8
0
100
AcDbBlockEnd
  0
BLOCK
  5
5F
330
5E
100
AcDbEntity
  8
0
100
AcDbBlockBegin
  2
Dimension8
 70
     0
 10
0.0
 20
0.0
 30
0.0
  3
Dimension8
  1

  0
ENDBLK
  5
60
330
5E
100
AcDbEntity
  8
0
100
AcDbBlockEnd
  0
BLOCK
  5
63
330
62
100
AcDbEntity
  8
0
100
AcDbBlockBegin
  2
Dimension9
 70
     0
 10
0.0
 20
0.0
 30
0.0
  3
Dimension9
  1

  0
ENDBLK
  5
64
330
62
100
AcDbEntity
  8
0
100
AcDbBlockEnd
  0
BLOCK
  5
67
330
66
100
AcDbEntity
  8
0
100
AcDbBlockBegin
  2
Dimension10
 70
     0
 10
0.0
 20
0.0
 30
0.0
  3
Dimension10
  1

  0
ENDBLK
  5
68
330
66
100
AcDbEntity
  8
0
100
AcDbBlockEnd
  0
BLOCK
  5
6B
330
6A
100
AcDbEntity
  8
0
100
AcDbBlockBegin
  2
Dimension11
 70
     0
 10
0.0
 20
0.0
 30
0.0
  3
Dimension11
  1

  0
ENDBLK
  5
6C
330
6A
100
AcDbEntity
  8
0
100
AcDbBlockEnd
  0
BLOCK
  5
6F
330
6E
100
AcDbEntity
  8
0
100
AcDbBlockBegin
  2
Dimension12
 70
     0
 10
0.0
 20
0.0
 30
0.0
  3
Dimension12
  1

  0
ENDBLK
  5
70
330
6E
100
AcDbEntity
  8
0
100
AcDbBlockEnd
  0
BLOCK
  5
73
330
72
100
AcDbEntity
  8
0
100
AcDbBlockBegin
  2
Dimension13
 70
     0
 10
0.0
 20
0.0
 30
0.0
  3
Dimension13
  1

  0
ENDBLK
  5
74
330
72
100
AcDbEntity
  8
0
100
AcDbBlockEnd
  0
BLOCK
  5
77
330
76
100
AcDbEntity
  8
0
100
AcDbBlockBegin
  2
Dimension14
 70
     0
 10
0.0
 20
0.0
 30
0.0
  3
Dimension14
  1

  0
ENDBLK
  5
78
330
76
100
AcDbEntity
  8
0
100
AcDbBlockEnd
  0
BLOCK
  5
7B
330
7A
100
AcDbEntity
  8
0
100
AcDbBlockBegin
  2
Dimension15
 70
     0
 10
0.0
 20
0.0
 30
0.0
  3
Dimension15
  1

  0
ENDBLK
  5
7C
330
7A
100
AcDbEntity
  8
0
100
AcDbBlockEnd
  0
BLOCK
  5
7F
330
7E
100
AcDbEntity
  8
0
100
AcDbBlockBegin
  2
Dimension16
 70
     0
 10
0.0
 20
0.0
 30
0.0
  3
Dimension16
  1

  0
ENDBLK
  5
80
330
7E
100
AcDbEntity
  8
0
100
AcDbBlockEnd
  0
BLOCK
  5
83
330
82
100
AcDbEntity
  8
0
100
AcDbBlockBegin
  2
Dimension17
 70
     0
 10
0.0
 20
0.0
 30
0.0
  3
Dimension17
  1

  0
ENDBLK
  5
84
330
82
100
AcDbEntity
  8
0
100
AcDbBlockEnd
  0
BLOCK
  5
87
330
86
100
AcDbEntity
  8
0
100
AcDbBlockBegin
  2
Dimension18
 70
     0
 10
0.0
 20
0.0
 30
0.0
  3
Dimension18
  1

  0
ENDBLK
  5
88
330
86
100
AcDbEntity
  8
0
100
AcDbBlockEnd
  0
BLOCK
  5
8B
330
8A
100
AcDbEntity
  8
0
100
AcDbBlockBegin
  2
Dimension19
 70
     0
 10
0.0
 20
0.0
 30
0.0
  3
Dimension19
  1

  0
ENDBLK
  5
8C
330
8A
100
AcDbEntity
  8
0
100
AcDbBlockEnd
  0
BLOCK
  5
8F
330
8E
100
AcDbEntity
  8
0
100
AcDbBlockBegin
  2
Dimension20
 70
     0
 10
0.0
 20
0.0
 30
0.0
  3
Dimension20
  1

  0
ENDBLK
  5
90
330
8E
100
AcDbEntity
  8
0
100
AcDbBlockEnd
  0
BLOCK
  5
93
330
92
100
AcDbEntity
  8
0
100
AcDbBlockBegin
  2
Dimension21
 70
     0
 10
0.0
 20
0.0
 30
0.0
  3
Dimension21
  1

  0
ENDBLK
  5
94
330
92
100
AcDbEntity
  8
0
100
AcDbBlockEnd
  0
BLOCK
  5
97
330
96
100
AcDbEntity
  8
0
100
AcDbBlockBegin
  2
Dimension22
 70
     0
 10
0.0
 20
0.0
 30
0.0
  3
Dimension22
  1

  0
ENDBLK
  5
98
330
96
100
AcDbEntity
  8
0
100
AcDbBlockEnd
  0
BLOCK
  5
9B
330
9A
100
AcDbEntity
  8
0
100
AcDbBlockBegin
  2
Dimension23
 70
     0
 10
0.0
 20
0.0
 30
0.0
  3
Dimension23
  1

  0
ENDBLK
  5
9C
330
9A
100
AcDbEntity
  8
0
100
AcDbBlockEnd
  0
BLOCK
  5
9F
330
9E
100
AcDbEntity
  8
0
100
AcDbBlockBegin
  2
Dimension24
 70
     0
 10
0.0
 20
0.0
 30
0.0
  3
Dimension24
  1

  0
ENDBLK
  5
A0
330
9E
100
AcDbEntity
  8
0
100
AcDbBlockEnd
  0
BLOCK
  5
A3
330
A2
100
AcDbEntity
  8
0
100
AcDbBlockBegin
  2
Dimension25
 70
     0
 10
0.0
 20
0.0
 30
0.0
  3
Dimension25
  1

  0
ENDBLK
  5
A4
330
A2
100
AcDbEntity
  8
0
100
AcDbBlockEnd
  0
BLOCK
  5
A7
330
A6
100
AcDbEntity
  8
0
100
AcDbBlockBegin
  2
Dimension26
 70
     0
 10
0.0
 20
0.0
 30
0.0
  3
Dimension26
  1

  0
ENDBLK
  5
A8
330
A6
100
AcDbEntity
  8
0
100
AcDbBlockEnd
  0
BLOCK
  5
AB
330
AA
100
AcDbEntity
  8
0
100
AcDbBlockBegin
  2
Dimension27
 70
     0
 10
0.0
 20
0.0
 30
0.0
  3
Dimension27
  1

  0
ENDBLK
  5
AC
330
AA
100
AcDbEntity
  8
0
100
AcDbBlockEnd
  0
BLOCK
  5
B0
330
AF
100
AcDbEntity
  8
0
100
AcDbBlockBegin
  2
Dimension28
 70
     0
 10
0.0
 20
0.0
 30
0.0
  3
Dimension28
  1

  0
ENDBLK
  5
B1
330
AF
100
AcDbEntity
  8
0
100
AcDbBlockEnd
  0
BLOCK
  5
B4
330
B3
100
AcDbEntity
  8
0
100
AcDbBlockBegin
  2
Dimension29
 70
     0
 10
0.0
 20
0.0
 30
0.0
  3
Dimension29
  1

  0
ENDBLK
  5
B5
330
B3
100
AcDbEntity
  8
0
100
AcDbBlockEnd
  0
BLOCK
  5
B8
330
B7
100
AcDbEntity
  8
0
100
AcDbBlockBegin
  2
Dimension30
 70
     0
 10
0.0
 20
0.0
 30
0.0
  3
Dimension30
  1

  0
ENDBLK
  5
B9
330
B7
100
AcDbEntity
  8
0
100
AcDbBlockEnd
  0
BLOCK
  5
BC
330
BB
100
AcDbEntity
  8
0
100
AcDbBlockBegin
  2
Dimension31
 70
     0
 10
0.0
 20
0.0
 30
0.0
  3
Dimension31
  1

  0
ENDBLK
  5
BD
330
BB
100
AcDbEntity
  8
0
100
AcDbBlockEnd
  0
BLOCK
  5
C0
330
BF
100
AcDbEntity
  8
0
100
AcDbBlockBegin
  2
Dimension32
 70
     0
 10
0.0
 20
0.0
 30
0.0
  3
Dimension32
  1

  0
ENDBLK
  5
C1
330
BF
100
AcDbEntity
  8
0
100
AcDbBlockEnd
  0
BLOCK
  5
C4
330
C3
100
AcDbEntity
  8
0
100
AcDbBlockBegin
  2
Dimension33
 70
     0
 10
0.0
 20
0.0
 30
0.0
  3
Dimension33
  1

  0
ENDBLK
  5
C5
330
C3
100
AcDbEntity
  8
0
100
AcDbBlockEnd
  0
BLOCK
  5
C8
330
C7
100
AcDbEntity
  8
0
100
AcDbBlockBegin
  2
Dimension34
 70
     0
 10
0.0
 20
0.0
 30
0.0
  3
Dimension34
  1

  0
ENDBLK
  5
C9
330
C7
100
AcDbEntity
  8
0
100
AcDbBlockEnd
  0
BLOCK
  5
CC
330
CB
100
AcDbEntity
  8
0
100
AcDbBlockBegin
  2
Dimension35
 70
     0
 10
0.0
 20
0.0
 30
0.0
  3
Dimension35
  1

  0
ENDBLK
  5
CD
330
CB
100
AcDbEntity
  8
0
100
AcDbBlockEnd
  0
BLOCK
  5
D0
330
CF
100
AcDbEntity
  8
0
100
AcDbBlockBegin
  2
Dimension36
 70
     0
 10
0.0
 20
0.0
 30
0.0
  3
Dimension36
  1

  0
ENDBLK
  5
D1
330
CF
100
AcDbEntity
  8
0
100
AcDbBlockEnd
  0
BLOCK
  5
D4
330
D3
100
AcDbEntity
  8
0
100
AcDbBlockBegin
  2
Dimension37
 70
     0
 10
0.0
 20
0.0
 30
0.0
  3
Dimension37
  1

  0
ENDBLK
  5
D5
330
D3
100
AcDbEntity
  8
0
100
AcDbBlockEnd
  0
BLOCK
  5
D8
330
D7
100
AcDbEntity
  8
0
100
AcDbBlockBegin
  2
Dimension38
 70
     0
 10
0.0
 20
0.0
 30
0.0
  3
Dimension38
  1

  0
ENDBLK
  5
D9
330
D7
100
AcDbEntity
  8
0
100
AcDbBlockEnd
  0
BLOCK
  5
DC
330
DB
100
AcDbEntity
  8
0
100
AcDbBlockBegin
  2
Dimension39
 70
     0
 10
0.0
 20
0.0
 30
0.0
  3
Dimension39
  1

  0
ENDBLK
  5
DD
330
DB
100
AcDbEntity
  8
0
100
AcDbBlockEnd
  0
BLOCK
  5
E0
330
DF
100
AcDbEntity
  8
0
100
AcDbBlockBegin
  2
Dimension40
 70
     0
 10
0.0
 20
0.0
 30
0.0
  3
Dimension40
  1

  0
ENDBLK
  5
E1
330
DF
100
AcDbEntity
  8
0
100
AcDbBlockEnd
  0
BLOCK
  5
E4
330
E3
100
AcDbEntity
  8
0
100
AcDbBlockBegin
  2
Dimension41
 70
     0
 10
0.0
 20
0.0
 30
0.0
  3
Dimension41
  1

  0
ENDBLK
  5
E5
330
E3
100
AcDbEntity
  8
0
100
AcDbBlockEnd
  0
BLOCK
  5
E8
330
E7
100
AcDbEntity
  8
0
100
AcDbBlockBegin
  2
Dimension42
 70
     0
 10
0.0
 20
0.0
 30
0.0
  3
Dimension42
  1

  0
ENDBLK
  5
E9
330
E7
100
AcDbEntity
  8
0
100
AcDbBlockEnd
  0
BLOCK
  5
EC
330
EB
100
AcDbEntity
  8
0
100
AcDbBlockBegin
  2
Dimension43
 70
     0
 10
0.0
 20
0.0
 30
0.0
  3
Dimension43
  1

  0
ENDBLK
  5
ED
330
EB
100
AcDbEntity
  8
0
100
AcDbBlockEnd
  0
BLOCK
  5
F0
330
EF
100
AcDbEntity
  8
0
100
AcDbBlockBegin
  2
Dimension44
 70
     0
 10
0.0
 20
0.0
 30
0.0
  3
Dimension44
  1

  0
ENDBLK
  5
F1
330
EF
100
AcDbEntity
  8
0
100
AcDbBlockEnd
  0
BLOCK
  5
F4
330
F3
100
AcDbEntity
  8
0
100
AcDbBlockBegin
  2
Dimension45
 70
     0
 10
0.0
 20
0.0
 30
0.0
  3
Dimension45
  1

  0
ENDBLK
  5
F5
330
F3
100
AcDbEntity
  8
0
100
AcDbBlockEnd
  0
BLOCK
  5
F8
330
F7
100
AcDbEntity
  8
0
100
AcDbBlockBegin
  2
Dimension46
 70
     0
 10
0.0
 20
0.0
 30
0.0
  3
Dimension46
  1

  0
ENDBLK
  5
F9
330
F7
100
AcDbEntity
  8
0
100
AcDbBlockEnd
  0
BLOCK
  5
FC
330
FB
100
AcDbEntity
  8
0
100
AcDbBlockBegin
  2
Dimension47
 70
     0
 10
0.0
 20
0.0
 30
0.0
  3
Dimension47
  1

  0
ENDBLK
  5
FD
330
FB
100
AcDbEntity
  8
0
100
AcDbBlockEnd
  0
BLOCK
  5
100
330
FF
100
AcDbEntity
  8
0
100
AcDbBlockBegin
  2
Dimension48
 70
     0
 10
0.0
 20
0.0
 30
0.0
  3
Dimension48
  1

  0
ENDBLK
  5
101
330
FF
100
AcDbEntity
  8
0
100
AcDbBlockEnd
  0
BLOCK
  5
104
330
103
100
AcDbEntity
  8
0
100
AcDbBlockBegin
  2
Dimension49
 70
     0
 10
0.0
 20
0.0
 30
0.0
  3
Dimension49
  1

  0
ENDBLK
  5
105
330
103
100
AcDbEntity
  8
0
100
AcDbBlockEnd
  0
BLOCK
  5
108
330
107
100
AcDbEntity
  8
0
100
AcDbBlockBegin
  2
Dimension50
 70
     0
 10
0.0
 20
0.0
 30
0.0
  3
Dimension50
  1

  0
ENDBLK
  5
109
330
107
100
AcDbEntity
  8
0
100
AcDbBlockEnd
  0
BLOCK
  5
10C
330
10B
100
AcDbEntity
  8
0
100
AcDbBlockBegin
  2
Dimension51
 70
     0
 10
0.0
 20
0.0
 30
0.0
  3
Dimension51
  1

  0
ENDBLK
  5
10D
330
10B
100
AcDbEntity
  8
0
100
AcDbBlockEnd
  0
BLOCK
  5
110
330
10F
100
AcDbEntity
  8
0
100
AcDbBlockBegin
  2
Dimension52
 70
     0
 10
0.0
 20
0.0
 30
0.0
  3
Dimension52
  1

  0
ENDBLK
  5
111
330
10F
100
AcDbEntity
  8
0
100
AcDbBlockEnd
  0
BLOCK
  5
114
330
113
100
AcDbEntity
  8
0
100
AcDbBlockBegin
  2
Dimension53
 70
     0
 10
0.0
 20
0.0
 30
0.0
  3
Dimension53
  1

  0
ENDBLK
  5
115
330
113
100
AcDbEntity
  8
0
100
AcDbBlockEnd
  0
BLOCK
  5
118
330
117
100
AcDbEntity
  8
0
100
AcDbBlockBegin
  2
Dimension54
 70
     0
 10
0.0
 20
0.0
 30
0.0
  3
Dimension54
  1

  0
ENDBLK
  5
119
330
117
100
AcDbEntity
  8
0
100
AcDbBlockEnd
  0
BLOCK
  5
11D
330
11C
100
AcDbEntity
  8
0
100
AcDbBlockBegin
  2
Dimension55
 70
     0
 10
0.0
 20
0.0
 30
0.0
  3
Dimension55
  1

  0
ENDBLK
  5
11E
330
11C
100
AcDbEntity
  8
0
100
AcDbBlockEnd
  0
BLOCK
  5
121
330
120
100
AcDbEntity
  8
0
100
AcDbBlockBegin
  2
Dimension56
 70
     0
 10
0.0
 20
0.0
 30
0.0
  3
Dimension56
  1

  0
ENDBLK
  5
122
330
120
100
AcDbEntity
  8
0
100
AcDbBlockEnd
  0
BLOCK
  5
125
330
124
100
AcDbEntity
  8
0
100
AcDbBlockBegin
  2
Dimension57
 70
     0
 10
0.0
 20
0.0
 30
0.0
  3
Dimension57
  1

  0
ENDBLK
  5
126
330
124
100
AcDbEntity
  8
0
100
AcDbBlockEnd
  0
BLOCK
  5
129
330
128
100
AcDbEntity
  8
0
100
AcDbBlockBegin
  2
Dimension58
 70
     0
 10
0.0
 20
0.0
 30
0.0
  3
Dimension58
  1

  0
ENDBLK
  5
12A
330
128
100
AcDbEntity
  8
0
100
AcDbBlockEnd
  0
BLOCK
  5
12D
330
12C
100
AcDbEntity
  8
0
100
AcDbBlockBegin
  2
Dimension59
 70
     0
 10
0.0
 20
0.0
 30
0.0
  3
Dimension59
  1

  0
ENDBLK
  5
12E
330
12C
100
AcDbEntity
  8
0
100
AcDbBlockEnd
  0
BLOCK
  5
131
330
130
100
AcDbEntity
  8
0
100
AcDbBlockBegin
  2
Dimension60
 70
     0
 10
0.0
 20
0.0
 30
0.0
  3
Dimension60
  1

  0
ENDBLK
  5
132
330
130
100
AcDbEntity
  8
0
100
AcDbBlockEnd
  0
BLOCK
  5
135
330
134
100
AcDbEntity
  8
0
100
AcDbBlockBegin
  2
Dimension61
 70
     0
 10
0.0
 20
0.0
 30
0.0
  3
Dimension61
  1

  0
ENDBLK
  5
136
330
134
100
AcDbEntity
  8
0
100
AcDbBlockEnd
  0
BLOCK
  5
139
330
138
100
AcDbEntity
  8
0
100
AcDbBlockBegin
  2
Dimension62
 70
     0
 10
0.0
 20
0.0
 30
0.0
  3
Dimension62
  1

  0
ENDBLK
  5
13A
330
138
100
AcDbEntity
  8
0
100
AcDbBlockEnd
  0
BLOCK
  5
13D
330
13C
100
AcDbEntity
  8
0
100
AcDbBlockBegin
  2
Dimension63
 70
     0
 10
0.0
 20
0.0
 30
0.0
  3
Dimension63
  1

  0
ENDBLK
  5
13E
330
13C
100
AcDbEntity
  8
0
100
AcDbBlockEnd
  0
BLOCK
  5
141
330
140
100
AcDbEntity
  8
0
100
AcDbBlockBegin
  2
Dimension64
 70
     0
 10
0.0
 20
0.0
 30
0.0
  3
Dimension64
  1

  0
ENDBLK
  5
142
330
140
100
AcDbEntity
  8
0
100
AcDbBlockEnd
  0
BLOCK
  5
145
330
144
100
AcDbEntity
  8
0
100
AcDbBlockBegin
  2
Dimension65
 70
     0
 10
0.0
 20
0.0
 30
0.0
  3
Dimension65
  1

  0
ENDBLK
  5
146
330
144
100
AcDbEntity
  8
0
100
AcDbBlockEnd
  0
BLOCK
  5
149
330
148
100
AcDbEntity
  8
0
100
AcDbBlockBegin
  2
Dimension66
 70
     0
 10
0.0
 20
0.0
 30
0.0
  3
Dimension66
  1

  0
ENDBLK
  5
14A
330
148
100
AcDbEntity
  8
0
100
AcDbBlockEnd
  0
BLOCK
  5
14D
330
14C
100
AcDbEntity
  8
0
100
AcDbBlockBegin
  2
Dimension67
 70
     0
 10
0.0
 20
0.0
 30
0.0
  3
Dimension67
  1

  0
ENDBLK
  5
14E
330
14C
100
AcDbEntity
  8
0
100
AcDbBlockEnd
  0
BLOCK
  5
151
330
150
100
AcDbEntity
  8
0
100
AcDbBlockBegin
  2
Dimension68
 70
     0
 10
0.0
 20
0.0
 30
0.0
  3
Dimension68
  1

  0
ENDBLK
  5
152
330
150
100
AcDbEntity
  8
0
100
AcDbBlockEnd
  0
BLOCK
  5
155
330
154
100
AcDbEntity
  8
0
100
AcDbBlockBegin
  2
Dimension69
 70
     0
 10
0.0
 20
0.0
 30
0.0
  3
Dimension69
  1

  0
ENDBLK
  5
156
330
154
100
AcDbEntity
  8
0
100
AcDbBlockEnd
  0
BLOCK
  5
159
330
158
100
AcDbEntity
  8
0
100
AcDbBlockBegin
  2
Dimension70
 70
     0
 10
0.0
 20
0.0
 30
0.0
  3
Dimension70
  1

  0
ENDBLK
  5
15A
330
158
100
AcDbEntity
  8
0
100
AcDbBlockEnd
  0
BLOCK
  5
15D
330
15C
100
AcDbEntity
  8
0
100
AcDbBlockBegin
  2
Dimension71
 70
     0
 10
0.0
 20
0.0
 30
0.0
  3
Dimension71
  1

  0
ENDBLK
  5
15E
330
15C
100
AcDbEntity
  8
0
100
AcDbBlockEnd
  0
BLOCK
  5
161
330
160
100
AcDbEntity
  8
0
100
AcDbBlockBegin
  2
Dimension72
 70
     0
 10
0.0
 20
0.0
 30
0.0
  3
Dimension72
  1

  0
ENDBLK
  5
162
330
160
100
AcDbEntity
  8
0
100
AcDbBlockEnd
  0
BLOCK
  5
165
330
164
100
AcDbEntity
  8
0
100
AcDbBlockBegin
  2
Dimension73
 70
     0
 10
0.0
 20
0.0
 30
0.0
  3
Dimension73
  1

  0
ENDBLK
  5
166
330
164
100
AcDbEntity
  8
0
100
AcDbBlockEnd
  0
BLOCK
  5
169
330
168
100
AcDbEntity
  8
0
100
AcDbBlockBegin
  2
Dimension74
 70
     0
 10
0.0
 20
0.0
 30
0.0
  3
Dimension74
  1

  0
ENDBLK
  5
16A
330
168
100
AcDbEntity
  8
0
100
AcDbBlockEnd
  0
BLOCK
  5
16D
330
16C
100
AcDbEntity
  8
0
100
AcDbBlockBegin
  2
Dimension75
 70
     0
 10
0.0
 20
0.0
 30
0.0
  3
Dimension75
  1

  0
ENDBLK
  5
16E
330
16C
100
AcDbEntity
  8
0
100
AcDbBlockEnd
  0
BLOCK
  5
171
330
170
100
AcDbEntity
  8
0
100
AcDbBlockBegin
  2
Dimension76
 70
     0
 10
0.0
 20
0.0
 30
0.0
  3
Dimension76
  1

  0
ENDBLK
  5
172
330
170
100
AcDbEntity
  8
0
100
AcDbBlockEnd
  0
BLOCK
  5
175
330
174
100
AcDbEntity
  8
0
100
AcDbBlockBegin
  2
Dimension77
 70
     0
 10
0.0
 20
0.0
 30
0.0
  3
Dimension77
  1

  0
ENDBLK
  5
176
330
174
100
AcDbEntity
  8
0
100
AcDbBlockEnd
  0
BLOCK
  5
179
330
178
100
AcDbEntity
  8
0
100
AcDbBlockBegin
  2
Dimension78
 70
     0
 10
0.0
 20
0.0
 30
0.0
  3
Dimension78
  1

  0
ENDBLK
  5
17A
330
178
100
AcDbEntity
  8
0
100
AcDbBlockEnd
  0
BLOCK
  5
17D
330
17C
100
AcDbEntity
  8
0
100
AcDbBlockBegin
  2
Dimension79
 70
     0
 10
0.0
 20
0.0
 30
0.0
  3
Dimension79
  1

  0
ENDBLK
  5
17E
330
17C
100
AcDbEntity
  8
0
100
AcDbBlockEnd
  0
BLOCK
  5
181
330
180
100
AcDbEntity
  8
0
100
AcDbBlockBegin
  2
Dimension80
 70
     0
 10
0.0
 20
0.0
 30
0.0
  3
Dimension80
  1

  0
ENDBLK
  5
182
330
180
100
AcDbEntity
  8
0
100
AcDbBlockEnd
  0
BLOCK
  5
185
330
184
100
AcDbEntity
  8
0
100
AcDbBlockBegin
  2
Dimension81
 70
     0
 10
0.0
 20
0.0
 30
0.0
  3
Dimension81
  1

  0
ENDBLK
  5
186
330
184
100
AcDbEntity
  8
0
100
AcDbBlockEnd
  0
BLOCK
  5
18A
330
189
100
AcDbEntity
  8
0
100
AcDbBlockBegin
  2
Dimension82
 70
     0
 10
0.0
 20
0.0
 30
0.0
  3
Dimension82
  1

  0
ENDBLK
  5
18B
330
189
100
AcDbEntity
  8
0
100
AcDbBlockEnd
  0
BLOCK
  5
18E
330
18D
100
AcDbEntity
  8
0
100
AcDbBlockBegin
  2
Dimension83
 70
     0
 10
0.0
 20
0.0
 30
0.0
  3
Dimension83
  1

  0
ENDBLK
  5
18F
330
18D
100
AcDbEntity
  8
0
100
AcDbBlockEnd
  0
BLOCK
  5
192
330
191
100
AcDbEntity
  8
0
100
AcDbBlockBegin
  2
Dimension84
 70
     0
 10
0.0
 20
0.0
 30
0.0
  3
Dimension84
  1

  0
ENDBLK
  5
193
330
191
100
AcDbEntity
  8
0
100
AcDbBlockEnd
  0
BLOCK
  5
196
330
195
100
AcDbEntity
  8
0
100
AcDbBlockBegin
  2
Dimension85
 70
     0
 10
0.0
 20
0.0
 30
0.0
  3
Dimension85
  1

  0
ENDBLK
  5
197
330
195
100
AcDbEntity
  8
0
100
AcDbBlockEnd
  0
BLOCK
  5
19A
330
199
100
AcDbEntity
  8
0
100
AcDbBlockBegin
  2
Dimension86
 70
     0
 10
0.0
 20
0.0
 30
0.0
  3
Dimension86
  1

  0
ENDBLK
  5
19B
330
199
100
AcDbEntity
  8
0
100
AcDbBlockEnd
  0
BLOCK
  5
19E
330
19D
100
AcDbEntity
  8
0
100
AcDbBlockBegin
  2
Dimension87
 70
     0
 10
0.0
 20
0.0
 30
0.0
  3
Dimension87
  1

  0
ENDBLK
  5
19F
330
19D
100
AcDbEntity
  8
0
100
AcDbBlockEnd
  0
BLOCK
  5
1A2
330
1A1
100
AcDbEntity
  8
0
100
AcDbBlockBegin
  2
Dimension88
 70
     0
 10
0.0
 20
0.0
 30
0.0
  3
Dimension88
  1

  0
ENDBLK
  5
1A3
330
1A1
100
AcDbEntity
  8
0
100
AcDbBlockEnd
  0
BLOCK
  5
1A6
330
1A5
100
AcDbEntity
  8
0
100
AcDbBlockBegin
  2
Dimension89
 70
     0
 10
0.0
 20
0.0
 30
0.0
  3
Dimension89
  1

  0
ENDBLK
  5
1A7
330
1A5
100
AcDbEntity
  8
0
100
AcDbBlockEnd
  0
BLOCK
  5
1AA
330
1A9
100
AcDbEntity
  8
0
100
AcDbBlockBegin
  2
Dimension90
 70
     0
 10
0.0
 20
0.0
 30
0.0
  3
Dimension90
  1

  0
ENDBLK
  5
1AB
330
1A9
100
AcDbEntity
  8
0
100
AcDbBlockEnd
  0
BLOCK
  5
1AE
330
1AD
100
AcDbEntity
  8
0
100
AcDbBlockBegin
  2
Dimension91
 70
     0
 10
0.0
 20
0.0
 30
0.0
  3
Dimension91
  1

  0
ENDBLK
  5
1AF
330
1AD
100
AcDbEntity
  8
0
100
AcDbBlockEnd
  0
BLOCK
  5
1B2
330
1B1
100
AcDbEntity
  8
0
100
AcDbBlockBegin
  2
Dimension92
 70
     0
 10
0.0
 20
0.0
 30
0.0
  3
Dimension92
  1

  0
ENDBLK
  5
1B3
330
1B1
100
AcDbEntity
  8
0
100
AcDbBlockEnd
  0
BLOCK
  5
1B6
330
1B5
100
AcDbEntity
  8
0
100
AcDbBlockBegin
  2
Dimension93
 70
     0
 10
0.0
 20
0.0
 30
0.0
  3
Dimension93
  1

  0
ENDBLK
  5
1B7
330
1B5
100
AcDbEntity
  8
0
100
AcDbBlockEnd
  0
BLOCK
  5
1BA
330
1B9
100
AcDbEntity
  8
0
100
AcDbBlockBegin
  2
Dimension94
 70
     0
 10
0.0
 20
0.0
 30
0.0
  3
Dimension94
  1

  0
ENDBLK
  5
1BB
330
1B9
100
AcDbEntity
  8
0
100
AcDbBlockEnd
  0
BLOCK
  5
1BE
330
1BD
100
AcDbEntity
  8
0
100
AcDbBlockBegin
  2
Dimension95
 70
     0
 10
0.0
 20
0.0
 30
0.0
  3
Dimension95
  1

  0
ENDBLK
  5
1BF
330
1BD
100
AcDbEntity
  8
0
100
AcDbBlockEnd
  0
BLOCK
  5
1C2
330
1C1
100
AcDbEntity
  8
0
100
AcDbBlockBegin
  2
Dimension96
 70
     0
 10
0.0
 20
0.0
 30
0.0
  3
Dimension96
  1

  0
ENDBLK
  5
1C3
330
1C1
100
AcDbEntity
  8
0
100
AcDbBlockEnd
  0
BLOCK
  5
1C6
330
1C5
100
AcDbEntity
  8
0
100
AcDbBlockBegin
  2
Dimension97
 70
     0
 10
0.0
 20
0.0
 30
0.0
  3
Dimension97
  1

  0
ENDBLK
  5
1C7
330
1C5
100
AcDbEntity
  8
0
100
AcDbBlockEnd
  0
BLOCK
  5
1CA
330
1C9
100
AcDbEntity
  8
0
100
AcDbBlockBegin
  2
Dimension98
 70
     0
 10
0.0
 20
0.0
 30
0.0
  3
Dimension98
  1

  0
ENDBLK
  5
1CB
330
1C9
100
AcDbEntity
  8
0
100
AcDbBlockEnd
  0
BLOCK
  5
1CE
330
1CD
100
AcDbEntity
  8
0
100
AcDbBlockBegin
  2
Dimension99
 70
     0
 10
0.0
 20
0.0
 30
0.0
  3
Dimension99
  1

  0
ENDBLK
  5
1CF
330
1CD
100
AcDbEntity
  8
0
100
AcDbBlockEnd
  0
BLOCK
  5
1D2
330
1D1
100
AcDbEntity
  8
0
100
AcDbBlockBegin
  2
Dimension100
 70
     0
 10
0.0
 20
0.0
 30
0.0
  3
Dimension100
  1

  0
ENDBLK
  5
1D3
330
1D1
100
AcDbEntity
  8
0
100
AcDbBlockEnd
  0
BLOCK
  5
1D6
330
1D5
100
AcDbEntity
  8
0
100
AcDbBlockBegin
  2
Dimension101
 70
     0
 10
0.0
 20
0.0
 30
0.0
  3
Dimension101
  1

  0
ENDBLK
  5
1D7
330
1D5
100
AcDbEntity
  8
0
100
AcDbBlockEnd
  0
BLOCK
  5
1DA
330
1D9
100
AcDbEntity
  8
0
100
AcDbBlockBegin
  2
Dimension102
 70
     0
 10
0.0
 20
0.0
 30
0.0
  3
Dimension102
  1

  0
ENDBLK
  5
1DB
330
1D9
100
AcDbEntity
  8
0
100
AcDbBlockEnd
  0
BLOCK
  5
1DE
330
1DD
100
AcDbEntity
  8
0
100
AcDbBlockBegin
  2
Dimension103
 70
     0
 10
0.0
 20
0.0
 30
0.0
  3
Dimension103
  1

  0
ENDBLK
  5
1DF
330
1DD
100
AcDbEntity
  8
0
100
AcDbBlockEnd
  0
BLOCK
  5
1E2
330
1E1
100
AcDbEntity
  8
0
100
AcDbBlockBegin
  2
Dimension104
 70
     0
 10
0.0
 20
0.0
 30
0.0
  3
Dimension104
  1

  0
ENDBLK
  5
1E3
330
1E1
100
AcDbEntity
  8
0
100
AcDbBlockEnd
  0
BLOCK
  5
1E6
330
1E5
100
AcDbEntity
  8
0
100
AcDbBlockBegin
  2
Dimension105
 70
     0
 10
0.0
 20
0.0
 30
0.0
  3
Dimension105
  1

  0
ENDBLK
  5
1E7
330
1E5
100
AcDbEntity
  8
0
100
AcDbBlockEnd
  0
BLOCK
  5
1EA
330
1E9
100
AcDbEntity
  8
0
100
AcDbBlockBegin
  2
Dimension106
 70
     0
 10
0.0
 20
0.0
 30
0.0
  3
Dimension106
  1

  0
ENDBLK
  5
1EB
330
1E9
100
AcDbEntity
  8
0
100
AcDbBlockEnd
  0
BLOCK
  5
1EE
330
1ED
100
AcDbEntity
  8
0
100
AcDbBlockBegin
  2
Dimension107
 70
     0
 10
0.0
 20
0.0
 30
0.0
  3
Dimension107
  1

  0
ENDBLK
  5
1EF
330
1ED
100
AcDbEntity
  8
0
100
AcDbBlockEnd
  0
BLOCK
  5
1F2
330
1F1
100
AcDbEntity
  8
0
100
AcDbBlockBegin
  2
Dimension108
 70
     0
 10
0.0
 20
0.0
 30
0.0
  3
Dimension108
  1

  0
ENDBLK
  5
1F3
330
1F1
100
AcDbEntity
  8
0
100
AcDbBlockEnd
  0
BLOCK
  5
1F7
330
1F6
100
AcDbEntity
  8
0
100
AcDbBlockBegin
  2
Dimension109
 70
     0
 10
0.0
 20
0.0
 30
0.0
  3
Dimension109
  1

  0
ENDBLK
  5
1F8
330
1F6
100
AcDbEntity
  8
0
100
AcDbBlockEnd
  0
BLOCK
  5
1FB
330
1FA
100
AcDbEntity
  8
0
100
AcDbBlockBegin
  2
Dimension110
 70
     0
 10
0.0
 20
0.0
 30
0.0
  3
Dimension110
  1

  0
ENDBLK
  5
1FC
330
1FA
100
AcDbEntity
  8
0
100
AcDbBlockEnd
  0
BLOCK
  5
1FF
330
1FE
100
AcDbEntity
  8
0
100
AcDbBlockBegin
  2
Dimension111
 70
     0
 10
0.0
 20
0.0
 30
0.0
  3
Dimension111
  1

  0
ENDBLK
  5
200
330
1FE
100
AcDbEntity
  8
0
100
AcDbBlockEnd
  0
BLOCK
  5
203
330
202
100
AcDbEntity
  8
0
100
AcDbBlockBegin
  2
Dimension112
 70
     0
 10
0.0
 20
0.0
 30
0.0
  3
Dimension112
  1

  0
ENDBLK
  5
204
330
202
100
AcDbEntity
  8
0
100
AcDbBlockEnd
  0
BLOCK
  5
207
330
206
100
AcDbEntity
  8
0
100
AcDbBlockBegin
  2
Dimension113
 70
     0
 10
0.0
 20
0.0
 30
0.0
  3
Dimension113
  1

  0
ENDBLK
  5
208
330
206
100
AcDbEntity
  8
0
100
AcDbBlockEnd
  0
BLOCK
  5
20B
330
20A
100
AcDbEntity
  8
0
100
AcDbBlockBegin
  2
Dimension114
 70
     0
 10
0.0
 20
0.0
 30
0.0
  3
Dimension114
  1

  0
ENDBLK
  5
20C
330
20A
100
AcDbEntity
  8
0
100
AcDbBlockEnd
  0
BLOCK
  5
20F
330
20E
100
AcDbEntity
  8
0
100
AcDbBlockBegin
  2
Dimension115
 70
     0
 10
0.0
 20
0.0
 30
0.0
  3
Dimension115
  1

  0
ENDBLK
  5
210
330
20E
100
AcDbEntity
  8
0
100
AcDbBlockEnd
  0
BLOCK
  5
213
330
212
100
AcDbEntity
  8
0
100
AcDbBlockBegin
  2
Dimension116
 70
     0
 10
0.0
 20
0.0
 30
0.0
  3
Dimension116
  1

  0
ENDBLK
  5
214
330
212
100
AcDbEntity
  8
0
100
AcDbBlockEnd
  0
BLOCK
  5
217
330
216
100
AcDbEntity
  8
0
100
AcDbBlockBegin
  2
Dimension117
 70
     0
 10
0.0
 20
0.0
 30
0.0
  3
Dimension117
  1

  0
ENDBLK
  5
218
330
216
100
AcDbEntity
  8
0
100
AcDbBlockEnd
  0
BLOCK
  5
21B
330
21A
100
AcDbEntity
  8
0
100
AcDbBlockBegin
  2
Dimension118
 70
     0
 10
0.0
 20
0.0
 30
0.0
  3
Dimension118
  1

  0
ENDBLK
  5
21C
330
21A
100
AcDbEntity
  8
0
100
AcDbBlockEnd
  0
BLOCK
  5
21F
330
21E
100
AcDbEntity
  8
0
100
AcDbBlockBegin
  2
Dimension119
 70
     0
 10
0.0
 20
0.0
 30
0.0
  3
Dimension119
  1

  0
ENDBLK
  5
220
330
21E
100
AcDbEntity
  8
0
100
AcDbBlockEnd
  0
BLOCK
  5
223
330
222
100
AcDbEntity
  8
0
100
AcDbBlockBegin
  2
Dimension120
 70
     0
 10
0.0
 20
0.0
 30
0.0
  3
Dimension120
  1

  0
ENDBLK
  5
224
330
222
100
AcDbEntity
  8
0
100
AcDbBlockEnd
  0
BLOCK
  5
227
330
226
100
AcDbEntity
  8
0
100
AcDbBlockBegin
  2
Dimension121
 70
     0
 10
0.0
 20
0.0
 30
0.0
  3
Dimension121
  1

  0
ENDBLK
  5
228
330
226
100
AcDbEntity
  8
0
100
AcDbBlockEnd
  0
BLOCK
  5
22B
330
22A
100
AcDbEntity
  8
0
100
AcDbBlockBegin
  2
Dimension122
 70
     0
 10
0.0
 20
0.0
 30
0.0
  3
Dimension122
  1

  0
ENDBLK
  5
22C
330
22A
100
AcDbEntity
  8
0
100
AcDbBlockEnd
  0
BLOCK
  5
22F
330
22E
100
AcDbEntity
  8
0
100
AcDbBlockBegin
  2
Dimension123
 70
     0
 10
0.0
 20
0.0
 30
0.0
  3
Dimension123
  1

  0
ENDBLK
  5
230
330
22E
100
AcDbEntity
  8
0
100
AcDbBlockEnd
  0
BLOCK
  5
233
330
232
100
AcDbEntity
  8
0
100
AcDbBlockBegin
  2
Dimension124
 70
     0
 10
0.0
 20
0.0
 30
0.0
  3
Dimension124
  1

  0
ENDBLK
  5
234
330
232
100
AcDbEntity
  8
0
100
AcDbBlockEnd
  0
BLOCK
  5
237
330
236
100
AcDbEntity
  8
0
100
AcDbBlockBegin
  2
Dimension125
 70
     0
 10
0.0
 20
0.0
 30
0.0
  3
Dimension125
  1

  0
ENDBLK
  5
238
330
236
100
AcDbEntity
  8
0
100
AcDbBlockEnd
  0
BLOCK
  5
23B
330
23A
100
AcDbEntity
  8
0
100
AcDbBlockBegin
  2
Dimension126
 70
     0
 10
0.0
 20
0.0
 30
0.0
  3
Dimension126
  1

  0
ENDBLK
  5
23C
330
23A
100
AcDbEntity
  8
0
100
AcDbBlockEnd
  0
BLOCK
  5
23F
330
23E
100
AcDbEntity
  8
0
100
AcDbBlockBegin
  2
Dimension127
 70
     0
 10
0.0
 20
0.0
 30
0.0
  3
Dimension127
  1

  0
ENDBLK
  5
240
330
23E
100
AcDbEntity
  8
0
100
AcDbBlockEnd
  0
BLOCK
  5
243
330
242
100
AcDbEntity
  8
0
100
AcDbBlockBegin
  2
Dimension128
 70
     0
 10
0.0
 20
0.0
 30
0.0
  3
Dimension128
  1

  0
ENDBLK
  5
244
330
242
100
AcDbEntity
  8
0
100
AcDbBlockEnd
  0
BLOCK
  5
247
330
246
100
AcDbEntity
  8
0
100
AcDbBlockBegin
  2
Dimension129
 70
     0
 10
0.0
 20
0.0
 30
0.0
  3
Dimension129
  1

  0
ENDBLK
  5
248
330
246
100
AcDbEntity
  8
0
100
AcDbBlockEnd
  0
BLOCK
  5
24B
330
24A
100
AcDbEntity
  8
0
100
AcDbBlockBegin
  2
Dimension130
 70
     0
 10
0.0
 20
0.0
 30
0.0
  3
Dimension130
  1

  0
ENDBLK
  5
24C
330
24A
100
AcDbEntity
  8
0
100
AcDbBlockEnd
  0
BLOCK
  5
24F
330
24E
100
AcDbEntity
  8
0
100
AcDbBlockBegin
  2
Dimension131
 70
     0
 10
0.0
 20
0.0
 30
0.0
  3
Dimension131
  1

  0
ENDBLK
  5
250
330
24E
100
AcDbEntity
  8
0
100
AcDbBlockEnd
  0
BLOCK
  5
253
330
252
100
AcDbEntity
  8
0
100
AcDbBlockBegin
  2
Dimension132
 70
     0
 10
0.0
 20
0.0
 30
0.0
  3
Dimension132
  1

  0
ENDBLK
  5
254
330
252
100
AcDbEntity
  8
0
100
AcDbBlockEnd
  0
BLOCK
  5
257
330
256
100
AcDbEntity
  8
0
100
AcDbBlockBegin
  2
Dimension133
 70
     0
 10
0.0
 20
0.0
 30
0.0
  3
Dimension133
  1

  0
ENDBLK
  5
258
330
256
100
AcDbEntity
  8
0
100
AcDbBlockEnd
  0
BLOCK
  5
25B
330
25A
100
AcDbEntity
  8
0
100
AcDbBlockBegin
  2
Dimension134
 70
     0
 10
0.0
 20
0.0
 30
0.0
  3
Dimension134
  1

  0
ENDBLK
  5
25C
330
25A
100
AcDbEntity
  8
0
100
AcDbBlockEnd
  0
BLOCK
  5
25F
330
25E
100
AcDbEntity
  8
0
100
AcDbBlockBegin
  2
Dimension135
 70
     0
 10
0.0
 20
0.0
 30
0.0
  3
Dimension135
  1

  0
ENDBLK
  5
260
330
25E
100
AcDbEntity
  8
0
100
AcDbBlockEnd
  0
BLOCK
  5
264
330
263
100
AcDbEntity
  8
0
100
AcDbBlockBegin
  2
Dimension136
 70
     0
 10
0.0
 20
0.0
 30
0.0
  3
Dimension136
  1

  0
ENDBLK
  5
265
330
263
100
AcDbEntity
  8
0
100
AcDbBlockEnd
  0
BLOCK
  5
268
330
267
100
AcDbEntity
  8
0
100
AcDbBlockBegin
  2
Dimension137
 70
     0
 10
0.0
 20
0.0
 30
0.0
  3
Dimension137
  1

  0
ENDBLK
  5
269
330
267
100
AcDbEntity
  8
0
100
AcDbBlockEnd
  0
BLOCK
  5
26C
330
26B
100
AcDbEntity
  8
0
100
AcDbBlockBegin
  2
Dimension138
 70
     0
 10
0.0
 20
0.0
 30
0.0
  3
Dimension138
  1

  0
ENDBLK
  5
26D
330
26B
100
AcDbEntity
  8
0
100
AcDbBlockEnd
  0
BLOCK
  5
270
330
26F
100
AcDbEntity
  8
0
100
AcDbBlockBegin
  2
Dimension139
 70
     0
 10
0.0
 20
0.0
 30
0.0
  3
Dimension139
  1

  0
ENDBLK
  5
271
330
26F
100
AcDbEntity
  8
0
100
AcDbBlockEnd
  0
BLOCK
  5
274
330
273
100
AcDbEntity
  8
0
100
AcDbBlockBegin
  2
Dimension140
 70
     0
 10
0.0
 20
0.0
 30
0.0
  3
Dimension140
  1

  0
ENDBLK
  5
275
330
273
100
AcDbEntity
  8
0
100
AcDbBlockEnd
  0
BLOCK
  5
278
330
277
100
AcDbEntity
  8
0
100
AcDbBlockBegin
  2
Dimension141
 70
     0
 10
0.0
 20
0.0
 30
0.0
  3
Dimension141
  1

  0
ENDBLK
  5
279
330
277
100
AcDbEntity
  8
0
100
AcDbBlockEnd
  0
BLOCK
  5
27C
330
27B
100
AcDbEntity
  8
0
100
AcDbBlockBegin
  2
Dimension142
 70
     0
 10
0.0
 20
0.0
 30
0.0
  3
Dimension142
  1

  0
ENDBLK
  5
27D
330
27B
100
AcDbEntity
  8
0
100
AcDbBlockEnd
  0
BLOCK
  5
280
330
27F
100
AcDbEntity
  8
0
100
AcDbBlockBegin
  2
Dimension143
 70
     0
 10
0.0
 20
0.0
 30
0.0
  3
Dimension143
  1

  0
ENDBLK
  5
281
330
27F
100
AcDbEntity
  8
0
100
AcDbBlockEnd
  0
BLOCK
  5
284
330
283
100
AcDbEntity
  8
0
100
AcDbBlockBegin
  2
Dimension144
 70
     0
 10
0.0
 20
0.0
 30
0.0
  3
Dimension144
  1

  0
ENDBLK
  5
285
330
283
100
AcDbEntity
  8
0
100
AcDbBlockEnd
  0
BLOCK
  5
288
330
287
100
AcDbEntity
  8
0
100
AcDbBlockBegin
  2
Dimension145
 70
     0
 10
0.0
 20
0.0
 30
0.0
  3
Dimension145
  1

  0
ENDBLK
  5
289
330
287
100
AcDbEntity
  8
0
100
AcDbBlockEnd
  0
BLOCK
  5
28C
330
28B
100
AcDbEntity
  8
0
100
AcDbBlockBegin
  2
Dimension146
 70
     0
 10
0.0
 20
0.0
 30
0.0
  3
Dimension146
  1

  0
ENDBLK
  5
28D
330
28B
100
AcDbEntity
  8
0
100
AcDbBlockEnd
  0
BLOCK
  5
290
330
28F
100
AcDbEntity
  8
0
100
AcDbBlockBegin
  2
Dimension147
 70
     0
 10
0.0
 20
0.0
 30
0.0
  3
Dimension147
  1

  0
ENDBLK
  5
291
330
28F
100
AcDbEntity
  8
0
100
AcDbBlockEnd
  0
BLOCK
  5
294
330
293
100
AcDbEntity
  8
0
100
AcDbBlockBegin
  2
Dimension148
 70
     0
 10
0.0
 20
0.0
 30
0.0
  3
Dimension148
  1

  0
ENDBLK
  5
295
330
293
100
AcDbEntity
  8
0
100
AcDbBlockEnd
  0
BLOCK
  5
298
330
297
100
AcDbEntity
  8
0
100
AcDbBlockBegin
  2
Dimension149
 70
     0
 10
0.0
 20
0.0
 30
0.0
  3
Dimension149
  1

  0
ENDBLK
  5
299
330
297
100
AcDbEntity
  8
0
100
AcDbBlockEnd
  0
BLOCK
  5
29C
330
29B
100
AcDbEntity
  8
0
100
AcDbBlockBegin
  2
Dimension150
 70
     0
 10
0.0
 20
0.0
 30
0.0
  3
Dimension150
  1

  0
ENDBLK
  5
29D
330
29B
100
AcDbEntity
  8
0
100
AcDbBlockEnd
  0
BLOCK
  5
2A0
330
29F
100
AcDbEntity
  8
0
100
AcDbBlockBegin
  2
Dimension151
 70
     0
 10
0.0
 20
0.0
 30
0.0
  3
Dimension151
  1

  0
ENDBLK
  5
2A1
330
29F
100
AcDbEntity
  8
0
100
AcDbBlockEnd
  0
BLOCK
  5
2A4
330
2A3
100
AcDbEntity
  8
0
100
AcDbBlockBegin
  2
Dimension152
 70
     0
 10
0.0
 20
0.0
 30
0.0
  3
Dimension152
  1

  0
ENDBLK
  5
2A5
330
2A3
100
AcDbEntity
  8
0
100
AcDbBlockEnd
  0
BLOCK
  5
2A8
330
2A7
100
AcDbEntity
  8
0
100
AcDbBlockBegin
  2
Dimension153
 70
     0
 10
0.0
 20
0.0
 30
0.0
  3
Dimension153
  1

  0
ENDBLK
  5
2A9
330
2A7
100
AcDbEntity
  8
0
100
AcDbBlockEnd
  0
BLOCK
  5
2AC
330
2AB
100
AcDbEntity
  8
0
100
AcDbBlockBegin
  2
Dimension154
 70
     0
 10
0.0
 20
0.0
 30
0.0
  3
Dimension154
  1

  0
ENDBLK
  5
2AD
330
2AB
100
AcDbEntity
  8
0
100
AcDbBlockEnd
  0
BLOCK
  5
2B0
330
2AF
100
AcDbEntity
  8
0
100
AcDbBlockBegin
  2
Dimension155
 70
     0
 10
0.0
 20
0.0
 30
0.0
  3
Dimension155
  1

  0
ENDBLK
  5
2B1
330
2AF
100
AcDbEntity
  8
0
100
AcDbBlockEnd
  0
BLOCK
  5
2B4
330
2B3
100
AcDbEntity
  8
0
100
AcDbBlockBegin
  2
Dimension156
 70
     0
 10
0.0
 20
0.0
 30
0.0
  3
Dimension156
  1

  0
ENDBLK
  5
2B5
330
2B3
100
AcDbEntity
  8
0
100
AcDbBlockEnd
  0
BLOCK
  5
2B8
330
2B7
100
AcDbEntity
  8
0
100
AcDbBlockBegin
  2
Dimension157
 70
     0
 10
0.0
 20
0.0
 30
0.0
  3
Dimension157
  1

  0
ENDBLK
  5
2B9
330
2B7
100
AcDbEntity
  8
0
100
AcDbBlockEnd
  0
BLOCK
  5
2BC
330
2BB
100
AcDbEntity
  8
0
100
AcDbBlockBegin
  2
Dimension158
 70
     0
 10
0.0
 20
0.0
 30
0.0
  3
Dimension158
  1

  0
ENDBLK
  5
2BD
330
2BB
100
AcDbEntity
  8
0
100
AcDbBlockEnd
  0
BLOCK
  5
2C0
330
2BF
100
AcDbEntity
  8
0
100
AcDbBlockBegin
  2
Dimension159
 70
     0
 10
0.0
 20
0.0
 30
0.0
  3
Dimension159
  1

  0
ENDBLK
  5
2C1
330
2BF
100
AcDbEntity
  8
0
100
AcDbBlockEnd
  0
BLOCK
  5
2C4
330
2C3
100
AcDbEntity
  8
0
100
AcDbBlockBegin
  2
Dimension160
 70
     0
 10
0.0
 20
0.0
 30
0.0
  3
Dimension160
  1

  0
ENDBLK
  5
2C5
330
2C3
100
AcDbEntity
  8
0
100
AcDbBlockEnd
  0
BLOCK
  5
2C8
330
2C7
100
AcDbEntity
  8
0
100
AcDbBlockBegin
  2
Dimension161
 70
     0
 10
0.0
 20
0.0
 30
0.0
  3
Dimension161
  1

  0
ENDBLK
  5
2C9
330
2C7
100
AcDbEntity
  8
0
100
AcDbBlockEnd
  0
BLOCK
  5
2CC
330
2CB
100
AcDbEntity
  8
0
100
AcDbBlockBegin
  2
Dimension162
 70
     0
 10
0.0
 20
0.0
 30
0.0
  3
Dimension162
  1

  0
ENDBLK
  5
2CD
330
2CB
100
AcDbEntity
  8
0
100
AcDbBlockEnd
  0
BLOCK
  5
2D1
330
2D0
100
AcDbEntity
  8
0
100
AcDbBlockBegin
  2
Dimension163
 70
     0
 10
0.0
 20
0.0
 30
0.0
  3
Dimension163
  1

  0
ENDBLK
  5
2D2
330
2D0
100
AcDbEntity
  8
0
100
AcDbBlockEnd
  0
BLOCK
  5
2D5
330
2D4
100
AcDbEntity
  8
0
100
AcDbBlockBegin
  2
Dimension164
 70
     0
 10
0.0
 20
0.0
 30
0.0
  3
Dimension164
  1

  0
ENDBLK
  5
2D6
330
2D4
100
AcDbEntity
  8
0
100
AcDbBlockEnd
  0
BLOCK
  5
2D9
330
2D8
100
AcDbEntity
  8
0
100
AcDbBlockBegin
  2
Dimension165
 70
     0
 10
0.0
 20
0.0
 30
0.0
  3
Dimension165
  1

  0
ENDBLK
  5
2DA
330
2D8
100
AcDbEntity
  8
0
100
AcDbBlockEnd
  0
BLOCK
  5
2DD
330
2DC
100
AcDbEntity
  8
0
100
AcDbBlockBegin
  2
Dimension166
 70
     0
 10
0.0
 20
0.0
 30
0.0
  3
Dimension166
  1

  0
ENDBLK
  5
2DE
330
2DC
100
AcDbEntity
  8
0
100
AcDbBlockEnd
  0
BLOCK
  5
2E1
330
2E0
100
AcDbEntity
  8
0
100
AcDbBlockBegin
  2
Dimension167
 70
     0
 10
0.0
 20
0.0
 30
0.0
  3
Dimension167
  1

  0
ENDBLK
  5
2E2
330
2E0
100
AcDbEntity
  8
0
100
AcDbBlockEnd
  0
BLOCK
  5
2E5
330
2E4
100
AcDbEntity
  8
0
100
AcDbBlockBegin
  2
Dimension168
 70
     0
 10
0.0
 20
0.0
 30
0.0
  3
Dimension168
  1

  0
ENDBLK
  5
2E6
330
2E4
100
AcDbEntity
  8
0
100
AcDbBlockEnd
  0
BLOCK
  5
2E9
330
2E8
100
AcDbEntity
  8
0
100
AcDbBlockBegin
  2
Dimension169
 70
     0
 10
0.0
 20
0.0
 30
0.0
  3
Dimension169
  1

  0
ENDBLK
  5
2EA
330
2E8
100
AcDbEntity
  8
0
100
AcDbBlockEnd
  0
BLOCK
  5
2ED
330
2EC
100
AcDbEntity
  8
0
100
AcDbBlockBegin
  2
Dimension170
 70
     0
 10
0.0
 20
0.0
 30
0.0
  3
Dimension170
  1

  0
ENDBLK
  5
2EE
330
2EC
100
AcDbEntity
  8
0
100
AcDbBlockEnd
  0
BLOCK
  5
2F1
330
2F0
100
AcDbEntity
  8
0
100
AcDbBlockBegin
  2
Dimension171
 70
     0
 10
0.0
 20
0.0
 30
0.0
  3
Dimension171
  1

  0
ENDBLK
  5
2F2
330
2F0
100
AcDbEntity
  8
0
100
AcDbBlockEnd
  0
BLOCK
  5
2F5
330
2F4
100
AcDbEntity
  8
0
100
AcDbBlockBegin
  2
Dimension172
 70
     0
 10
0.0
 20
0.0
 30
0.0
  3
Dimension172
  1

  0
ENDBLK
  5
2F6
330
2F4
100
AcDbEntity
  8
0
100
AcDbBlockEnd
  0
BLOCK
  5
2F9
330
2F8
100
AcDbEntity
  8
0
100
AcDbBlockBegin
  2
Dimension173
 70
     0
 10
0.0
 20
0.0
 30
0.0
  3
Dimension173
  1

  0
ENDBLK
  5
2FA
330
2F8
100
AcDbEntity
  8
0
100
AcDbBlockEnd
  0
BLOCK
  5
2FD
330
2FC
100
AcDbEntity
  8
0
100
AcDbBlockBegin
  2
Dimension174
 70
     0
 10
0.0
 20
0.0
 30
0.0
  3
Dimension174
  1

  0
ENDBLK
  5
2FE
330
2FC
100
AcDbEntity
  8
0
100
AcDbBlockEnd
  0
BLOCK
  5
301
330
300
100
AcDbEntity
  8
0
100
AcDbBlockBegin
  2
Dimension175
 70
     0
 10
0.0
 20
0.0
 30
0.0
  3
Dimension175
  1

  0
ENDBLK
  5
302
330
300
100
AcDbEntity
  8
0
100
AcDbBlockEnd
  0
BLOCK
  5
305
330
304
100
AcDbEntity
  8
0
100
AcDbBlockBegin
  2
Dimension176
 70
     0
 10
0.0
 20
0.0
 30
0.0
  3
Dimension176
  1

  0
ENDBLK
  5
306
330
304
100
AcDbEntity
  8
0
100
AcDbBlockEnd
  0
BLOCK
  5
309
330
308
100
AcDbEntity
  8
0
100
AcDbBlockBegin
  2
Dimension177
 70
     0
 10
0.0
 20
0.0
 30
0.0
  3
Dimension177
  1

  0
ENDBLK
  5
30A
330
308
100
AcDbEntity
  8
0
100
AcDbBlockEnd
  0
BLOCK
  5
30D
330
30C
100
AcDbEntity
  8
0
100
AcDbBlockBegin
  2
Dimension178
 70
     0
 10
0.0
 20
0.0
 30
0.0
  3
Dimension178
  1

  0
ENDBLK
  5
30E
330
30C
100
AcDbEntity
  8
0
100
AcDbBlockEnd
  0
BLOCK
  5
311
330
310
100
AcDbEntity
  8
0
100
AcDbBlockBegin
  2
Dimension179
 70
     0
 10
0.0
 20
0.0
 30
0.0
  3
Dimension179
  1

  0
ENDBLK
  5
312
330
310
100
AcDbEntity
  8
0
100
AcDbBlockEnd
  0
BLOCK
  5
315
330
314
100
AcDbEntity
  8
0
100
AcDbBlockBegin
  2
Dimension180
 70
     0
 10
0.0
 20
0.0
 30
0.0
  3
Dimension180
  1

  0
ENDBLK
  5
316
330
314
100
AcDbEntity
  8
0
100
AcDbBlockEnd
  0
BLOCK
  5
319
330
318
100
AcDbEntity
  8
0
100
AcDbBlockBegin
  2
Dimension181
 70
     0
 10
0.0
 20
0.0
 30
0.0
  3
Dimension181
  1

  0
ENDBLK
  5
31A
330
318
100
AcDbEntity
  8
0
100
AcDbBlockEnd
  0
BLOCK
  5
31D
330
31C
100
AcDbEntity
  8
0
100
AcDbBlockBegin
  2
Dimension182
 70
     0
 10
0.0
 20
0.0
 30
0.0
  3
Dimension182
  1

  0
ENDBLK
  5
31E
330
31C
100
AcDbEntity
  8
0
100
AcDbBlockEnd
  0
BLOCK
  5
321
330
320
100
AcDbEntity
  8
0
100
AcDbBlockBegin
  2
Dimension183
 70
     0
 10
0.0
 20
0.0
 30
0.0
  3
Dimension183
  1

  0
ENDBLK
  5
322
330
320
100
AcDbEntity
  8
0
100
AcDbBlockEnd
  0
BLOCK
  5
325
330
324
100
AcDbEntity
  8
0
100
AcDbBlockBegin
  2
Dimension184
 70
     0
 10
0.0
 20
0.0
 30
0.0
  3
Dimension184
  1

  0
ENDBLK
  5
326
330
324
100
AcDbEntity
  8
0
100
AcDbBlockEnd
  0
BLOCK
  5
329
330
328
100
AcDbEntity
  8
0
100
AcDbBlockBegin
  2
Dimension185
 70
     0
 10
0.0
 20
0.0
 30
0.0
  3
Dimension185
  1

  0
ENDBLK
  5
32A
330
328
100
AcDbEntity
  8
0
100
AcDbBlockEnd
  0
BLOCK
  5
32D
330
32C
100
AcDbEntity
  8
0
100
AcDbBlockBegin
  2
Dimension186
 70
     0
 10
0.0
 20
0.0
 30
0.0
  3
Dimension186
  1

  0
ENDBLK
  5
32E
330
32C
100
AcDbEntity
  8
0
100
AcDbBlockEnd
  0
BLOCK
  5
331
330
330
100
AcDbEntity
  8
0
100
AcDbBlockBegin
  2
Dimension187
 70
     0
 10
0.0
 20
0.0
 30
0.0
  3
Dimension187
  1

  0
ENDBLK
  5
332
330
330
100
AcDbEntity
  8
0
100
AcDbBlockEnd
  0
BLOCK
  5
335
330
334
100
AcDbEntity
  8
0
100
AcDbBlockBegin
  2
Dimension188
 70
     0
 10
0.0
 20
0.0
 30
0.0
  3
Dimension188
  1

  0
ENDBLK
  5
336
330
334
100
AcDbEntity
  8
0
100
AcDbBlockEnd
  0
BLOCK
  5
339
330
338
100
AcDbEntity
  8
0
100
AcDbBlockBegin
  2
Dimension189
 70
     0
 10
0.0
 20
0.0
 30
0.0
  3
Dimension189
  1

  0
ENDBLK
  5
33A
330
338
100
AcDbEntity
  8
0
100
AcDbBlockEnd
  0
BLOCK
  5
33E
330
33D
100
AcDbEntity
  8
0
100
AcDbBlockBegin
  2
Dimension190
 70
     0
 10
0.0
 20
0.0
 30
0.0
  3
Dimension190
  1

  0
ENDBLK
  5
33F
330
33D
100
AcDbEntity
  8
0
100
AcDbBlockEnd
  0
BLOCK
  5
342
330
341
100
AcDbEntity
  8
0
100
AcDbBlockBegin
  2
Dimension191
 70
     0
 10
0.0
 20
0.0
 30
0.0
  3
Dimension191
  1

  0
ENDBLK
  5
343
330
341
100
AcDbEntity
  8
0
100
AcDbBlockEnd
  0
BLOCK
  5
346
330
345
100
AcDbEntity
  8
0
100
AcDbBlockBegin
  2
Dimension192
 70
     0
 10
0.0
 20
0.0
 30
0.0
  3
Dimension192
  1

  0
ENDBLK
  5
347
330
345
100
AcDbEntity
  8
0
100
AcDbBlockEnd
  0
BLOCK
  5
34A
330
349
100
AcDbEntity
  8
0
100
AcDbBlockBegin
  2
Dimension193
 70
     0
 10
0.0
 20
0.0
 30
0.0
  3
Dimension193
  1

  0
ENDBLK
  5
34B
330
349
100
AcDbEntity
  8
0
100
AcDbBlockEnd
  0
BLOCK
  5
34E
330
34D
100
AcDbEntity
  8
0
100
AcDbBlockBegin
  2
Dimension194
 70
     0
 10
0.0
 20
0.0
 30
0.0
  3
Dimension194
  1

  0
ENDBLK
  5
34F
330
34D
100
AcDbEntity
  8
0
100
AcDbBlockEnd
  0
BLOCK
  5
352
330
351
100
AcDbEntity
  8
0
100
AcDbBlockBegin
  2
Dimension195
 70
     0
 10
0.0
 20
0.0
 30
0.0
  3
Dimension195
  1

  0
ENDBLK
  5
353
330
351
100
AcDbEntity
  8
0
100
AcDbBlockEnd
  0
BLOCK
  5
356
330
355
100
AcDbEntity
  8
0
100
AcDbBlockBegin
  2
Dimension196
 70
     0
 10
0.0
 20
0.0
 30
0.0
  3
Dimension196
  1

  0
ENDBLK
  5
357
330
355
100
AcDbEntity
  8
0
100
AcDbBlockEnd
  0
BLOCK
  5
35A
330
359
100
AcDbEntity
  8
0
100
AcDbBlockBegin
  2
Dimension197
 70
     0
 10
0.0
 20
0.0
 30
0.0
  3
Dimension197
  1

  0
ENDBLK
  5
35B
330
359
100
AcDbEntity
  8
0
100
AcDbBlockEnd
  0
BLOCK
  5
35E
330
35D
100
AcDbEntity
  8
0
100
AcDbBlockBegin
  2
Dimension198
 70
     0
 10
0.0
 20
0.0
 30
0.0
  3
Dimension198
  1

  0
ENDBLK
  5
35F
330
35D
100
AcDbEntity
  8
0
100
AcDbBlockEnd
  0
BLOCK
  5
362
330
361
100
AcDbEntity
  8
0
100
AcDbBlockBegin
  2
Dimension199
 70
     0
 10
0.0
 20
0.0
 30
0.0
  3
Dimension199
  1

  0
ENDBLK
  5
363
330
361
100
AcDbEntity
  8
0
100
AcDbBlockEnd
  0
BLOCK
  5
366
330
365
100
AcDbEntity
  8
0
100
AcDbBlockBegin
  2
Dimension200
 70
     0
 10
0.0
 20
0.0
 30
0.0
  3
Dimension200
  1

  0
ENDBLK
  5
367
330
365
100
AcDbEntity
  8
0
100
AcDbBlockEnd
  0
BLOCK
  5
36A
330
369
100
AcDbEntity
  8
0
100
AcDbBlockBegin
  2
Dimension201
 70
     0
 10
0.0
 20
0.0
 30
0.0
  3
Dimension201
  1

  0
ENDBLK
  5
36B
330
369
100
AcDbEntity
  8
0
100
AcDbBlockEnd
  0
BLOCK
  5
36E
330
36D
100
AcDbEntity
  8
0
100
AcDbBlockBegin
  2
Dimension202
 70
     0
 10
0.0
 20
0.0
 30
0.0
  3
Dimension202
  1

  0
ENDBLK
  5
36F
330
36D
100
AcDbEntity
  8
0
100
AcDbBlockEnd
  0
BLOCK
  5
372
330
371
100
AcDbEntity
  8
0
100
AcDbBlockBegin
  2
Dimension203
 70
     0
 10
0.0
 20
0.0
 30
0.0
  3
Dimension203
  1

  0
ENDBLK
  5
373
330
371
100
AcDbEntity
  8
0
100
AcDbBlockEnd
  0
BLOCK
  5
376
330
375
100
AcDbEntity
  8
0
100
AcDbBlockBegin
  2
Dimension204
 70
     0
 10
0.0
 20
0.0
 30
0.0
  3
Dimension204
  1

  0
ENDBLK
  5
377
330
375
100
AcDbEntity
  8
0
100
AcDbBlockEnd
  0
BLOCK
  5
37A
330
379
100
AcDbEntity
  8
0
100
AcDbBlockBegin
  2
Dimension205
 70
     0
 10
0.0
 20
0.0
 30
0.0
  3
Dimension205
  1

  0
ENDBLK
  5
37B
330
379
100
AcDbEntity
  8
0
100
AcDbBlockEnd
  0
BLOCK
  5
37E
330
37D
100
AcDbEntity
  8
0
100
AcDbBlockBegin
  2
Dimension206
 70
     0
 10
0.0
 20
0.0
 30
0.0
  3
Dimension206
  1

  0
ENDBLK
  5
37F
330
37D
100
AcDbEntity
  8
0
100
AcDbBlockEnd
  0
BLOCK
  5
382
330
381
100
AcDbEntity
  8
0
100
AcDbBlockBegin
  2
Dimension207
 70
     0
 10
0.0
 20
0.0
 30
0.0
  3
Dimension207
  1

  0
ENDBLK
  5
383
330
381
100
AcDbEntity
  8
0
100
AcDbBlockEnd
  0
BLOCK
  5
386
330
385
100
AcDbEntity
  8
0
100
AcDbBlockBegin
  2
Dimension208
 70
     0
 10
0.0
 20
0.0
 30
0.0
  3
Dimension208
  1

  0
ENDBLK
  5
387
330
385
100
AcDbEntity
  8
0
100
AcDbBlockEnd
  0
BLOCK
  5
38A
330
389
100
AcDbEntity
  8
0
100
AcDbBlockBegin
  2
Dimension209
 70
     0
 10
0.0
 20
0.0
 30
0.0
  3
Dimension209
  1

  0
ENDBLK
  5
38B
330
389
100
AcDbEntity
  8
0
100
AcDbBlockEnd
  0
BLOCK
  5
38E
330
38D
100
AcDbEntity
  8
0
100
AcDbBlockBegin
  2
Dimension210
 70
     0
 10
0.0
 20
0.0
 30
0.0
  3
Dimension210
  1

  0
ENDBLK
  5
38F
330
38D
100
AcDbEntity
  8
0
100
AcDbBlockEnd
  0
BLOCK
  5
392
330
391
100
AcDbEntity
  8
0
100
AcDbBlockBegin
  2
Dimension211
 70
     0
 10
0.0
 20
0.0
 30
0.0
  3
Dimension211
  1

  0
ENDBLK
  5
393
330
391
100
AcDbEntity
  8
0
100
AcDbBlockEnd
  0
BLOCK
  5
396
330
395
100
AcDbEntity
  8
0
100
AcDbBlockBegin
  2
Dimension212
 70
     0
 10
0.0
 20
0.0
 30
0.0
  3
Dimension212
  1

  0
ENDBLK
  5
397
330
395
100
AcDbEntity
  8
0
100
AcDbBlockEnd
  0
BLOCK
  5
39A
330
399
100
AcDbEntity
  8
0
100
AcDbBlockBegin
  2
Dimension213
 70
     0
 10
0.0
 20
0.0
 30
0.0
  3
Dimension213
  1

  0
ENDBLK
  5
39B
330
399
100
AcDbEntity
  8
0
100
AcDbBlockEnd
  0
BLOCK
  5
39E
330
39D
100
AcDbEntity
  8
0
100
AcDbBlockBegin
  2
Dimension214
 70
     0
 10
0.0
 20
0.0
 30
0.0
  3
Dimension214
  1

  0
ENDBLK
  5
39F
330
39D
100
AcDbEntity
  8
0
100
AcDbBlockEnd
  0
BLOCK
  5
3A2
330
3A1
100
AcDbEntity
  8
0
100
AcDbBlockBegin
  2
Dimension215
 70
     0
 10
0.0
 20
0.0
 30
0.0
  3
Dimension215
  1

  0
ENDBLK
  5
3A3
330
3A1
100
AcDbEntity
  8
0
100
AcDbBlockEnd
  0
BLOCK
  5
3A6
330
3A5
100
AcDbEntity
  8
0
100
AcDbBlockBegin
  2
Dimension216
 70
     0
 10
0.0
 20
0.0
 30
0.0
  3
Dimension216
  1

  0
ENDBLK
  5
3A7
330
3A5
100
AcDbEntity
  8
0
100
AcDbBlockEnd
  0
BLOCK
  5
3AB
330
3AA
100
AcDbEntity
  8
0
100
AcDbBlockBegin
  2
Dimension217
 70
     0
 10
0.0
 20
0.0
 30
0.0
  3
Dimension217
  1

  0
ENDBLK
  5
3AC
330
3AA
100
AcDbEntity
  8
0
100
AcDbBlockEnd
  0
BLOCK
  5
3AF
330
3AE
100
AcDbEntity
  8
0
100
AcDbBlockBegin
  2
Dimension218
 70
     0
 10
0.0
 20
0.0
 30
0.0
  3
Dimension218
  1

  0
ENDBLK
  5
3B0
330
3AE
100
AcDbEntity
  8
0
100
AcDbBlockEnd
  0
BLOCK
  5
3B3
330
3B2
100
AcDbEntity
  8
0
100
AcDbBlockBegin
  2
Dimension219
 70
     0
 10
0.0
 20
0.0
 30
0.0
  3
Dimension219
  1

  0
ENDBLK
  5
3B4
330
3B2
100
AcDbEntity
  8
0
100
AcDbBlockEnd
  0
BLOCK
  5
3B7
330
3B6
100
AcDbEntity
  8
0
100
AcDbBlockBegin
  2
Dimension220
 70
     0
 10
0.0
 20
0.0
 30
0.0
  3
Dimension220
  1

  0
ENDBLK
  5
3B8
330
3B6
100
AcDbEntity
  8
0
100
AcDbBlockEnd
  0
BLOCK
  5
3BB
330
3BA
100
AcDbEntity
  8
0
100
AcDbBlockBegin
  2
Dimension221
 70
     0
 10
0.0
 20
0.0
 30
0.0
  3
Dimension221
  1

  0
ENDBLK
  5
3BC
330
3BA
100
AcDbEntity
  8
0
100
AcDbBlockEnd
  0
BLOCK
  5
3BF
330
3BE
100
AcDbEntity
  8
0
100
AcDbBlockBegin
  2
Dimension222
 70
     0
 10
0.0
 20
0.0
 30
0.0
  3
Dimension222
  1

  0
ENDBLK
  5
3C0
330
3BE
100
AcDbEntity
  8
0
100
AcDbBlockEnd
  0
BLOCK
  5
3C3
330
3C2
100
AcDbEntity
  8
0
100
AcDbBlockBegin
  2
Dimension223
 70
     0
 10
0.0
 20
0.0
 30
0.0
  3
Dimension223
  1

  0
ENDBLK
  5
3C4
330
3C2
100
AcDbEntity
  8
0
100
AcDbBlockEnd
  0
BLOCK
  5
3C7
330
3C6
100
AcDbEntity
  8
0
100
AcDbBlockBegin
  2
Dimension224
 70
     0
 10
0.0
 20
0.0
 30
0.0
  3
Dimension224
  1

  0
ENDBLK
  5
3C8
330
3C6
100
AcDbEntity
  8
0
100
AcDbBlockEnd
  0
BLOCK
  5
3CB
330
3CA
100
AcDbEntity
  8
0
100
AcDbBlockBegin
  2
Dimension225
 70
     0
 10
0.0
 20
0.0
 30
0.0
  3
Dimension225
  1

  0
ENDBLK
  5
3CC
330
3CA
100
AcDbEntity
  8
0
100
AcDbBlockEnd
  0
BLOCK
  5
3CF
330
3CE
100
AcDbEntity
  8
0
100
AcDbBlockBegin
  2
Dimension226
 70
     0
 10
0.0
 20
0.0
 30
0.0
  3
Dimension226
  1

  0
ENDBLK
  5
3D0
330
3CE
100
AcDbEntity
  8
0
100
AcDbBlockEnd
  0
BLOCK
  5
3D3
330
3D2
100
AcDbEntity
  8
0
100
AcDbBlockBegin
  2
Dimension227
 70
     0
 10
0.0
 20
0.0
 30
0.0
  3
Dimension227
  1

  0
ENDBLK
  5
3D4
330
3D2
100
AcDbEntity
  8
0
100
AcDbBlockEnd
  0
BLOCK
  5
3D7
330
3D6
100
AcDbEntity
  8
0
100
AcDbBlockBegin
  2
Dimension228
 70
     0
 10
0.0
 20
0.0
 30
0.0
  3
Dimension228
  1

  0
ENDBLK
  5
3D8
330
3D6
100
AcDbEntity
  8
0
100
AcDbBlockEnd
  0
BLOCK
  5
3DB
330
3DA
100
AcDbEntity
  8
0
100
AcDbBlockBegin
  2
Dimension229
 70
     0
 10
0.0
 20
0.0
 30
0.0
  3
Dimension229
  1

  0
ENDBLK
  5
3DC
330
3DA
100
AcDbEntity
  8
0
100
AcDbBlockEnd
  0
BLOCK
  5
3DF
330
3DE
100
AcDbEntity
  8
0
100
AcDbBlockBegin
  2
Dimension230
 70
     0
 10
0.0
 20
0.0
 30
0.0
  3
Dimension230
  1

  0
ENDBLK
  5
3E0
330
3DE
100
AcDbEntity
  8
0
100
AcDbBlockEnd
  0
BLOCK
  5
3E3
330
3E2
100
AcDbEntity
  8
0
100
AcDbBlockBegin
  2
Dimension231
 70
     0
 10
0.0
 20
0.0
 30
0.0
  3
Dimension231
  1

  0
ENDBLK
  5
3E4
330
3E2
100
AcDbEntity
  8
0
100
AcDbBlockEnd
  0
BLOCK
  5
3E7
330
3E6
100
AcDbEntity
  8
0
100
AcDbBlockBegin
  2
Dimension232
 70
     0
 10
0.0
 20
0.0
 30
0.0
  3
Dimension232
  1

  0
ENDBLK
  5
3E8
330
3E6
100
AcDbEntity
  8
0
100
AcDbBlockEnd
  0
BLOCK
  5
3EB
330
3EA
100
AcDbEntity
  8
0
100
AcDbBlockBegin
  2
Dimension233
 70
     0
 10
0.0
 20
0.0
 30
0.0
  3
Dimension233
  1

  0
ENDBLK
  5
3EC
330
3EA
100
AcDbEntity
  8
0
100
AcDbBlockEnd
  0
BLOCK
  5
3EF
330
3EE
100
AcDbEntity
  8
0
100
AcDbBlockBegin
  2
Dimension234
 70
     0
 10
0.0
 20
0.0
 30
0.0
  3
Dimension234
  1

  0
ENDBLK
  5
3F0
330
3EE
100
AcDbEntity
  8
0
100
AcDbBlockEnd
  0
BLOCK
  5
3F3
330
3F2
100
AcDbEntity
  8
0
100
AcDbBlockBegin
  2
Dimension235
 70
     0
 10
0.0
 20
0.0
 30
0.0
  3
Dimension235
  1

  0
ENDBLK
  5
3F4
330
3F2
100
AcDbEntity
  8
0
100
AcDbBlockEnd
  0
BLOCK
  5
3F7
330
3F6
100
AcDbEntity
  8
0
100
AcDbBlockBegin
  2
Dimension236
 70
     0
 10
0.0
 20
0.0
 30
0.0
  3
Dimension236
  1

  0
ENDBLK
  5
3F8
330
3F6
100
AcDbEntity
  8
0
100
AcDbBlockEnd
  0
BLOCK
  5
3FB
330
3FA
100
AcDbEntity
  8
0
100
AcDbBlockBegin
  2
Dimension237
 70
     0
 10
0.0
 20
0.0
 30
0.0
  3
Dimension237
  1

  0
ENDBLK
  5
3FC
330
3FA
100
AcDbEntity
  8
0
100
AcDbBlockEnd
  0
BLOCK
  5
3FF
330
3FE
100
AcDbEntity
  8
0
100
AcDbBlockBegin
  2
Dimension238
 70
     0
 10
0.0
 20
0.0
 30
0.0
  3
Dimension238
  1

  0
ENDBLK
  5
400
330
3FE
100
AcDbEntity
  8
0
100
AcDbBlockEnd
  0
BLOCK
  5
403
330
402
100
AcDbEntity
  8
0
100
AcDbBlockBegin
  2
Dimension239
 70
     0
 10
0.0
 20
0.0
 30
0.0
  3
Dimension239
  1

  0
ENDBLK
  5
404
330
402
100
AcDbEntity
  8
0
100
AcDbBlockEnd
  0
BLOCK
  5
407
330
406
100
AcDbEntity
  8
0
100
AcDbBlockBegin
  2
Dimension240
 70
     0
 10
0.0
 20
0.0
 30
0.0
  3
Dimension240
  1

  0
ENDBLK
  5
408
330
406
100
AcDbEntity
  8
0
100
AcDbBlockEnd
  0
BLOCK
  5
40B
330
40A
100
AcDbEntity
  8
0
100
AcDbBlockBegin
  2
Dimension241
 70
     0
 10
0.0
 20
0.0
 30
0.0
  3
Dimension241
  1

  0
ENDBLK
  5
40C
330
40A
100
AcDbEntity
  8
0
100
AcDbBlockEnd
  0
BLOCK
  5
40F
330
40E
100
AcDbEntity
  8
0
100
AcDbBlockBegin
  2
Dimension242
 70
     0
 10
0.0
 20
0.0
 30
0.0
  3
Dimension242
  1

  0
ENDBLK
  5
410
330
40E
100
AcDbEntity
  8
0
100
AcDbBlockEnd
  0
BLOCK
  5
413
330
412
100
AcDbEntity
  8
0
100
AcDbBlockBegin
  2
Dimension243
 70
     0
 10
0.0
 20
0.0
 30
0.0
  3
Dimension243
  1

  0
ENDBLK
  5
414
330
412
100
AcDbEntity
  8
0
100
AcDbBlockEnd
  0
BLOCK
  5
418
330
417
100
AcDbEntity
  8
0
100
AcDbBlockBegin
  2
Dimension244
 70
     0
 10
0.0
 20
0.0
 30
0.0
  3
Dimension244
  1

  0
ENDBLK
  5
419
330
417
100
AcDbEntity
  8
0
100
AcDbBlockEnd
  0
BLOCK
  5
41C
330
41B
100
AcDbEntity
  8
0
100
AcDbBlockBegin
  2
Dimension245
 70
     0
 10
0.0
 20
0.0
 30
0.0
  3
Dimension245
  1

  0
ENDBLK
  5
41D
330
41B
100
AcDbEntity
  8
0
100
AcDbBlockEnd
  0
BLOCK
  5
420
330
41F
100
AcDbEntity
  8
0
100
AcDbBlockBegin
  2
Dimension246
 70
     0
 10
0.0
 20
0.0
 30
0.0
  3
Dimension246
  1

  0
ENDBLK
  5
421
330
41F
100
AcDbEntity
  8
0
100
AcDbBlockEnd
  0
BLOCK
  5
424
330
423
100
AcDbEntity
  8
0
100
AcDbBlockBegin
  2
Dimension247
 70
     0
 10
0.0
 20
0.0
 30
0.0
  3
Dimension247
  1

  0
ENDBLK
  5
425
330
423
100
AcDbEntity
  8
0
100
AcDbBlockEnd
  0
BLOCK
  5
428
330
427
100
AcDbEntity
  8
0
100
AcDbBlockBegin
  2
Dimension248
 70
     0
 10
0.0
 20
0.0
 30
0.0
  3
Dimension248
  1

  0
ENDBLK
  5
429
330
427
100
AcDbEntity
  8
0
100
AcDbBlockEnd
  0
BLOCK
  5
42C
330
42B
100
AcDbEntity
  8
0
100
AcDbBlockBegin
  2
Dimension249
 70
     0
 10
0.0
 20
0.0
 30
0.0
  3
Dimension249
  1

  0
ENDBLK
  5
42D
330
42B
100
AcDbEntity
  8
0
100
AcDbBlockEnd
  0
BLOCK
  5
430
330
42F
100
AcDbEntity
  8
0
100
AcDbBlockBegin
  2
Dimension250
 70
     0
 10
0.0
 20
0.0
 30
0.0
  3
Dimension250
  1

  0
ENDBLK
  5
431
330
42F
100
AcDbEntity
  8
0
100
AcDbBlockEnd
  0
BLOCK
  5
434
330
433
100
AcDbEntity
  8
0
100
AcDbBlockBegin
  2
Dimension251
 70
     0
 10
0.0
 20
0.0
 30
0.0
  3
Dimension251
  1

  0
ENDBLK
  5
435
330
433
100
AcDbEntity
  8
0
100
AcDbBlockEnd
  0
BLOCK
  5
438
330
437
100
AcDbEntity
  8
0
100
AcDbBlockBegin
  2
Dimension252
 70
     0
 10
0.0
 20
0.0
 30
0.0
  3
Dimension252
  1

  0
ENDBLK
  5
439
330
437
100
AcDbEntity
  8
0
100
AcDbBlockEnd
  0
BLOCK
  5
43C
330
43B
100
AcDbEntity
  8
0
100
AcDbBlockBegin
  2
Dimension253
 70
     0
 10
0.0
 20
0.0
 30
0.0
  3
Dimension253
  1

  0
ENDBLK
  5
43D
330
43B
100
AcDbEntity
  8
0
100
AcDbBlockEnd
  0
BLOCK
  5
440
330
43F
100
AcDbEntity
  8
0
100
AcDbBlockBegin
  2
Dimension254
 70
     0
 10
0.0
 20
0.0
 30
0.0
  3
Dimension254
  1

  0
ENDBLK
  5
441
330
43F
100
AcDbEntity
  8
0
100
AcDbBlockEnd
  0
BLOCK
  5
444
330
443
100
AcDbEntity
  8
0
100
AcDbBlockBegin
  2
Dimension255
 70
     0
 10
0.0
 20
0.0
 30
0.0
  3
Dimension255
  1

  0
ENDBLK
  5
445
330
443
100
AcDbEntity
  8
0
100
AcDbBlockEnd
  0
BLOCK
  5
448
330
447
100
AcDbEntity
  8
0
100
AcDbBlockBegin
  2
Dimension256
 70
     0
 10
0.0
 20
0.0
 30
0.0
  3
Dimension256
  1

  0
ENDBLK
  5
449
330
447
100
AcDbEntity
  8
0
100
AcDbBlockEnd
  0
BLOCK
  5
44C
330
44B
100
AcDbEntity
  8
0
100
AcDbBlockBegin
  2
Dimension257
 70
     0
 10
0.0
 20
0.0
 30
0.0
  3
Dimension257
  1

  0
ENDBLK
  5
44D
330
44B
100
AcDbEntity
  8
0
100
AcDbBlockEnd
  0
BLOCK
  5
450
330
44F
100
AcDbEntity
  8
0
100
AcDbBlockBegin
  2
Dimension258
 70
     0
 10
0.0
 20
0.0
 30
0.0
  3
Dimension258
  1

  0
ENDBLK
  5
451
330
44F
100
AcDbEntity
  8
0
100
AcDbBlockEnd
  0
BLOCK
  5
454
330
453
100
AcDbEntity
  8
0
100
AcDbBlockBegin
  2
Dimension259
 70
     0
 10
0.0
 20
0.0
 30
0.0
  3
Dimension259
  1

  0
ENDBLK
  5
455
330
453
100
AcDbEntity
  8
0
100
AcDbBlockEnd
  0
BLOCK
  5
458
330
457
100
AcDbEntity
  8
0
100
AcDbBlockBegin
  2
Dimension260
 70
     0
 10
0.0
 20
0.0
 30
0.0
  3
Dimension260
  1

  0
ENDBLK
  5
459
330
457
100
AcDbEntity
  8
0
100
AcDbBlockEnd
  0
BLOCK
  5
45C
330
45B
100
AcDbEntity
  8
0
100
AcDbBlockBegin
  2
Dimension261
 70
     0
 10
0.0
 20
0.0
 30
0.0
  3
Dimension261
  1

  0
ENDBLK
  5
45D
330
45B
100
AcDbEntity
  8
0
100
AcDbBlockEnd
  0
BLOCK
  5
460
330
45F
100
AcDbEntity
  8
0
100
AcDbBlockBegin
  2
Dimension262
 70
     0
 10
0.0
 20
0.0
 30
0.0
  3
Dimension262
  1

  0
ENDBLK
  5
461
330
45F
100
AcDbEntity
  8
0
100
AcDbBlockEnd
  0
BLOCK
  5
464
330
463
100
AcDbEntity
  8
0
100
AcDbBlockBegin
  2
Dimension263
 70
     0
 10
0.0
 20
0.0
 30
0.0
  3
Dimension263
  1

  0
ENDBLK
  5
465
330
463
100
AcDbEntity
  8
0
100
AcDbBlockEnd
  0
BLOCK
  5
468
330
467
100
AcDbEntity
  8
0
100
AcDbBlockBegin
  2
Dimension264
 70
     0
 10
0.0
 20
0.0
 30
0.0
  3
Dimension264
  1

  0
ENDBLK
  5
469
330
467
100
AcDbEntity
  8
0
100
AcDbBlockEnd
  0
BLOCK
  5
46C
330
46B
100
AcDbEntity
  8
0
100
AcDbBlockBegin
  2
Dimension265
 70
     0
 10
0.0
 20
0.0
 30
0.0
  3
Dimension265
  1

  0
ENDBLK
  5
46D
330
46B
100
AcDbEntity
  8
0
100
AcDbBlockEnd
  0
BLOCK
  5
470
330
46F
100
AcDbEntity
  8
0
100
AcDbBlockBegin
  2
Dimension266
 70
     0
 10
0.0
 20
0.0
 30
0.0
  3
Dimension266
  1

  0
ENDBLK
  5
471
330
46F
100
AcDbEntity
  8
0
100
AcDbBlockEnd
  0
BLOCK
  5
474
330
473
100
AcDbEntity
  8
0
100
AcDbBlockBegin
  2
Dimension267
 70
     0
 10
0.0
 20
0.0
 30
0.0
  3
Dimension267
  1

  0
ENDBLK
  5
475
330
473
100
AcDbEntity
  8
0
100
AcDbBlockEnd
  0
BLOCK
  5
478
330
477
100
AcDbEntity
  8
0
100
AcDbBlockBegin
  2
Dimension268
 70
     0
 10
0.0
 20
0.0
 30
0.0
  3
Dimension268
  1

  0
ENDBLK
  5
479
330
477
100
AcDbEntity
  8
0
100
AcDbBlockEnd
  0
BLOCK
  5
47C
330
47B
100
AcDbEntity
  8
0
100
AcDbBlockBegin
  2
Dimension269
 70
     0
 10
0.0
 20
0.0
 30
0.0
  3
Dimension269
  1

  0
ENDBLK
  5
47D
330
47B
100
AcDbEntity
  8
0
100
AcDbBlockEnd
  0
BLOCK
  5
480
330
47F
100
AcDbEntity
  8
0
100
AcDbBlockBegin
  2
Dimension270
 70
     0
 10
0.0
 20
0.0
 30
0.0
  3
Dimension270
  1

  0
ENDBLK
  5
481
330
47F
100
AcDbEntity
  8
0
100
AcDbBlockEnd
  0
BLOCK
  5
485
330
484
100
AcDbEntity
  8
0
100
AcDbBlockBegin
  2
Dimension271
 70
     0
 10
0.0
 20
0.0
 30
0.0
  3
Dimension271
  1

  0
ENDBLK
  5
486
330
484
100
AcDbEntity
  8
0
100
AcDbBlockEnd
  0
BLOCK
  5
489
330
488
100
AcDbEntity
  8
0
100
AcDbBlockBegin
  2
Dimension272
 70
     0
 10
0.0
 20
0.0
 30
0.0
  3
Dimension272
  1

  0
ENDBLK
  5
48A
330
488
100
AcDbEntity
  8
0
100
AcDbBlockEnd
  0
BLOCK
  5
48D
330
48C
100
AcDbEntity
  8
0
100
AcDbBlockBegin
  2
Dimension273
 70
     0
 10
0.0
 20
0.0
 30
0.0
  3
Dimension273
  1

  0
ENDBLK
  5
48E
330
48C
100
AcDbEntity
  8
0
100
AcDbBlockEnd
  0
BLOCK
  5
491
330
490
100
AcDbEntity
  8
0
100
AcDbBlockBegin
  2
Dimension274
 70
     0
 10
0.0
 20
0.0
 30
0.0
  3
Dimension274
  1

  0
ENDBLK
  5
492
330
490
100
AcDbEntity
  8
0
100
AcDbBlockEnd
  0
BLOCK
  5
495
330
494
100
AcDbEntity
  8
0
100
AcDbBlockBegin
  2
Dimension275
 70
     0
 10
0.0
 20
0.0
 30
0.0
  3
Dimension275
  1

  0
ENDBLK
  5
496
330
494
100
AcDbEntity
  8
0
100
AcDbBlockEnd
  0
BLOCK
  5
499
330
498
100
AcDbEntity
  8
0
100
AcDbBlockBegin
  2
Dimension276
 70
     0
 10
0.0
 20
0.0
 30
0.0
  3
Dimension276
  1

  0
ENDBLK
  5
49A
330
498
100
AcDbEntity
  8
0
100
AcDbBlockEnd
  0
BLOCK
  5
49D
330
49C
100
AcDbEntity
  8
0
100
AcDbBlockBegin
  2
Dimension277
 70
     0
 10
0.0
 20
0.0
 30
0.0
  3
Dimension277
  1

  0
ENDBLK
  5
49E
330
49C
100
AcDbEntity
  8
0
100
AcDbBlockEnd
  0
BLOCK
  5
4A1
330
4A0
100
AcDbEntity
  8
0
100
AcDbBlockBegin
  2
Dimension278
 70
     0
 10
0.0
 20
0.0
 30
0.0
  3
Dimension278
  1

  0
ENDBLK
  5
4A2
330
4A0
100
AcDbEntity
  8
0
100
AcDbBlockEnd
  0
BLOCK
  5
4A5
330
4A4
100
AcDbEntity
  8
0
100
AcDbBlockBegin
  2
Dimension279
 70
     0
 10
0.0
 20
0.0
 30
0.0
  3
Dimension279
  1

  0
ENDBLK
  5
4A6
330
4A4
100
AcDbEntity
  8
0
100
AcDbBlockEnd
  0
BLOCK
  5
4A9
330
4A8
100
AcDbEntity
  8
0
100
AcDbBlockBegin
  2
Dimension280
 70
     0
 10
0.0
 20
0.0
 30
0.0
  3
Dimension280
  1

  0
ENDBLK
  5
4AA
330
4A8
100
AcDbEntity
  8
0
100
AcDbBlockEnd
  0
BLOCK
  5
4AD
330
4AC
100
AcDbEntity
  8
0
100
AcDbBlockBegin
  2
Dimension281
 70
     0
 10
0.0
 20
0.0
 30
0.0
  3
Dimension281
  1

  0
ENDBLK
  5
4AE
330
4AC
100
AcDbEntity
  8
0
100
AcDbBlockEnd
  0
BLOCK
  5
4B1
330
4B0
100
AcDbEntity
  8
0
100
AcDbBlockBegin
  2
Dimension282
 70
     0
 10
0.0
 20
0.0
 30
0.0
  3
Dimension282
  1

  0
ENDBLK
  5
4B2
330
4B0
100
AcDbEntity
  8
0
100
AcDbBlockEnd
  0
BLOCK
  5
4B5
330
4B4
100
AcDbEntity
  8
0
100
AcDbBlockBegin
  2
Dimension283
 70
     0
 10
0.0
 20
0.0
 30
0.0
  3
Dimension283
  1

  0
ENDBLK
  5
4B6
330
4B4
100
AcDbEntity
  8
0
100
AcDbBlockEnd
  0
BLOCK
  5
4B9
330
4B8
100
AcDbEntity
  8
0
100
AcDbBlockBegin
  2
Dimension284
 70
     0
 10
0.0
 20
0.0
 30
0.0
  3
Dimension284
  1

  0
ENDBLK
  5
4BA
330
4B8
100
AcDbEntity
  8
0
100
AcDbBlockEnd
  0
BLOCK
  5
4BD
330
4BC
100
AcDbEntity
  8
0
100
AcDbBlockBegin
  2
Dimension285
 70
     0
 10
0.0
 20
0.0
 30
0.0
  3
Dimension285
  1

  0
ENDBLK
  5
4BE
330
4BC
100
AcDbEntity
  8
0
100
AcDbBlockEnd
  0
BLOCK
  5
4C1
330
4C0
100
AcDbEntity
  8
0
100
AcDbBlockBegin
  2
Dimension286
 70
     0
 10
0.0
 20
0.0
 30
0.0
  3
Dimension286
  1

  0
ENDBLK
  5
4C2
330
4C0
100
AcDbEntity
  8
0
100
AcDbBlockEnd
  0
BLOCK
  5
4C5
330
4C4
100
AcDbEntity
  8
0
100
AcDbBlockBegin
  2
Dimension287
 70
     0
 10
0.0
 20
0.0
 30
0.0
  3
Dimension287
  1

  0
ENDBLK
  5
4C6
330
4C4
100
AcDbEntity
  8
0
100
AcDbBlockEnd
  0
BLOCK
  5
4C9
330
4C8
100
AcDbEntity
  8
0
100
AcDbBlockBegin
  2
Dimension288
 70
     0
 10
0.0
 20
0.0
 30
0.0
  3
Dimension288
  1

  0
ENDBLK
  5
4CA
330
4C8
100
AcDbEntity
  8
0
100
AcDbBlockEnd
  0
BLOCK
  5
4CD
330
4CC
100
AcDbEntity
  8
0
100
AcDbBlockBegin
  2
Dimension289
 70
     0
 10
0.0
 20
0.0
 30
0.0
  3
Dimension289
  1

  0
ENDBLK
  5
4CE
330
4CC
100
AcDbEntity
  8
0
100
AcDbBlockEnd
  0
BLOCK
  5
4D1
330
4D0
100
AcDbEntity
  8
0
100
AcDbBlockBegin
  2
Dimension290
 70
     0
 10
0.0
 20
0.0
 30
0.0
  3
Dimension290
  1

  0
ENDBLK
  5
4D2
330
4D0
100
AcDbEntity
  8
0
100
AcDbBlockEnd
  0
BLOCK
  5
4D5
330
4D4
100
AcDbEntity
  8
0
100
AcDbBlockBegin
  2
Dimension291
 70
     0
 10
0.0
 20
0.0
 30
0.0
  3
Dimension291
  1

  0
ENDBLK
  5
4D6
330
4D4
100
AcDbEntity
  8
0
100
AcDbBlockEnd
  0
BLOCK
  5
4E5
330
4E4
100
AcDbEntity
  8
0
100
AcDbBlockBegin
  2
Dimension292
 70
     0
 10
0.0
 20
0.0
 30
0.0
  3
Dimension292
  1

  0
ENDBLK
  5
4E6
330
4E4
100
AcDbEntity
  8
0
100
AcDbBlockEnd
  0
BLOCK
  5
4E9
330
4E8
100
AcDbEntity
  8
0
100
AcDbBlockBegin
  2
Dimension293
 70
     0
 10
0.0
 20
0.0
 30
0.0
  3
Dimension293
  1

  0
ENDBLK
  5
4EA
330
4E8
100
AcDbEntity
  8
0
100
AcDbBlockEnd
  0
BLOCK
  5
4ED
330
4EC
100
AcDbEntity
  8
0
100
AcDbBlockBegin
  2
Dimension294
 70
     0
 10
0.0
 20
0.0
 30
0.0
  3
Dimension294
  1

  0
ENDBLK
  5
4EE
330
4EC
100
AcDbEntity
  8
0
100
AcDbBlockEnd
  0
BLOCK
  5
4F1
330
4F0
100
AcDbEntity
  8
0
100
AcDbBlockBegin
  2
Dimension295
 70
     0
 10
0.0
 20
0.0
 30
0.0
  3
Dimension295
  1

  0
ENDBLK
  5
4F2
330
4F0
100
AcDbEntity
  8
0
100
AcDbBlockEnd
  0
BLOCK
  5
4F5
330
4F4
100
AcDbEntity
  8
0
100
AcDbBlockBegin
  2
Dimension296
 70
     0
 10
0.0
 20
0.0
 30
0.0
  3
Dimension296
  1

  0
ENDBLK
  5
4F6
330
4F4
100
AcDbEntity
  8
0
100
AcDbBlockEnd
  0
BLOCK
  5
4F9
330
4F8
100
AcDbEntity
  8
0
100
AcDbBlockBegin
  2
Dimension297
 70
     0
 10
0.0
 20
0.0
 30
0.0
  3
Dimension297
  1

  0
ENDBLK
  5
4FA
330
4F8
100
AcDbEntity
  8
0
100
AcDbBlockEnd
  0
BLOCK
  5
508
330
4FE
100
AcDbEntity
  8
0
100
AcDbBlockBegin
  2
*D298
 70
     1
 10
0.0
 20
0.0
 30
0.0
  3
*D298
  1

  0
LINE
  5
4FF
330
4FE
100
AcDbEntity
  8
MO-565
  6
Continuous
 62
    18
 48
50.00000038146973
370
    -2
100
AcDbLine
 10
36597.11946097047
 20
18125.38091202366
 30
0.0
 11
36597.11946097047
 21
18085.38091292965
 31
0.0
  0
LINE
  5
500
330
4FE
100
AcDbEntity
  8
MO-565
  6
Continuous
 62
    18
 48
50.00000038146973
370
    -2
100
AcDbLine
 10
37164.07089858163
 20
18125.38091202366
 30
0.0
 11
37164.07089858163
 21
18085.38091292965
 31
0.0
  0
LINE
  5
501
330
4FE
100
AcDbEntity
  8
MO-565
  6
Continuous
 62
    18
 48
50.00000038146973
370
    -2
100
AcDbLine
 10
36612.11946156652
 20
18105.38091247665
 30
0.0
 11
37149.07089798558
 21
18105.38091247665
 31
0.0
  0
INSERT
  5
502
330
4FE
100
AcDbEntity
  8
MO-565
 62
    18
370
    -2
100
AcDbBlockReference
  2
_OPEN30
 10
36597.11946097047
 20
18105.38091247665
 30
0.0
 41
15.00000059604645
 42
15.00000059604645
 43
15.00000059604645
 50
180.0
  0
INSERT
  5
503
330
4FE
100
AcDbEntity
  8
MO-565
 62
    18
370
    -2
100
AcDbBlockReference
  2
_OPEN30
 10
37164.07089858163
 20
18105.38091247665
 30
0.0
 41
15.00000059604645
 42
15.00000059604645
 43
15.00000059604645
  0
MTEXT
  5
504
330
4FE
100
AcDbEntity
  8
MO-565
  6
Continuous
 62
     0
370
    25
100
AcDbMText
 10
36880.59517977605
 20
18145.80091656553
 30
0.0
 40
40.0
 41
0.0
 71
     5
 72
     1
  1
566.951
  7
ARIAL
 73
     1
 44
1.0
  0
POINT
  5
505
330
4FE
100
AcDbEntity
  8
Defpoints
 62
     0
100
AcDbPoint
 10
36597.11946097047
 20
18367.85025061526
 30
0.0
  0
POINT
  5
506
330
4FE
100
AcDbEntity
  8
Defpoints
 62
     0
100
AcDbPoint
 10
37164.07089858163
 20
18367.85025061526
 30
0.0
  0
POINT
  5
507
330
4FE
100
AcDbEntity
  8
Defpoints
 62
     0
100
AcDbPoint
 10
37164.07089858163
 20
18105.38091247665
 30
0.0
  0
ENDBLK
  5
509
330
4FE
100
AcDbEntity
  8
0
100
AcDbBlockEnd
  0
BLOCK
  5
50B
330
50A
100
AcDbEntity
  8
0
100
AcDbBlockBegin
  2
_OPEN30
 70
     0
 10
0.0
 20
0.0
 30
0.0
  3
_OPEN30
  1

  0
LINE
  5
50D
330
50A
100
AcDbEntity
  8
0
  6
ByBlock
 62
     0
370
    -2
100
AcDbLine
 10
-1.0
 20
0.267949
 30
0.0
 11
0.0
 21
0.0
 31
0.0
  0
LINE
  5
50E
330
50A
100
AcDbEntity
  8
0
  6
ByBlock
 62
     0
370
    -2
100
AcDbLine
 10
0.0
 20
0.0
 30
0.0
 11
-1.0
 21
-0.267949
 31
0.0
  0
LINE
  5
50F
330
50A
100
AcDbEntity
  8
0
  6
ByBlock
 62
     0
370
    -2
100
AcDbLine
 10
0.0
 20
0.0
 30
0.0
 11
-1.0
 21
0.0
 31
0.0
  0
ENDBLK
  5
50C
330
50A
100
AcDbEntity
  8
0
100
AcDbBlockEnd
  0
BLOCK
  5
51C
330
512
100
AcDbEntity
  8
0
100
AcDbBlockBegin
  2
*D300
 70
     1
 10
0.0
 20
0.0
 30
0.0
  3
*D300
  1

  0
LINE
  5
513
330
512
100
AcDbEntity
  8
MO-565
  6
Continuous
 62
    18
 48
50.00000038146973
370
    -2
100
AcDbLine
 10
36585.04904954367
 20
18071.38091202366
 30
0.0
 11
36585.04904954367
 21
18031.38091292965
 31
0.0
  0
LINE
  5
514
330
512
100
AcDbEntity
  8
MO-565
  6
Continuous
 62
    18
 48
50.00000038146973
370
    -2
100
AcDbLine
 10
37176.1339248742
 20
18071.38091202366
 30
0.0
 11
37176.1339248742
 21
18031.38091292965
 31
0.0
  0
LINE
  5
515
330
512
100
AcDbEntity
  8
MO-565
  6
Continuous
 62
    18
 48
50.00000038146973
370
    -2
100
AcDbLine
 10
36594.0490499013
 20
18051.38091247665
 30
0.0
 11
37167.13392451657
 21
18051.38091247665
 31
0.0
  0
INSERT
  5
516
330
512
100
AcDbEntity
  8
MO-565
 62
    18
370
    -2
100
AcDbBlockReference
  2
_OPEN30
 10
36585.04904954367
 20
18051.38091247665
 30
0.0
 41
9.000000357627869
 42
9.000000357627869
 43
9.000000357627869
 50
180.0
  0
INSERT
  5
517
330
512
100
AcDbEntity
  8
MO-565
 62
    18
370
    -2
100
AcDbBlockReference
  2
_OPEN30
 10
37176.1339248742
 20
18051.38091247665
 30
0.0
 41
9.000000357627869
 42
9.000000357627869
 43
9.000000357627869
  0
MTEXT
  5
518
330
512
100
AcDbEntity
  8
MO-565
  6
Continuous
 62
    18
370
    25
100
AcDbMText
 10
36880.59148720893
 20
18083.38091656553
 30
0.0
 40
24.0
 41
0.0
 71
     5
 72
     1
  1
591.085
  7
ROMAN
 73
     1
 44
1.0
  0
POINT
  5
519
330
512
100
AcDbEntity
  8
Defpoints
 62
     0
100
AcDbPoint
 10
36585.04904954367
 20
18367.84160551516
 30
0.0
  0
POINT
  5
51A
330
512
100
AcDbEntity
  8
Defpoints
 62
     0
100
AcDbPoint
 10
37176.1339248742
 20
18367.84160551516
 30
0.0
  0
POINT
  5
51B
330
512
100
AcDbEntity
  8
Defpoints
 62
     0
100
AcDbPoint
 10
37176.1339248742
 20
18051.38091247665
 30
0.0
  0
ENDBLK
  5
51D
330
512
100
AcDbEntity
  8
0
100
AcDbBlockEnd
  0
BLOCK
  5
529
330
51F
100
AcDbEntity
  8
0
100
AcDbBlockBegin
  2
*D301
 70
     1
 10
0.0
 20
0.0
 30
0.0
  3
*D301
  1

  0
LINE
  5
520
330
51F
100
AcDbEntity
  8
MO-565
  6
Continuous
 62
    18
 48
50.00000038146973
370
    -2
100
AcDbLine
 10
36546.03113466445
 20
18559.22718632898
 30
0.0
 11
36506.03113557044
 21
18559.22718632898
 31
0.0
  0
LINE
  5
521
330
51F
100
AcDbEntity
  8
MO-565
  6
Continuous
 62
    18
 48
50.00000038146973
370
    -2
100
AcDbLine
 10
36546.03113466445
 20
18176.47331490153
 30
0.0
 11
36506.03113557044
 21
18176.47331490153
 31
0.0
  0
LINE
  5
522
330
51F
100
AcDbEntity
  8
MO-565
  6
Continuous
 62
    18
 48
50.00000038146973
370
    -2
100
AcDbLine
 10
36526.03113511745
 20
18544.22718573294
 30
0.0
 11
36526.03113511745
 21
18191.47331549758
 31
0.0
  0
INSERT
  5
523
330
51F
100
AcDbEntity
  8
MO-565
 62
    18
370
    -2
100
AcDbBlockReference
  2
_OPEN30
 10
36526.03113511745
 20
18559.22718632898
 30
0.0
 41
15.00000059604645
 42
15.00000059604645
 43
15.00000059604645
 50
90.0
  0
INSERT
  5
524
330
51F
100
AcDbEntity
  8
MO-565
 62
    18
370
    -2
100
AcDbBlockReference
  2
_OPEN30
 10
36526.03113511745
 20
18176.47331490153
 30
0.0
 41
15.00000059604645
 42
15.00000059604645
 43
15.00000059604645
 50
270.0
  0
MTEXT
  5
525
330
51F
100
AcDbEntity
  8
MO-565
  6
Continuous
 62
     0
370
    25
100
AcDbMText
 10
36485.61113102857
 20
18367.85025061526
 30
0.0
 40
40.0
 41
0.0
 71
     5
 72
     1
  1
382.754
  7
ARIAL
 11
0.0
 21
1.0
 31
0.0
 73
     1
 44
1.0
  0
POINT
  5
526
330
51F
100
AcDbEntity
  8
Defpoints
 62
     0
100
AcDbPoint
 10
36880.59517977605
 20
18559.22718632898
 30
0.0
  0
POINT
  5
527
330
51F
100
AcDbEntity
  8
Defpoints
 62
     0
100
AcDbPoint
 10
36880.59517977605
 20
18176.47331490153
 30
0.0
  0
POINT
  5
528
330
51F
100
AcDbEntity
  8
Defpoints
 62
     0
100
AcDbPoint
 10
36526.03113511745
 20
18176.47331490153
 30
0.0
  0
ENDBLK
  5
52A
330
51F
100
AcDbEntity
  8
0
100
AcDbBlockEnd
  0
BLOCK
  5
536
330
52C
100
AcDbEntity
  8
0
100
AcDbBlockBegin
  2
*D302
 70
     1
 10
0.0
 20
0.0
 30
0.0
  3
*D302
  1

  0
LINE
  5
52D
330
52C
100
AcDbEntity
  8
MO-565
  6
Continuous
 62
    18
 48
50.00000038146973
370
    -2
100
AcDbLine
 10
36492.2644150714
 20
18571.30229855368
 30
0.0
 11
36452.26441597739
 21
18571.30229855368
 31
0.0
  0
LINE
  5
52E
330
52C
100
AcDbEntity
  8
MO-565
  6
Continuous
 62
    18
 48
50.00000038146973
370
    -2
100
AcDbLine
 10
36492.2644150714
 20
18164.38091247666
 30
0.0
 11
36452.26441597739
 21
18164.38091247666
 31
0.0
  0
LINE
  5
52F
330
52C
100
AcDbEntity
  8
MO-565
  6
Continuous
 62
    18
 48
50.00000038146973
370
    -2
100
AcDbLine
 10
36472.2644155244
 20
18562.30229819605
 30
0.0
 11
36472.2644155244
 21
18173.38091283428
 31
0.0
  0
INSERT
  5
530
330
52C
100
AcDbEntity
  8
MO-565
 62
    18
370
    -2
100
AcDbBlockReference
  2
_OPEN30
 10
36472.2644155244
 20
18571.30229855368
 30
0.0
 41
9.000000357627869
 42
9.000000357627869
 43
9.000000357627869
 50
90.0
  0
INSERT
  5
531
330
52C
100
AcDbEntity
  8
MO-565
 62
    18
370
    -2
100
AcDbBlockReference
  2
_OPEN30
 10
36472.2644155244
 20
18164.38091247666
 30
0.0
 41
9.000000357627869
 42
9.000000357627869
 43
9.000000357627869
 50
270.0
  0
MTEXT
  5
532
330
52C
100
AcDbEntity
  8
MO-565
  6
Continuous
 62
    18
370
    25
100
AcDbMText
 10
36440.26441143552
 20
18367.84160551517
 30
0.0
 40
24.0
 41
0.0
 71
     5
 72
     1
  1
406.921
  7
ROMAN
 11
0.0
 21
1.0
 31
0.0
 73
     1
 44
1.0
  0
POINT
  5
533
330
52C
100
AcDbEntity
  8
Defpoints
 62
     0
100
AcDbPoint
 10
36880.59148720893
 20
18571.30229855368
 30
0.0
  0
POINT
  5
534
330
52C
100
AcDbEntity
  8
Defpoints
 62
     0
100
AcDbPoint
 10
36880.59148720893
 20
18164.38091247666
 30
0.0
  0
POINT
  5
535
330
52C
100
AcDbEntity
  8
Defpoints
 62
     0
100
AcDbPoint
 10
36472.2644155244
 20
18164.38091247666
 30
0.0
  0
ENDBLK
  5
537
330
52C
100
AcDbEntity
  8
0
100
AcDbBlockEnd
  0
BLOCK
  5
543
330
539
100
AcDbEntity
  8
0
100
AcDbBlockBegin
  2
*D303
 70
     1
 10
0.0
 20
0.0
 30
0.0
  3
*D303
  1

  0
LINE
  5
53A
330
539
100
AcDbEntity
  8
MO-565
  6
Continuous
 62
    18
 48
50.00000038146973
370
    -2
100
AcDbLine
 10
37215.13392532719
 20
17924.51567622937
 30
0.0
 11
37255.13392442121
 21
17924.51567622937
 31
0.0
  0
LINE
  5
53B
330
539
100
AcDbEntity
  8
MO-565
  6
Continuous
 62
    18
 48
50.00000038146973
370
    -2
100
AcDbLine
 10
37215.13392532719
 20
17781.51567622938
 30
0.0
 11
37255.13392442121
 21
17781.51567622938
 31
0.0
  0
LINE
  5
53C
330
539
100
AcDbEntity
  8
MO-565
  6
Continuous
 62
    18
 48
50.00000038146973
370
    -2
100
AcDbLine
 10
37235.1339248742
 20
17915.51567587175
 30
0.0
 11
37235.1339248742
 21
17790.51567658701
 31
0.0
  0
INSERT
  5
53D
330
539
100
AcDbEntity
  8
MO-565
 62
    18
370
    -2
100
AcDbBlockReference
  2
_OPEN30
 10
37235.1339248742
 20
17924.51567622937
 30
0.0
 41
9.000000357627869
 42
9.000000357627869
 43
9.000000357627869
 50
90.0
  0
INSERT
  5
53E
330
539
100
AcDbEntity
  8
MO-565
 62
    18
370
    -2
100
AcDbBlockReference
  2
_OPEN30
 10
37235.1339248742
 20
17781.51567622938
 30
0.0
 41
9.000000357627869
 42
9.000000357627869
 43
9.000000357627869
 50
270.0
  0
MTEXT
  5
53F
330
539
100
AcDbEntity
  8
MO-565
  6
Continuous
 62
    18
370
    25
100
AcDbMText
 10
37203.13392078532
 20
17853.01567622938
 30
0.0
 40
24.0
 41
0.0
 71
     5
 72
     1
  1
143
  7
ROMAN
 11
0.0
 21
1.0
 31
0.0
 73
     1
 44
1.0
  0
POINT
  5
540
330
539
100
AcDbEntity
  8
Defpoints
 62
     0
100
AcDbPoint
 10
37176.1339248742
 20
17924.51567622937
 30
0.0
  0
POINT
  5
541
330
539
100
AcDbEntity
  8
Defpoints
 62
     0
100
AcDbPoint
 10
36880.58863735151
 20
17781.51567622938
 30
0.0
  0
POINT
  5
542
330
539
100
AcDbEntity
  8
Defpoints
 62
     0
100
AcDbPoint
 10
37235.1339248742
 20
17781.51567622938
 30
0.0
  0
ENDBLK
  5
544
330
539
100
AcDbEntity
  8
0
100
AcDbBlockEnd
  0
BLOCK
  5
550
330
546
100
AcDbEntity
  8
0
100
AcDbBlockBegin
  2
*D304
 70
     1
 10
0.0
 20
0.0
 30
0.0
  3
*D304
  1

  0
LINE
  5
547
330
546
100
AcDbEntity
  8
MO-565
  6
Continuous
 62
    18
 48
50.00000038146973
370
    -2
100
AcDbLine
 10
37215.13392532719
 20
18559.22718632898
 30
0.0
 11
37255.13392442121
 21
18559.22718632898
 31
0.0
  0
LINE
  5
548
330
546
100
AcDbEntity
  8
MO-565
  6
Continuous
 62
    18
 48
50.00000038146973
370
    -2
100
AcDbLine
 10
37215.13392532719
 20
18407.84760010481
 30
0.0
 11
37255.13392442121
 21
18407.84760010481
 31
0.0
  0
LINE
  5
549
330
546
100
AcDbEntity
  8
MO-565
  6
Continuous
 62
    18
 48
50.00000038146973
370
    -2
100
AcDbLine
 10
37235.1339248742
 20
18559.22718632898
 30
0.0
 11
37235.1339248742
 21
18407.84760010481
 31
0.0
  0
LINE
  5
54A
330
546
100
AcDbEntity
  8
MO-565
  6
Continuous
 62
    18
 48
50.00000038146973
370
    -2
100
AcDbLine
 10
37235.1339248742
 20
18568.22718668661
 30
0.0
 11
37235.1339248742
 21
18577.22718704424
 31
0.0
  0
LINE
  5
54B
330
546
100
AcDbEntity
  8
MO-565
  6
Continuous
 62
    18
 48
50.00000038146973
370
    -2
100
AcDbLine
 10
37235.1339248742
 20
18398.84759974718
 30
0.0
 11
37235.1339248742
 21
18389.84759938956
 31
0.0
  0
INSERT
  5
54C
330
546
100
AcDbEntity
  8
MO-565
 62
    18
370
    -2
100
AcDbBlockReference
  2
_OPEN30
 10
37235.1339248742
 20
18559.22718632898
 30
0.0
 41
9.000000357627869
 42
9.000000357627869
 43
9.000000357627869
 50
270.0
  0
INSERT
  5
54D
330
546
100
AcDbEntity
  8
MO-565
 62
    18
370
    -2
100
AcDbBlockReference
  2
_OPEN30
 10
37235.1339248742
 20
18407.84760010481
 30
0.0
 41
9.000000357627869
 42
9.000000357627869
 43
9.000000357627869
 50
90.0
  0
MTEXT
  5
54E
330
546
100
AcDbEntity
  8
MO-565
  6
Continuous
 62
    18
370
    25
100
AcDbMText
 10
37203.13392078532
 20
18483.53739321689
 30
0.0
 40
24.0
 41
0.0
 71
     5
 72
     1
  1
151.38
  7
ROMAN
 11
0.0
 21
1.0
 31
0.0
 73
     1
 44
1.0
  0
POINT
  5
54F
330
546
100
AcDbEntity
  8
Defpoints
 62
     0
100
AcDbPoint
 10
36880.59517977605
 20
18559.22718632898
 30
0.0
  0
POINT
  5
552
330
546
100
AcDbEntity
  8
Defpoints
 62
     0
100
AcDbPoint
 10
36880.59517977605
 20
18407.84760010481
 30
0.0
  0
POINT
  5
553
330
546
100
AcDbEntity
  8
Defpoints
 62
     0
100
AcDbPoint
 10
37235.1339248742
 20
18407.84760010481
 30
0.0
  0
ENDBLK
  5
551
330
546
100
AcDbEntity
  8
0
100
AcDbBlockEnd
  0
BLOCK
  5
555
330
554
100
AcDbEntity
  8
0
100
AcDbBlockBegin
  2
Dimension298
 70
     0
 10
0.0
 20
0.0
 30
0.0
  3
Dimension298
  1

  0
ENDBLK
  5
556
330
554
100
AcDbEntity
  8
0
100
AcDbBlockEnd
  0
BLOCK
  5
559
330
558
100
AcDbEntity
  8
0
100
AcDbBlockBegin
  2
Dimension299
 70
     0
 10
0.0
 20
0.0
 30
0.0
  3
Dimension299
  1

  0
ENDBLK
  5
55A
330
558
100
AcDbEntity
  8
0
100
AcDbBlockEnd
  0
BLOCK
  5
5CE
330
5CD
100
AcDbEntity
  8
0
100
AcDbBlockBegin
  2
Dimension300
 70
     0
 10
0.0
 20
0.0
 30
0.0
  3
Dimension300
  1

  0
ENDBLK
  5
5CF
330
5CD
100
AcDbEntity
  8
0
100
AcDbBlockEnd
  0
BLOCK
  5
5D2
330
5D1
100
AcDbEntity
  8
0
100
AcDbBlockBegin
  2
Dimension301
 70
     0
 10
0.0
 20
0.0
 30
0.0
  3
Dimension301
  1

  0
ENDBLK
  5
5D3
330
5D1
100
AcDbEntity
  8
0
100
AcDbBlockEnd
  0
BLOCK
  5
5E0
330
5D6
100
AcDbEntity
  8
0
100
AcDbBlockBegin
  2
*D309
 70
     1
 10
0.0
 20
0.0
 30
0.0
  3
*D309
  1

  0
LINE
  5
5D7
330
5D6
100
AcDbEntity
  8
MO-565
  6
Continuous
 62
    18
 48
50.00000038146973
370
    -2
100
AcDbLine
 10
37376.1339248742
 20
18610.67876306941
 30
0.0
 11
37376.1339248742
 21
18650.67876216342
 31
0.0
  0
LINE
  5
5D8
330
5D6
100
AcDbEntity
  8
MO-565
  6
Continuous
 62
    18
 48
50.00000038146973
370
    -2
100
AcDbLine
 10
37501.97029504544
 20
18610.67876306941
 30
0.0
 11
37501.97029504544
 21
18650.67876216342
 31
0.0
  0
LINE
  5
5D9
330
5D6
100
AcDbEntity
  8
MO-565
  6
Continuous
 62
    18
 48
50.00000038146973
370
    -2
100
AcDbLine
 10
37376.1339248742
 20
18630.67876261641
 30
0.0
 11
37501.97029504544
 21
18630.67876261641
 31
0.0
  0
LINE
  5
5DA
330
5D6
100
AcDbEntity
  8
MO-565
  6
Continuous
 62
    18
 48
50.00000038146973
370
    -2
100
AcDbLine
 10
37361.13392427815
 20
18630.67876261641
 30
0.0
 11
37346.13392368211
 21
18630.67876261641
 31
0.0
  0
LINE
  5
5DB
330
5D6
100
AcDbEntity
  8
MO-565
  6
Continuous
 62
    18
 48
50.00000038146973
370
    -2
100
AcDbLine
 10
37516.97029564149
 20
18630.67876261641
 30
0.0
 11
37531.97029623754
 21
18630.67876261641
 31
0.0
  0
INSERT
  5
5DC
330
5D6
100
AcDbEntity
  8
MO-565
 62
    18
370
    -2
100
AcDbBlockReference
  2
_OPEN30
 10
37376.1339248742
 20
18630.67876261641
 30
0.0
 41
15.00000059604645
 42
15.00000059604645
 43
15.00000059604645
  0
INSERT
  5
5DD
330
5D6
100
AcDbEntity
  8
MO-565
 62
    18
370
    -2
100
AcDbBlockReference
  2
_OPEN30
 10
37501.97029504544
 20
18630.67876261641
 30
0.0
 41
15.00000059604645
 42
15.00000059604645
 43
15.00000059604645
 50
180.0
  0
MTEXT
  5
5DE
330
5D6
100
AcDbEntity
  8
MO-565
  6
Continuous
 62
     0
370
    25
100
AcDbMText
 10
37439.05210995983
 20
18671.09876670529
 30
0.0
 40
40.0
 41
0.0
 71
     5
 72
     1
  1
125.836
  7
ARIAL
 73
     1
 44
1.0
  0
POINT
  5
5DF
330
5D6
100
AcDbEntity
  8
Defpoints
 62
     0
100
AcDbPoint
 10
37376.1339248742
 20
18571.24509056391
 30
0.0
  0
POINT
  5
5E2
330
5D6
100
AcDbEntity
  8
Defpoints
 62
     0
100
AcDbPoint
 10
37501.97029504544
 20
18407.57706462602
 30
0.0
  0
POINT
  5
5E3
330
5D6
100
AcDbEntity
  8
Defpoints
 62
     0
100
AcDbPoint
 10
37501.97029504544
 20
18630.67876261641
 30
0.0
  0
ENDBLK
  5
5E1
330
5D6
100
AcDbEntity
  8
0
100
AcDbBlockEnd
  0
ENDSEC
  0
SECTION
  2
ENTITIES
  0
INSERT
  5
45
330
1F
100
AcDbEntity
  8
Smart 8213
  6
Continuous
 62
    18
420
        0
 48
50.00000038146973
370
    25
100
AcDbBlockReference
  2
Dimension1
 10
0.0
 20
0.0
 30
0.0
  0
INSERT
  5
49
330
1F
100
AcDbEntity
  8
Smart 8213
  6
Continuous
 62
    18
420
        0
 48
50.00000038146973
370
    25
100
AcDbBlockReference
  2
Dimension2
 10
0.0
 20
0.0
 30
0.0
  0
INSERT
  5
4D
330
1F
100
AcDbEntity
  8
Smart 8213
  6
Continuous
 62
    18
420
        0
 48
50.00000038146973
370
    25
100
AcDbBlockReference
  2
Dimension3
 10
0.0
 20
0.0
 30
0.0
  0
INSERT
  5
51
330
1F
100
AcDbEntity
  8
Smart 8213
  6
Continuous
 62
    18
420
        0
 48
50.00000038146973
370
    25
100
AcDbBlockReference
  2
Dimension4
 10
0.0
 20
0.0
 30
0.0
  0
INSERT
  5
55
330
1F
100
AcDbEntity
  8
Smart 8213
  6
Continuous
 62
    18
420
        0
 48
50.00000038146973
370
    25
100
AcDbBlockReference
  2
Dimension5
 10
0.0
 20
0.0
 30
0.0
  0
INSERT
  5
59
330
1F
100
AcDbEntity
  8
Smart 8213
  6
Continuous
 62
    18
420
        0
 48
50.00000038146973
370
    25
100
AcDbBlockReference
  2
Dimension6
 10
0.0
 20
0.0
 30
0.0
  0
INSERT
  5
5D
330
1F
100
AcDbEntity
  8
Smart 8213
  6
Continuous
 62
    18
420
        0
 48
50.00000038146973
370
    25
100
AcDbBlockReference
  2
Dimension7
 10
0.0
 20
0.0
 30
0.0
  0
INSERT
  5
61
330
1F
100
AcDbEntity
  8
Smart 8213
  6
Continuous
 62
    18
420
        0
 48
50.00000038146973
370
    25
100
AcDbBlockReference
  2
Dimension8
 10
0.0
 20
0.0
 30
0.0
  0
INSERT
  5
65
330
1F
100
AcDbEntity
  8
Smart 8213
  6
Continuous
 62
    18
420
        0
 48
50.00000038146973
370
    25
100
AcDbBlockReference
  2
Dimension9
 10
0.0
 20
0.0
 30
0.0
  0
INSERT
  5
69
330
1F
100
AcDbEntity
  8
Smart 8213
  6
Continuous
 62
    18
420
        0
 48
50.00000038146973
370
    25
100
AcDbBlockReference
  2
Dimension10
 10
0.0
 20
0.0
 30
0.0
  0
INSERT
  5
6D
330
1F
100
AcDbEntity
  8
Smart 8213
  6
Continuous
 62
    18
420
        0
 48
50.00000038146973
370
    25
100
AcDbBlockReference
  2
Dimension11
 10
0.0
 20
0.0
 30
0.0
  0
INSERT
  5
71
330
1F
100
AcDbEntity
  8
Smart 8213
  6
Continuous
 62
    18
420
        0
 48
50.00000038146973
370
    25
100
AcDbBlockReference
  2
Dimension12
 10
0.0
 20
0.0
 30
0.0
  0
INSERT
  5
75
330
1F
100
AcDbEntity
  8
Smart 8213
  6
Continuous
 62
    18
420
        0
 48
50.00000038146973
370
    25
100
AcDbBlockReference
  2
Dimension13
 10
0.0
 20
0.0
 30
0.0
  0
INSERT
  5
79
330
1F
100
AcDbEntity
  8
Smart 8213
  6
Continuous
 62
    18
420
        0
 48
50.00000038146973
370
    25
100
AcDbBlockReference
  2
Dimension14
 10
0.0
 20
0.0
 30
0.0
  0
INSERT
  5
7D
330
1F
100
AcDbEntity
  8
Smart 8213
  6
Continuous
 62
    18
420
        0
 48
50.00000038146973
370
    25
100
AcDbBlockReference
  2
Dimension15
 10
0.0
 20
0.0
 30
0.0
  0
INSERT
  5
81
330
1F
100
AcDbEntity
  8
Smart 8213
  6
Continuous
 62
    18
420
        0
 48
50.00000038146973
370
    25
100
AcDbBlockReference
  2
Dimension16
 10
0.0
 20
0.0
 30
0.0
  0
INSERT
  5
85
330
1F
100
AcDbEntity
  8
Smart 8213
  6
Continuous
 62
    18
420
        0
 48
50.00000038146973
370
    25
100
AcDbBlockReference
  2
Dimension17
 10
0.0
 20
0.0
 30
0.0
  0
INSERT
  5
89
330
1F
100
AcDbEntity
  8
Smart 8213
  6
Continuous
 62
    18
420
        0
 48
50.00000038146973
370
    25
100
AcDbBlockReference
  2
Dimension18
 10
0.0
 20
0.0
 30
0.0
  0
INSERT
  5
8D
330
1F
100
AcDbEntity
  8
Smart 8213
  6
Continuous
 62
    18
420
        0
 48
50.00000038146973
370
    25
100
AcDbBlockReference
  2
Dimension19
 10
0.0
 20
0.0
 30
0.0
  0
INSERT
  5
91
330
1F
100
AcDbEntity
  8
Smart 8213
  6
Continuous
 62
    18
420
        0
 48
50.00000038146973
370
    25
100
AcDbBlockReference
  2
Dimension20
 10
0.0
 20
0.0
 30
0.0
  0
INSERT
  5
95
330
1F
100
AcDbEntity
  8
Smart 8213
  6
Continuous
 62
    18
420
        0
 48
50.00000038146973
370
    25
100
AcDbBlockReference
  2
Dimension21
 10
0.0
 20
0.0
 30
0.0
  0
INSERT
  5
99
330
1F
100
AcDbEntity
  8
Smart 8213
  6
Continuous
 62
    18
420
        0
 48
50.00000038146973
370
    25
100
AcDbBlockReference
  2
Dimension22
 10
0.0
 20
0.0
 30
0.0
  0
INSERT
  5
9D
330
1F
100
AcDbEntity
  8
Smart 8213
  6
Continuous
 62
    18
420
        0
 48
50.00000038146973
370
    25
100
AcDbBlockReference
  2
Dimension23
 10
0.0
 20
0.0
 30
0.0
  0
INSERT
  5
A1
330
1F
100
AcDbEntity
  8
Smart 8213
  6
Continuous
 62
    18
420
        0
 48
50.00000038146973
370
    25
100
AcDbBlockReference
  2
Dimension24
 10
0.0
 20
0.0
 30
0.0
  0
INSERT
  5
A5
330
1F
100
AcDbEntity
  8
Smart 8213
  6
Continuous
 62
    18
420
        0
 48
50.00000038146973
370
    25
100
AcDbBlockReference
  2
Dimension25
 10
0.0
 20
0.0
 30
0.0
  0
INSERT
  5
A9
330
1F
100
AcDbEntity
  8
Smart 8213
  6
Continuous
 62
    18
420
        0
 48
50.00000038146973
370
    25
100
AcDbBlockReference
  2
Dimension26
 10
0.0
 20
0.0
 30
0.0
  0
INSERT
  5
AD
330
1F
100
AcDbEntity
  8
Smart 8213
  6
Continuous
 62
    18
420
        0
 48
50.00000038146973
370
    25
100
AcDbBlockReference
  2
Dimension27
 10
0.0
 20
0.0
 30
0.0
  0
INSERT
  5
B2
330
1F
100
AcDbEntity
  8
Smart 8214
  6
Continuous
 62
    18
420
        0
 48
50.00000038146973
370
    25
100
AcDbBlockReference
  2
Dimension28
 10
0.0
 20
0.0
 30
0.0
  0
INSERT
  5
B6
330
1F
100
AcDbEntity
  8
Smart 8214
  6
Continuous
 62
    18
420
        0
 48
50.00000038146973
370
    25
100
AcDbBlockReference
  2
Dimension29
 10
0.0
 20
0.0
 30
0.0
  0
INSERT
  5
BA
330
1F
100
AcDbEntity
  8
Smart 8214
  6
Continuous
 62
    18
420
        0
 48
50.00000038146973
370
    25
100
AcDbBlockReference
  2
Dimension30
 10
0.0
 20
0.0
 30
0.0
  0
INSERT
  5
BE
330
1F
100
AcDbEntity
  8
Smart 8214
  6
Continuous
 62
    18
420
        0
 48
50.00000038146973
370
    25
100
AcDbBlockReference
  2
Dimension31
 10
0.0
 20
0.0
 30
0.0
  0
INSERT
  5
C2
330
1F
100
AcDbEntity
  8
Smart 8214
  6
Continuous
 62
    18
420
        0
 48
50.00000038146973
370
    25
100
AcDbBlockReference
  2
Dimension32
 10
0.0
 20
0.0
 30
0.0
  0
INSERT
  5
C6
330
1F
100
AcDbEntity
  8
Smart 8214
  6
Continuous
 62
    18
420
        0
 48
50.00000038146973
370
    25
100
AcDbBlockReference
  2
Dimension33
 10
0.0
 20
0.0
 30
0.0
  0
INSERT
  5
CA
330
1F
100
AcDbEntity
  8
Smart 8214
  6
Continuous
 62
    18
420
        0
 48
50.00000038146973
370
    25
100
AcDbBlockReference
  2
Dimension34
 10
0.0
 20
0.0
 30
0.0
  0
INSERT
  5
CE
330
1F
100
AcDbEntity
  8
Smart 8214
  6
Continuous
 62
    18
420
        0
 48
50.00000038146973
370
    25
100
AcDbBlockReference
  2
Dimension35
 10
0.0
 20
0.0
 30
0.0
  0
INSERT
  5
D2
330
1F
100
AcDbEntity
  8
Smart 8214
  6
Continuous
 62
    18
420
        0
 48
50.00000038146973
370
    25
100
AcDbBlockReference
  2
Dimension36
 10
0.0
 20
0.0
 30
0.0
  0
INSERT
  5
D6
330
1F
100
AcDbEntity
  8
Smart 8214
  6
Continuous
 62
    18
420
        0
 48
50.00000038146973
370
    25
100
AcDbBlockReference
  2
Dimension37
 10
0.0
 20
0.0
 30
0.0
  0
INSERT
  5
DA
330
1F
100
AcDbEntity
  8
Smart 8214
  6
Continuous
 62
    18
420
        0
 48
50.00000038146973
370
    25
100
AcDbBlockReference
  2
Dimension38
 10
0.0
 20
0.0
 30
0.0
  0
INSERT
  5
DE
330
1F
100
AcDbEntity
  8
Smart 8214
  6
Continuous
 62
    18
420
        0
 48
50.00000038146973
370
    25
100
AcDbBlockReference
  2
Dimension39
 10
0.0
 20
0.0
 30
0.0
  0
INSERT
  5
E2
330
1F
100
AcDbEntity
  8
Smart 8214
  6
Continuous
 62
    18
420
        0
 48
50.00000038146973
370
    25
100
AcDbBlockReference
  2
Dimension40
 10
0.0
 20
0.0
 30
0.0
  0
INSERT
  5
E6
330
1F
100
AcDbEntity
  8
Smart 8214
  6
Continuous
 62
    18
420
        0
 48
50.00000038146973
370
    25
100
AcDbBlockReference
  2
Dimension41
 10
0.0
 20
0.0
 30
0.0
  0
INSERT
  5
EA
330
1F
100
AcDbEntity
  8
Smart 8214
  6
Continuous
 62
    18
420
        0
 48
50.00000038146973
370
    25
100
AcDbBlockReference
  2
Dimension42
 10
0.0
 20
0.0
 30
0.0
  0
INSERT
  5
EE
330
1F
100
AcDbEntity
  8
Smart 8214
  6
Continuous
 62
    18
420
        0
 48
50.00000038146973
370
    25
100
AcDbBlockReference
  2
Dimension43
 10
0.0
 20
0.0
 30
0.0
  0
INSERT
  5
F2
330
1F
100
AcDbEntity
  8
Smart 8214
  6
Continuous
 62
    18
420
        0
 48
50.00000038146973
370
    25
100
AcDbBlockReference
  2
Dimension44
 10
0.0
 20
0.0
 30
0.0
  0
INSERT
  5
F6
330
1F
100
AcDbEntity
  8
Smart 8214
  6
Continuous
 62
    18
420
        0
 48
50.00000038146973
370
    25
100
AcDbBlockReference
  2
Dimension45
 10
0.0
 20
0.0
 30
0.0
  0
INSERT
  5
FA
330
1F
100
AcDbEntity
  8
Smart 8214
  6
Continuous
 62
    18
420
        0
 48
50.00000038146973
370
    25
100
AcDbBlockReference
  2
Dimension46
 10
0.0
 20
0.0
 30
0.0
  0
INSERT
  5
FE
330
1F
100
AcDbEntity
  8
Smart 8214
  6
Continuous
 62
    18
420
        0
 48
50.00000038146973
370
    25
100
AcDbBlockReference
  2
Dimension47
 10
0.0
 20
0.0
 30
0.0
  0
INSERT
  5
102
330
1F
100
AcDbEntity
  8
Smart 8214
  6
Continuous
 62
    18
420
        0
 48
50.00000038146973
370
    25
100
AcDbBlockReference
  2
Dimension48
 10
0.0
 20
0.0
 30
0.0
  0
INSERT
  5
106
330
1F
100
AcDbEntity
  8
Smart 8214
  6
Continuous
 62
    18
420
        0
 48
50.00000038146973
370
    25
100
AcDbBlockReference
  2
Dimension49
 10
0.0
 20
0.0
 30
0.0
  0
INSERT
  5
10A
330
1F
100
AcDbEntity
  8
Smart 8214
  6
Continuous
 62
    18
420
        0
 48
50.00000038146973
370
    25
100
AcDbBlockReference
  2
Dimension50
 10
0.0
 20
0.0
 30
0.0
  0
INSERT
  5
10E
330
1F
100
AcDbEntity
  8
Smart 8214
  6
Continuous
 62
    18
420
        0
 48
50.00000038146973
370
    25
100
AcDbBlockReference
  2
Dimension51
 10
0.0
 20
0.0
 30
0.0
  0
INSERT
  5
112
330
1F
100
AcDbEntity
  8
Smart 8214
  6
Continuous
 62
    18
420
        0
 48
50.00000038146973
370
    25
100
AcDbBlockReference
  2
Dimension52
 10
0.0
 20
0.0
 30
0.0
  0
INSERT
  5
116
330
1F
100
AcDbEntity
  8
Smart 8214
  6
Continuous
 62
    18
420
        0
 48
50.00000038146973
370
    25
100
AcDbBlockReference
  2
Dimension53
 10
0.0
 20
0.0
 30
0.0
  0
INSERT
  5
11A
330
1F
100
AcDbEntity
  8
Smart 8214
  6
Continuous
 62
    18
420
        0
 48
50.00000038146973
370
    25
100
AcDbBlockReference
  2
Dimension54
 10
0.0
 20
0.0
 30
0.0
  0
INSERT
  5
11F
330
1F
100
AcDbEntity
  8
Smart 8215
  6
Continuous
 62
    18
420
        0
 48
50.00000038146973
370
    25
100
AcDbBlockReference
  2
Dimension55
 10
0.0
 20
0.0
 30
0.0
  0
INSERT
  5
123
330
1F
100
AcDbEntity
  8
Smart 8215
  6
Continuous
 62
    18
420
        0
 48
50.00000038146973
370
    25
100
AcDbBlockReference
  2
Dimension56
 10
0.0
 20
0.0
 30
0.0
  0
INSERT
  5
127
330
1F
100
AcDbEntity
  8
Smart 8215
  6
Continuous
 62
    18
420
        0
 48
50.00000038146973
370
    25
100
AcDbBlockReference
  2
Dimension57
 10
0.0
 20
0.0
 30
0.0
  0
INSERT
  5
12B
330
1F
100
AcDbEntity
  8
Smart 8215
  6
Continuous
 62
    18
420
        0
 48
50.00000038146973
370
    25
100
AcDbBlockReference
  2
Dimension58
 10
0.0
 20
0.0
 30
0.0
  0
INSERT
  5
12F
330
1F
100
AcDbEntity
  8
Smart 8215
  6
Continuous
 62
    18
420
        0
 48
50.00000038146973
370
    25
100
AcDbBlockReference
  2
Dimension59
 10
0.0
 20
0.0
 30
0.0
  0
INSERT
  5
133
330
1F
100
AcDbEntity
  8
Smart 8215
  6
Continuous
 62
    18
420
        0
 48
50.00000038146973
370
    25
100
AcDbBlockReference
  2
Dimension60
 10
0.0
 20
0.0
 30
0.0
  0
INSERT
  5
137
330
1F
100
AcDbEntity
  8
Smart 8215
  6
Continuous
 62
    18
420
        0
 48
50.00000038146973
370
    25
100
AcDbBlockReference
  2
Dimension61
 10
0.0
 20
0.0
 30
0.0
  0
INSERT
  5
13B
330
1F
100
AcDbEntity
  8
Smart 8215
  6
Continuous
 62
    18
420
        0
 48
50.00000038146973
370
    25
100
AcDbBlockReference
  2
Dimension62
 10
0.0
 20
0.0
 30
0.0
  0
INSERT
  5
13F
330
1F
100
AcDbEntity
  8
Smart 8215
  6
Continuous
 62
    18
420
        0
 48
50.00000038146973
370
    25
100
AcDbBlockReference
  2
Dimension63
 10
0.0
 20
0.0
 30
0.0
  0
INSERT
  5
143
330
1F
100
AcDbEntity
  8
Smart 8215
  6
Continuous
 62
    18
420
        0
 48
50.00000038146973
370
    25
100
AcDbBlockReference
  2
Dimension64
 10
0.0
 20
0.0
 30
0.0
  0
INSERT
  5
147
330
1F
100
AcDbEntity
  8
Smart 8215
  6
Continuous
 62
    18
420
        0
 48
50.00000038146973
370
    25
100
AcDbBlockReference
  2
Dimension65
 10
0.0
 20
0.0
 30
0.0
  0
INSERT
  5
14B
330
1F
100
AcDbEntity
  8
Smart 8215
  6
Continuous
 62
    18
420
        0
 48
50.00000038146973
370
    25
100
AcDbBlockReference
  2
Dimension66
 10
0.0
 20
0.0
 30
0.0
  0
INSERT
  5
14F
330
1F
100
AcDbEntity
  8
Smart 8215
  6
Continuous
 62
    18
420
        0
 48
50.00000038146973
370
    25
100
AcDbBlockReference
  2
Dimension67
 10
0.0
 20
0.0
 30
0.0
  0
INSERT
  5
153
330
1F
100
AcDbEntity
  8
Smart 8215
  6
Continuous
 62
    18
420
        0
 48
50.00000038146973
370
    25
100
AcDbBlockReference
  2
Dimension68
 10
0.0
 20
0.0
 30
0.0
  0
INSERT
  5
157
330
1F
100
AcDbEntity
  8
Smart 8215
  6
Continuous
 62
    18
420
        0
 48
50.00000038146973
370
    25
100
AcDbBlockReference
  2
Dimension69
 10
0.0
 20
0.0
 30
0.0
  0
INSERT
  5
15B
330
1F
100
AcDbEntity
  8
Smart 8215
  6
Continuous
 62
    18
420
        0
 48
50.00000038146973
370
    25
100
AcDbBlockReference
  2
Dimension70
 10
0.0
 20
0.0
 30
0.0
  0
INSERT
  5
15F
330
1F
100
AcDbEntity
  8
Smart 8215
  6
Continuous
 62
    18
420
        0
 48
50.00000038146973
370
    25
100
AcDbBlockReference
  2
Dimension71
 10
0.0
 20
0.0
 30
0.0
  0
INSERT
  5
163
330
1F
100
AcDbEntity
  8
Smart 8215
  6
Continuous
 62
    18
420
        0
 48
50.00000038146973
370
    25
100
AcDbBlockReference
  2
Dimension72
 10
0.0
 20
0.0
 30
0.0
  0
INSERT
  5
167
330
1F
100
AcDbEntity
  8
Smart 8215
  6
Continuous
 62
    18
420
        0
 48
50.00000038146973
370
    25
100
AcDbBlockReference
  2
Dimension73
 10
0.0
 20
0.0
 30
0.0
  0
INSERT
  5
16B
330
1F
100
AcDbEntity
  8
Smart 8215
  6
Continuous
 62
    18
420
        0
 48
50.00000038146973
370
    25
100
AcDbBlockReference
  2
Dimension74
 10
0.0
 20
0.0
 30
0.0
  0
INSERT
  5
16F
330
1F
100
AcDbEntity
  8
Smart 8215
  6
Continuous
 62
    18
420
        0
 48
50.00000038146973
370
    25
100
AcDbBlockReference
  2
Dimension75
 10
0.0
 20
0.0
 30
0.0
  0
INSERT
  5
173
330
1F
100
AcDbEntity
  8
Smart 8215
  6
Continuous
 62
    18
420
        0
 48
50.00000038146973
370
    25
100
AcDbBlockReference
  2
Dimension76
 10
0.0
 20
0.0
 30
0.0
  0
INSERT
  5
177
330
1F
100
AcDbEntity
  8
Smart 8215
  6
Continuous
 62
    18
420
        0
 48
50.00000038146973
370
    25
100
AcDbBlockReference
  2
Dimension77
 10
0.0
 20
0.0
 30
0.0
  0
INSERT
  5
17B
330
1F
100
AcDbEntity
  8
Smart 8215
  6
Continuous
 62
    18
420
        0
 48
50.00000038146973
370
    25
100
AcDbBlockReference
  2
Dimension78
 10
0.0
 20
0.0
 30
0.0
  0
INSERT
  5
17F
330
1F
100
AcDbEntity
  8
Smart 8215
  6
Continuous
 62
    18
420
        0
 48
50.00000038146973
370
    25
100
AcDbBlockReference
  2
Dimension79
 10
0.0
 20
0.0
 30
0.0
  0
INSERT
  5
183
330
1F
100
AcDbEntity
  8
Smart 8215
  6
Continuous
 62
    18
420
        0
 48
50.00000038146973
370
    25
100
AcDbBlockReference
  2
Dimension80
 10
0.0
 20
0.0
 30
0.0
  0
INSERT
  5
187
330
1F
100
AcDbEntity
  8
Smart 8215
  6
Continuous
 62
    18
420
        0
 48
50.00000038146973
370
    25
100
AcDbBlockReference
  2
Dimension81
 10
0.0
 20
0.0
 30
0.0
  0
INSERT
  5
18C
330
1F
100
AcDbEntity
  8
Smart 8216
  6
Continuous
 62
    18
420
        0
 48
50.00000038146973
370
    25
100
AcDbBlockReference
  2
Dimension82
 10
0.0
 20
0.0
 30
0.0
  0
INSERT
  5
190
330
1F
100
AcDbEntity
  8
Smart 8216
  6
Continuous
 62
    18
420
        0
 48
50.00000038146973
370
    25
100
AcDbBlockReference
  2
Dimension83
 10
0.0
 20
0.0
 30
0.0
  0
INSERT
  5
194
330
1F
100
AcDbEntity
  8
Smart 8216
  6
Continuous
 62
    18
420
        0
 48
50.00000038146973
370
    25
100
AcDbBlockReference
  2
Dimension84
 10
0.0
 20
0.0
 30
0.0
  0
INSERT
  5
198
330
1F
100
AcDbEntity
  8
Smart 8216
  6
Continuous
 62
    18
420
        0
 48
50.00000038146973
370
    25
100
AcDbBlockReference
  2
Dimension85
 10
0.0
 20
0.0
 30
0.0
  0
INSERT
  5
19C
330
1F
100
AcDbEntity
  8
Smart 8216
  6
Continuous
 62
    18
420
        0
 48
50.00000038146973
370
    25
100
AcDbBlockReference
  2
Dimension86
 10
0.0
 20
0.0
 30
0.0
  0
INSERT
  5
1A0
330
1F
100
AcDbEntity
  8
Smart 8216
  6
Continuous
 62
    18
420
        0
 48
50.00000038146973
370
    25
100
AcDbBlockReference
  2
Dimension87
 10
0.0
 20
0.0
 30
0.0
  0
INSERT
  5
1A4
330
1F
100
AcDbEntity
  8
Smart 8216
  6
Continuous
 62
    18
420
        0
 48
50.00000038146973
370
    25
100
AcDbBlockReference
  2
Dimension88
 10
0.0
 20
0.0
 30
0.0
  0
INSERT
  5
1A8
330
1F
100
AcDbEntity
  8
Smart 8216
  6
Continuous
 62
    18
420
        0
 48
50.00000038146973
370
    25
100
AcDbBlockReference
  2
Dimension89
 10
0.0
 20
0.0
 30
0.0
  0
INSERT
  5
1AC
330
1F
100
AcDbEntity
  8
Smart 8216
  6
Continuous
 62
    18
420
        0
 48
50.00000038146973
370
    25
100
AcDbBlockReference
  2
Dimension90
 10
0.0
 20
0.0
 30
0.0
  0
INSERT
  5
1B0
330
1F
100
AcDbEntity
  8
Smart 8216
  6
Continuous
 62
    18
420
        0
 48
50.00000038146973
370
    25
100
AcDbBlockReference
  2
Dimension91
 10
0.0
 20
0.0
 30
0.0
  0
INSERT
  5
1B4
330
1F
100
AcDbEntity
  8
Smart 8216
  6
Continuous
 62
    18
420
        0
 48
50.00000038146973
370
    25
100
AcDbBlockReference
  2
Dimension92
 10
0.0
 20
0.0
 30
0.0
  0
INSERT
  5
1B8
330
1F
100
AcDbEntity
  8
Smart 8216
  6
Continuous
 62
    18
420
        0
 48
50.00000038146973
370
    25
100
AcDbBlockReference
  2
Dimension93
 10
0.0
 20
0.0
 30
0.0
  0
INSERT
  5
1BC
330
1F
100
AcDbEntity
  8
Smart 8216
  6
Continuous
 62
    18
420
        0
 48
50.00000038146973
370
    25
100
AcDbBlockReference
  2
Dimension94
 10
0.0
 20
0.0
 30
0.0
  0
INSERT
  5
1C0
330
1F
100
AcDbEntity
  8
Smart 8216
  6
Continuous
 62
    18
420
        0
 48
50.00000038146973
370
    25
100
AcDbBlockReference
  2
Dimension95
 10
0.0
 20
0.0
 30
0.0
  0
INSERT
  5
1C4
330
1F
100
AcDbEntity
  8
Smart 8216
  6
Continuous
 62
    18
420
        0
 48
50.00000038146973
370
    25
100
AcDbBlockReference
  2
Dimension96
 10
0.0
 20
0.0
 30
0.0
  0
INSERT
  5
1C8
330
1F
100
AcDbEntity
  8
Smart 8216
  6
Continuous
 62
    18
420
        0
 48
50.00000038146973
370
    25
100
AcDbBlockReference
  2
Dimension97
 10
0.0
 20
0.0
 30
0.0
  0
INSERT
  5
1CC
330
1F
100
AcDbEntity
  8
Smart 8216
  6
Continuous
 62
    18
420
        0
 48
50.00000038146973
370
    25
100
AcDbBlockReference
  2
Dimension98
 10
0.0
 20
0.0
 30
0.0
  0
INSERT
  5
1D0
330
1F
100
AcDbEntity
  8
Smart 8216
  6
Continuous
 62
    18
420
        0
 48
50.00000038146973
370
    25
100
AcDbBlockReference
  2
Dimension99
 10
0.0
 20
0.0
 30
0.0
  0
INSERT
  5
1D4
330
1F
100
AcDbEntity
  8
Smart 8216
  6
Continuous
 62
    18
420
        0
 48
50.00000038146973
370
    25
100
AcDbBlockReference
  2
Dimension100
 10
0.0
 20
0.0
 30
0.0
  0
INSERT
  5
1D8
330
1F
100
AcDbEntity
  8
Smart 8216
  6
Continuous
 62
    18
420
        0
 48
50.00000038146973
370
    25
100
AcDbBlockReference
  2
Dimension101
 10
0.0
 20
0.0
 30
0.0
  0
INSERT
  5
1DC
330
1F
100
AcDbEntity
  8
Smart 8216
  6
Continuous
 62
    18
420
        0
 48
50.00000038146973
370
    25
100
AcDbBlockReference
  2
Dimension102
 10
0.0
 20
0.0
 30
0.0
  0
INSERT
  5
1E0
330
1F
100
AcDbEntity
  8
Smart 8216
  6
Continuous
 62
    18
420
        0
 48
50.00000038146973
370
    25
100
AcDbBlockReference
  2
Dimension103
 10
0.0
 20
0.0
 30
0.0
  0
INSERT
  5
1E4
330
1F
100
AcDbEntity
  8
Smart 8216
  6
Continuous
 62
    18
420
        0
 48
50.00000038146973
370
    25
100
AcDbBlockReference
  2
Dimension104
 10
0.0
 20
0.0
 30
0.0
  0
INSERT
  5
1E8
330
1F
100
AcDbEntity
  8
Smart 8216
  6
Continuous
 62
    18
420
        0
 48
50.00000038146973
370
    25
100
AcDbBlockReference
  2
Dimension105
 10
0.0
 20
0.0
 30
0.0
  0
INSERT
  5
1EC
330
1F
100
AcDbEntity
  8
Smart 8216
  6
Continuous
 62
    18
420
        0
 48
50.00000038146973
370
    25
100
AcDbBlockReference
  2
Dimension106
 10
0.0
 20
0.0
 30
0.0
  0
INSERT
  5
1F0
330
1F
100
AcDbEntity
  8
Smart 8216
  6
Continuous
 62
    18
420
        0
 48
50.00000038146973
370
    25
100
AcDbBlockReference
  2
Dimension107
 10
0.0
 20
0.0
 30
0.0
  0
INSERT
  5
1F4
330
1F
100
AcDbEntity
  8
Smart 8216
  6
Continuous
 62
    18
420
        0
 48
50.00000038146973
370
    25
100
AcDbBlockReference
  2
Dimension108
 10
0.0
 20
0.0
 30
0.0
  0
INSERT
  5
1F9
330
1F
100
AcDbEntity
  8
Smart 8221
  6
Continuous
 62
    18
420
        0
 48
50.00000038146973
370
    25
100
AcDbBlockReference
  2
Dimension109
 10
0.0
 20
0.0
 30
0.0
  0
INSERT
  5
1FD
330
1F
100
AcDbEntity
  8
Smart 8221
  6
Continuous
 62
    18
420
        0
 48
50.00000038146973
370
    25
100
AcDbBlockReference
  2
Dimension110
 10
0.0
 20
0.0
 30
0.0
  0
INSERT
  5
201
330
1F
100
AcDbEntity
  8
Smart 8221
  6
Continuous
 62
    18
420
        0
 48
50.00000038146973
370
    25
100
AcDbBlockReference
  2
Dimension111
 10
0.0
 20
0.0
 30
0.0
  0
INSERT
  5
205
330
1F
100
AcDbEntity
  8
Smart 8221
  6
Continuous
 62
    18
420
        0
 48
50.00000038146973
370
    25
100
AcDbBlockReference
  2
Dimension112
 10
0.0
 20
0.0
 30
0.0
  0
INSERT
  5
209
330
1F
100
AcDbEntity
  8
Smart 8221
  6
Continuous
 62
    18
420
        0
 48
50.00000038146973
370
    25
100
AcDbBlockReference
  2
Dimension113
 10
0.0
 20
0.0
 30
0.0
  0
INSERT
  5
20D
330
1F
100
AcDbEntity
  8
Smart 8221
  6
Continuous
 62
    18
420
        0
 48
50.00000038146973
370
    25
100
AcDbBlockReference
  2
Dimension114
 10
0.0
 20
0.0
 30
0.0
  0
INSERT
  5
211
330
1F
100
AcDbEntity
  8
Smart 8221
  6
Continuous
 62
    18
420
        0
 48
50.00000038146973
370
    25
100
AcDbBlockReference
  2
Dimension115
 10
0.0
 20
0.0
 30
0.0
  0
INSERT
  5
215
330
1F
100
AcDbEntity
  8
Smart 8221
  6
Continuous
 62
    18
420
        0
 48
50.00000038146973
370
    25
100
AcDbBlockReference
  2
Dimension116
 10
0.0
 20
0.0
 30
0.0
  0
INSERT
  5
219
330
1F
100
AcDbEntity
  8
Smart 8221
  6
Continuous
 62
    18
420
        0
 48
50.00000038146973
370
    25
100
AcDbBlockReference
  2
Dimension117
 10
0.0
 20
0.0
 30
0.0
  0
INSERT
  5
21D
330
1F
100
AcDbEntity
  8
Smart 8221
  6
Continuous
 62
    18
420
        0
 48
50.00000038146973
370
    25
100
AcDbBlockReference
  2
Dimension118
 10
0.0
 20
0.0
 30
0.0
  0
INSERT
  5
221
330
1F
100
AcDbEntity
  8
Smart 8221
  6
Continuous
 62
    18
420
        0
 48
50.00000038146973
370
    25
100
AcDbBlockReference
  2
Dimension119
 10
0.0
 20
0.0
 30
0.0
  0
INSERT
  5
225
330
1F
100
AcDbEntity
  8
Smart 8221
  6
Continuous
 62
    18
420
        0
 48
50.00000038146973
370
    25
100
AcDbBlockReference
  2
Dimension120
 10
0.0
 20
0.0
 30
0.0
  0
INSERT
  5
229
330
1F
100
AcDbEntity
  8
Smart 8221
  6
Continuous
 62
    18
420
        0
 48
50.00000038146973
370
    25
100
AcDbBlockReference
  2
Dimension121
 10
0.0
 20
0.0
 30
0.0
  0
INSERT
  5
22D
330
1F
100
AcDbEntity
  8
Smart 8221
  6
Continuous
 62
    18
420
        0
 48
50.00000038146973
370
    25
100
AcDbBlockReference
  2
Dimension122
 10
0.0
 20
0.0
 30
0.0
  0
INSERT
  5
231
330
1F
100
AcDbEntity
  8
Smart 8221
  6
Continuous
 62
    18
420
        0
 48
50.00000038146973
370
    25
100
AcDbBlockReference
  2
Dimension123
 10
0.0
 20
0.0
 30
0.0
  0
INSERT
  5
235
330
1F
100
AcDbEntity
  8
Smart 8221
  6
Continuous
 62
    18
420
        0
 48
50.00000038146973
370
    25
100
AcDbBlockReference
  2
Dimension124
 10
0.0
 20
0.0
 30
0.0
  0
INSERT
  5
239
330
1F
100
AcDbEntity
  8
Smart 8221
  6
Continuous
 62
    18
420
        0
 48
50.00000038146973
370
    25
100
AcDbBlockReference
  2
Dimension125
 10
0.0
 20
0.0
 30
0.0
  0
INSERT
  5
23D
330
1F
100
AcDbEntity
  8
Smart 8221
  6
Continuous
 62
    18
420
        0
 48
50.00000038146973
370
    25
100
AcDbBlockReference
  2
Dimension126
 10
0.0
 20
0.0
 30
0.0
  0
INSERT
  5
241
330
1F
100
AcDbEntity
  8
Smart 8221
  6
Continuous
 62
    18
420
        0
 48
50.00000038146973
370
    25
100
AcDbBlockReference
  2
Dimension127
 10
0.0
 20
0.0
 30
0.0
  0
INSERT
  5
245
330
1F
100
AcDbEntity
  8
Smart 8221
  6
Continuous
 62
    18
420
        0
 48
50.00000038146973
370
    25
100
AcDbBlockReference
  2
Dimension128
 10
0.0
 20
0.0
 30
0.0
  0
INSERT
  5
249
330
1F
100
AcDbEntity
  8
Smart 8221
  6
Continuous
 62
    18
420
        0
 48
50.00000038146973
370
    25
100
AcDbBlockReference
  2
Dimension129
 10
0.0
 20
0.0
 30
0.0
  0
INSERT
  5
24D
330
1F
100
AcDbEntity
  8
Smart 8221
  6
Continuous
 62
    18
420
        0
 48
50.00000038146973
370
    25
100
AcDbBlockReference
  2
Dimension130
 10
0.0
 20
0.0
 30
0.0
  0
INSERT
  5
251
330
1F
100
AcDbEntity
  8
Smart 8221
  6
Continuous
 62
    18
420
        0
 48
50.00000038146973
370
    25
100
AcDbBlockReference
  2
Dimension131
 10
0.0
 20
0.0
 30
0.0
  0
INSERT
  5
255
330
1F
100
AcDbEntity
  8
Smart 8221
  6
Continuous
 62
    18
420
        0
 48
50.00000038146973
370
    25
100
AcDbBlockReference
  2
Dimension132
 10
0.0
 20
0.0
 30
0.0
  0
INSERT
  5
259
330
1F
100
AcDbEntity
  8
Smart 8221
  6
Continuous
 62
    18
420
        0
 48
50.00000038146973
370
    25
100
AcDbBlockReference
  2
Dimension133
 10
0.0
 20
0.0
 30
0.0
  0
INSERT
  5
25D
330
1F
100
AcDbEntity
  8
Smart 8221
  6
Continuous
 62
    18
420
        0
 48
50.00000038146973
370
    25
100
AcDbBlockReference
  2
Dimension134
 10
0.0
 20
0.0
 30
0.0
  0
INSERT
  5
261
330
1F
100
AcDbEntity
  8
Smart 8221
  6
Continuous
 62
    18
420
        0
 48
50.00000038146973
370
    25
100
AcDbBlockReference
  2
Dimension135
 10
0.0
 20
0.0
 30
0.0
  0
INSERT
  5
266
330
1F
100
AcDbEntity
  8
Smart 8222
  6
Continuous
 62
    18
420
        0
 48
50.00000038146973
370
    25
100
AcDbBlockReference
  2
Dimension136
 10
0.0
 20
0.0
 30
0.0
  0
INSERT
  5
26A
330
1F
100
AcDbEntity
  8
Smart 8222
  6
Continuous
 62
    18
420
        0
 48
50.00000038146973
370
    25
100
AcDbBlockReference
  2
Dimension137
 10
0.0
 20
0.0
 30
0.0
  0
INSERT
  5
26E
330
1F
100
AcDbEntity
  8
Smart 8222
  6
Continuous
 62
    18
420
        0
 48
50.00000038146973
370
    25
100
AcDbBlockReference
  2
Dimension138
 10
0.0
 20
0.0
 30
0.0
  0
INSERT
  5
272
330
1F
100
AcDbEntity
  8
Smart 8222
  6
Continuous
 62
    18
420
        0
 48
50.00000038146973
370
    25
100
AcDbBlockReference
  2
Dimension139
 10
0.0
 20
0.0
 30
0.0
  0
INSERT
  5
276
330
1F
100
AcDbEntity
  8
Smart 8222
  6
Continuous
 62
    18
420
        0
 48
50.00000038146973
370
    25
100
AcDbBlockReference
  2
Dimension140
 10
0.0
 20
0.0
 30
0.0
  0
INSERT
  5
27A
330
1F
100
AcDbEntity
  8
Smart 8222
  6
Continuous
 62
    18
420
        0
 48
50.00000038146973
370
    25
100
AcDbBlockReference
  2
Dimension141
 10
0.0
 20
0.0
 30
0.0
  0
INSERT
  5
27E
330
1F
100
AcDbEntity
  8
Smart 8222
  6
Continuous
 62
    18
420
        0
 48
50.00000038146973
370
    25
100
AcDbBlockReference
  2
Dimension142
 10
0.0
 20
0.0
 30
0.0
  0
INSERT
  5
282
330
1F
100
AcDbEntity
  8
Smart 8222
  6
Continuous
 62
    18
420
        0
 48
50.00000038146973
370
    25
100
AcDbBlockReference
  2
Dimension143
 10
0.0
 20
0.0
 30
0.0
  0
INSERT
  5
286
330
1F
100
AcDbEntity
  8
Smart 8222
  6
Continuous
 62
    18
420
        0
 48
50.00000038146973
370
    25
100
AcDbBlockReference
  2
Dimension144
 10
0.0
 20
0.0
 30
0.0
  0
INSERT
  5
28A
330
1F
100
AcDbEntity
  8
Smart 8222
  6
Continuous
 62
    18
420
        0
 48
50.00000038146973
370
    25
100
AcDbBlockReference
  2
Dimension145
 10
0.0
 20
0.0
 30
0.0
  0
INSERT
  5
28E
330
1F
100
AcDbEntity
  8
Smart 8222
  6
Continuous
 62
    18
420
        0
 48
50.00000038146973
370
    25
100
AcDbBlockReference
  2
Dimension146
 10
0.0
 20
0.0
 30
0.0
  0
INSERT
  5
292
330
1F
100
AcDbEntity
  8
Smart 8222
  6
Continuous
 62
    18
420
        0
 48
50.00000038146973
370
    25
100
AcDbBlockReference
  2
Dimension147
 10
0.0
 20
0.0
 30
0.0
  0
INSERT
  5
296
330
1F
100
AcDbEntity
  8
Smart 8222
  6
Continuous
 62
    18
420
        0
 48
50.00000038146973
370
    25
100
AcDbBlockReference
  2
Dimension148
 10
0.0
 20
0.0
 30
0.0
  0
INSERT
  5
29A
330
1F
100
AcDbEntity
  8
Smart 8222
  6
Continuous
 62
    18
420
        0
 48
50.00000038146973
370
    25
100
AcDbBlockReference
  2
Dimension149
 10
0.0
 20
0.0
 30
0.0
  0
INSERT
  5
29E
330
1F
100
AcDbEntity
  8
Smart 8222
  6
Continuous
 62
    18
420
        0
 48
50.00000038146973
370
    25
100
AcDbBlockReference
  2
Dimension150
 10
0.0
 20
0.0
 30
0.0
  0
INSERT
  5
2A2
330
1F
100
AcDbEntity
  8
Smart 8222
  6
Continuous
 62
    18
420
        0
 48
50.00000038146973
370
    25
100
AcDbBlockReference
  2
Dimension151
 10
0.0
 20
0.0
 30
0.0
  0
INSERT
  5
2A6
330
1F
100
AcDbEntity
  8
Smart 8222
  6
Continuous
 62
    18
420
        0
 48
50.00000038146973
370
    25
100
AcDbBlockReference
  2
Dimension152
 10
0.0
 20
0.0
 30
0.0
  0
INSERT
  5
2AA
330
1F
100
AcDbEntity
  8
Smart 8222
  6
Continuous
 62
    18
420
        0
 48
50.00000038146973
370
    25
100
AcDbBlockReference
  2
Dimension153
 10
0.0
 20
0.0
 30
0.0
  0
INSERT
  5
2AE
330
1F
100
AcDbEntity
  8
Smart 8222
  6
Continuous
 62
    18
420
        0
 48
50.00000038146973
370
    25
100
AcDbBlockReference
  2
Dimension154
 10
0.0
 20
0.0
 30
0.0
  0
INSERT
  5
2B2
330
1F
100
AcDbEntity
  8
Smart 8222
  6
Continuous
 62
    18
420
        0
 48
50.00000038146973
370
    25
100
AcDbBlockReference
  2
Dimension155
 10
0.0
 20
0.0
 30
0.0
  0
INSERT
  5
2B6
330
1F
100
AcDbEntity
  8
Smart 8222
  6
Continuous
 62
    18
420
        0
 48
50.00000038146973
370
    25
100
AcDbBlockReference
  2
Dimension156
 10
0.0
 20
0.0
 30
0.0
  0
INSERT
  5
2BA
330
1F
100
AcDbEntity
  8
Smart 8222
  6
Continuous
 62
    18
420
        0
 48
50.00000038146973
370
    25
100
AcDbBlockReference
  2
Dimension157
 10
0.0
 20
0.0
 30
0.0
  0
INSERT
  5
2BE
330
1F
100
AcDbEntity
  8
Smart 8222
  6
Continuous
 62
    18
420
        0
 48
50.00000038146973
370
    25
100
AcDbBlockReference
  2
Dimension158
 10
0.0
 20
0.0
 30
0.0
  0
INSERT
  5
2C2
330
1F
100
AcDbEntity
  8
Smart 8222
  6
Continuous
 62
    18
420
        0
 48
50.00000038146973
370
    25
100
AcDbBlockReference
  2
Dimension159
 10
0.0
 20
0.0
 30
0.0
  0
INSERT
  5
2C6
330
1F
100
AcDbEntity
  8
Smart 8222
  6
Continuous
 62
    18
420
        0
 48
50.00000038146973
370
    25
100
AcDbBlockReference
  2
Dimension160
 10
0.0
 20
0.0
 30
0.0
  0
INSERT
  5
2CA
330
1F
100
AcDbEntity
  8
Smart 8222
  6
Continuous
 62
    18
420
        0
 48
50.00000038146973
370
    25
100
AcDbBlockReference
  2
Dimension161
 10
0.0
 20
0.0
 30
0.0
  0
INSERT
  5
2CE
330
1F
100
AcDbEntity
  8
Smart 8222
  6
Continuous
 62
    18
420
        0
 48
50.00000038146973
370
    25
100
AcDbBlockReference
  2
Dimension162
 10
0.0
 20
0.0
 30
0.0
  0
INSERT
  5
2D3
330
1F
100
AcDbEntity
  8
Smart 8223
  6
Continuous
 62
    18
420
        0
 48
50.00000038146973
370
    25
100
AcDbBlockReference
  2
Dimension163
 10
0.0
 20
0.0
 30
0.0
  0
INSERT
  5
2D7
330
1F
100
AcDbEntity
  8
Smart 8223
  6
Continuous
 62
    18
420
        0
 48
50.00000038146973
370
    25
100
AcDbBlockReference
  2
Dimension164
 10
0.0
 20
0.0
 30
0.0
  0
INSERT
  5
2DB
330
1F
100
AcDbEntity
  8
Smart 8223
  6
Continuous
 62
    18
420
        0
 48
50.00000038146973
370
    25
100
AcDbBlockReference
  2
Dimension165
 10
0.0
 20
0.0
 30
0.0
  0
INSERT
  5
2DF
330
1F
100
AcDbEntity
  8
Smart 8223
  6
Continuous
 62
    18
420
        0
 48
50.00000038146973
370
    25
100
AcDbBlockReference
  2
Dimension166
 10
0.0
 20
0.0
 30
0.0
  0
INSERT
  5
2E3
330
1F
100
AcDbEntity
  8
Smart 8223
  6
Continuous
 62
    18
420
        0
 48
50.00000038146973
370
    25
100
AcDbBlockReference
  2
Dimension167
 10
0.0
 20
0.0
 30
0.0
  0
INSERT
  5
2E7
330
1F
100
AcDbEntity
  8
Smart 8223
  6
Continuous
 62
    18
420
        0
 48
50.00000038146973
370
    25
100
AcDbBlockReference
  2
Dimension168
 10
0.0
 20
0.0
 30
0.0
  0
INSERT
  5
2EB
330
1F
100
AcDbEntity
  8
Smart 8223
  6
Continuous
 62
    18
420
        0
 48
50.00000038146973
370
    25
100
AcDbBlockReference
  2
Dimension169
 10
0.0
 20
0.0
 30
0.0
  0
INSERT
  5
2EF
330
1F
100
AcDbEntity
  8
Smart 8223
  6
Continuous
 62
    18
420
        0
 48
50.00000038146973
370
    25
100
AcDbBlockReference
  2
Dimension170
 10
0.0
 20
0.0
 30
0.0
  0
INSERT
  5
2F3
330
1F
100
AcDbEntity
  8
Smart 8223
  6
Continuous
 62
    18
420
        0
 48
50.00000038146973
370
    25
100
AcDbBlockReference
  2
Dimension171
 10
0.0
 20
0.0
 30
0.0
  0
INSERT
  5
2F7
330
1F
100
AcDbEntity
  8
Smart 8223
  6
Continuous
 62
    18
420
        0
 48
50.00000038146973
370
    25
100
AcDbBlockReference
  2
Dimension172
 10
0.0
 20
0.0
 30
0.0
  0
INSERT
  5
2FB
330
1F
100
AcDbEntity
  8
Smart 8223
  6
Continuous
 62
    18
420
        0
 48
50.00000038146973
370
    25
100
AcDbBlockReference
  2
Dimension173
 10
0.0
 20
0.0
 30
0.0
  0
INSERT
  5
2FF
330
1F
100
AcDbEntity
  8
Smart 8223
  6
Continuous
 62
    18
420
        0
 48
50.00000038146973
370
    25
100
AcDbBlockReference
  2
Dimension174
 10
0.0
 20
0.0
 30
0.0
  0
INSERT
  5
303
330
1F
100
AcDbEntity
  8
Smart 8223
  6
Continuous
 62
    18
420
        0
 48
50.00000038146973
370
    25
100
AcDbBlockReference
  2
Dimension175
 10
0.0
 20
0.0
 30
0.0
  0
INSERT
  5
307
330
1F
100
AcDbEntity
  8
Smart 8223
  6
Continuous
 62
    18
420
        0
 48
50.00000038146973
370
    25
100
AcDbBlockReference
  2
Dimension176
 10
0.0
 20
0.0
 30
0.0
  0
INSERT
  5
30B
330
1F
100
AcDbEntity
  8
Smart 8223
  6
Continuous
 62
    18
420
        0
 48
50.00000038146973
370
    25
100
AcDbBlockReference
  2
Dimension177
 10
0.0
 20
0.0
 30
0.0
  0
INSERT
  5
30F
330
1F
100
AcDbEntity
  8
Smart 8223
  6
Continuous
 62
    18
420
        0
 48
50.00000038146973
370
    25
100
AcDbBlockReference
  2
Dimension178
 10
0.0
 20
0.0
 30
0.0
  0
INSERT
  5
313
330
1F
100
AcDbEntity
  8
Smart 8223
  6
Continuous
 62
    18
420
        0
 48
50.00000038146973
370
    25
100
AcDbBlockReference
  2
Dimension179
 10
0.0
 20
0.0
 30
0.0
  0
INSERT
  5
317
330
1F
100
AcDbEntity
  8
Smart 8223
  6
Continuous
 62
    18
420
        0
 48
50.00000038146973
370
    25
100
AcDbBlockReference
  2
Dimension180
 10
0.0
 20
0.0
 30
0.0
  0
INSERT
  5
31B
330
1F
100
AcDbEntity
  8
Smart 8223
  6
Continuous
 62
    18
420
        0
 48
50.00000038146973
370
    25
100
AcDbBlockReference
  2
Dimension181
 10
0.0
 20
0.0
 30
0.0
  0
INSERT
  5
31F
330
1F
100
AcDbEntity
  8
Smart 8223
  6
Continuous
 62
    18
420
        0
 48
50.00000038146973
370
    25
100
AcDbBlockReference
  2
Dimension182
 10
0.0
 20
0.0
 30
0.0
  0
INSERT
  5
323
330
1F
100
AcDbEntity
  8
Smart 8223
  6
Continuous
 62
    18
420
        0
 48
50.00000038146973
370
    25
100
AcDbBlockReference
  2
Dimension183
 10
0.0
 20
0.0
 30
0.0
  0
INSERT
  5
327
330
1F
100
AcDbEntity
  8
Smart 8223
  6
Continuous
 62
    18
420
        0
 48
50.00000038146973
370
    25
100
AcDbBlockReference
  2
Dimension184
 10
0.0
 20
0.0
 30
0.0
  0
INSERT
  5
32B
330
1F
100
AcDbEntity
  8
Smart 8223
  6
Continuous
 62
    18
420
        0
 48
50.00000038146973
370
    25
100
AcDbBlockReference
  2
Dimension185
 10
0.0
 20
0.0
 30
0.0
  0
INSERT
  5
32F
330
1F
100
AcDbEntity
  8
Smart 8223
  6
Continuous
 62
    18
420
        0
 48
50.00000038146973
370
    25
100
AcDbBlockReference
  2
Dimension186
 10
0.0
 20
0.0
 30
0.0
  0
INSERT
  5
333
330
1F
100
AcDbEntity
  8
Smart 8223
  6
Continuous
 62
    18
420
        0
 48
50.00000038146973
370
    25
100
AcDbBlockReference
  2
Dimension187
 10
0.0
 20
0.0
 30
0.0
  0
INSERT
  5
337
330
1F
100
AcDbEntity
  8
Smart 8223
  6
Continuous
 62
    18
420
        0
 48
50.00000038146973
370
    25
100
AcDbBlockReference
  2
Dimension188
 10
0.0
 20
0.0
 30
0.0
  0
INSERT
  5
33B
330
1F
100
AcDbEntity
  8
Smart 8223
  6
Continuous
 62
    18
420
        0
 48
50.00000038146973
370
    25
100
AcDbBlockReference
  2
Dimension189
 10
0.0
 20
0.0
 30
0.0
  0
INSERT
  5
340
330
1F
100
AcDbEntity
  8
Smart 8224
  6
Continuous
 62
    18
420
        0
 48
50.00000038146973
370
    25
100
AcDbBlockReference
  2
Dimension190
 10
0.0
 20
0.0
 30
0.0
  0
INSERT
  5
344
330
1F
100
AcDbEntity
  8
Smart 8224
  6
Continuous
 62
    18
420
        0
 48
50.00000038146973
370
    25
100
AcDbBlockReference
  2
Dimension191
 10
0.0
 20
0.0
 30
0.0
  0
INSERT
  5
348
330
1F
100
AcDbEntity
  8
Smart 8224
  6
Continuous
 62
    18
420
        0
 48
50.00000038146973
370
    25
100
AcDbBlockReference
  2
Dimension192
 10
0.0
 20
0.0
 30
0.0
  0
INSERT
  5
34C
330
1F
100
AcDbEntity
  8
Smart 8224
  6
Continuous
 62
    18
420
        0
 48
50.00000038146973
370
    25
100
AcDbBlockReference
  2
Dimension193
 10
0.0
 20
0.0
 30
0.0
  0
INSERT
  5
350
330
1F
100
AcDbEntity
  8
Smart 8224
  6
Continuous
 62
    18
420
        0
 48
50.00000038146973
370
    25
100
AcDbBlockReference
  2
Dimension194
 10
0.0
 20
0.0
 30
0.0
  0
INSERT
  5
354
330
1F
100
AcDbEntity
  8
Smart 8224
  6
Continuous
 62
    18
420
        0
 48
50.00000038146973
370
    25
100
AcDbBlockReference
  2
Dimension195
 10
0.0
 20
0.0
 30
0.0
  0
INSERT
  5
358
330
1F
100
AcDbEntity
  8
Smart 8224
  6
Continuous
 62
    18
420
        0
 48
50.00000038146973
370
    25
100
AcDbBlockReference
  2
Dimension196
 10
0.0
 20
0.0
 30
0.0
  0
INSERT
  5
35C
330
1F
100
AcDbEntity
  8
Smart 8224
  6
Continuous
 62
    18
420
        0
 48
50.00000038146973
370
    25
100
AcDbBlockReference
  2
Dimension197
 10
0.0
 20
0.0
 30
0.0
  0
INSERT
  5
360
330
1F
100
AcDbEntity
  8
Smart 8224
  6
Continuous
 62
    18
420
        0
 48
50.00000038146973
370
    25
100
AcDbBlockReference
  2
Dimension198
 10
0.0
 20
0.0
 30
0.0
  0
INSERT
  5
364
330
1F
100
AcDbEntity
  8
Smart 8224
  6
Continuous
 62
    18
420
        0
 48
50.00000038146973
370
    25
100
AcDbBlockReference
  2
Dimension199
 10
0.0
 20
0.0
 30
0.0
  0
INSERT
  5
368
330
1F
100
AcDbEntity
  8
Smart 8224
  6
Continuous
 62
    18
420
        0
 48
50.00000038146973
370
    25
100
AcDbBlockReference
  2
Dimension200
 10
0.0
 20
0.0
 30
0.0
  0
INSERT
  5
36C
330
1F
100
AcDbEntity
  8
Smart 8224
  6
Continuous
 62
    18
420
        0
 48
50.00000038146973
370
    25
100
AcDbBlockReference
  2
Dimension201
 10
0.0
 20
0.0
 30
0.0
  0
INSERT
  5
370
330
1F
100
AcDbEntity
  8
Smart 8224
  6
Continuous
 62
    18
420
        0
 48
50.00000038146973
370
    25
100
AcDbBlockReference
  2
Dimension202
 10
0.0
 20
0.0
 30
0.0
  0
INSERT
  5
374
330
1F
100
AcDbEntity
  8
Smart 8224
  6
Continuous
 62
    18
420
        0
 48
50.00000038146973
370
    25
100
AcDbBlockReference
  2
Dimension203
 10
0.0
 20
0.0
 30
0.0
  0
INSERT
  5
378
330
1F
100
AcDbEntity
  8
Smart 8224
  6
Continuous
 62
    18
420
        0
 48
50.00000038146973
370
    25
100
AcDbBlockReference
  2
Dimension204
 10
0.0
 20
0.0
 30
0.0
  0
INSERT
  5
37C
330
1F
100
AcDbEntity
  8
Smart 8224
  6
Continuous
 62
    18
420
        0
 48
50.00000038146973
370
    25
100
AcDbBlockReference
  2
Dimension205
 10
0.0
 20
0.0
 30
0.0
  0
INSERT
  5
380
330
1F
100
AcDbEntity
  8
Smart 8224
  6
Continuous
 62
    18
420
        0
 48
50.00000038146973
370
    25
100
AcDbBlockReference
  2
Dimension206
 10
0.0
 20
0.0
 30
0.0
  0
INSERT
  5
384
330
1F
100
AcDbEntity
  8
Smart 8224
  6
Continuous
 62
    18
420
        0
 48
50.00000038146973
370
    25
100
AcDbBlockReference
  2
Dimension207
 10
0.0
 20
0.0
 30
0.0
  0
INSERT
  5
388
330
1F
100
AcDbEntity
  8
Smart 8224
  6
Continuous
 62
    18
420
        0
 48
50.00000038146973
370
    25
100
AcDbBlockReference
  2
Dimension208
 10
0.0
 20
0.0
 30
0.0
  0
INSERT
  5
38C
330
1F
100
AcDbEntity
  8
Smart 8224
  6
Continuous
 62
    18
420
        0
 48
50.00000038146973
370
    25
100
AcDbBlockReference
  2
Dimension209
 10
0.0
 20
0.0
 30
0.0
  0
INSERT
  5
390
330
1F
100
AcDbEntity
  8
Smart 8224
  6
Continuous
 62
    18
420
        0
 48
50.00000038146973
370
    25
100
AcDbBlockReference
  2
Dimension210
 10
0.0
 20
0.0
 30
0.0
  0
INSERT
  5
394
330
1F
100
AcDbEntity
  8
Smart 8224
  6
Continuous
 62
    18
420
        0
 48
50.00000038146973
370
    25
100
AcDbBlockReference
  2
Dimension211
 10
0.0
 20
0.0
 30
0.0
  0
INSERT
  5
398
330
1F
100
AcDbEntity
  8
Smart 8224
  6
Continuous
 62
    18
420
        0
 48
50.00000038146973
370
    25
100
AcDbBlockReference
  2
Dimension212
 10
0.0
 20
0.0
 30
0.0
  0
INSERT
  5
39C
330
1F
100
AcDbEntity
  8
Smart 8224
  6
Continuous
 62
    18
420
        0
 48
50.00000038146973
370
    25
100
AcDbBlockReference
  2
Dimension213
 10
0.0
 20
0.0
 30
0.0
  0
INSERT
  5
3A0
330
1F
100
AcDbEntity
  8
Smart 8224
  6
Continuous
 62
    18
420
        0
 48
50.00000038146973
370
    25
100
AcDbBlockReference
  2
Dimension214
 10
0.0
 20
0.0
 30
0.0
  0
INSERT
  5
3A4
330
1F
100
AcDbEntity
  8
Smart 8224
  6
Continuous
 62
    18
420
        0
 48
50.00000038146973
370
    25
100
AcDbBlockReference
  2
Dimension215
 10
0.0
 20
0.0
 30
0.0
  0
INSERT
  5
3A8
330
1F
100
AcDbEntity
  8
Smart 8224
  6
Continuous
 62
    18
420
        0
 48
50.00000038146973
370
    25
100
AcDbBlockReference
  2
Dimension216
 10
0.0
 20
0.0
 30
0.0
  0
INSERT
  5
3AD
330
1F
100
AcDbEntity
  8
Smart 8225
  6
Continuous
 62
    18
420
        0
 48
50.00000038146973
370
    25
100
AcDbBlockReference
  2
Dimension217
 10
0.0
 20
0.0
 30
0.0
  0
INSERT
  5
3B1
330
1F
100
AcDbEntity
  8
Smart 8225
  6
Continuous
 62
    18
420
        0
 48
50.00000038146973
370
    25
100
AcDbBlockReference
  2
Dimension218
 10
0.0
 20
0.0
 30
0.0
  0
INSERT
  5
3B5
330
1F
100
AcDbEntity
  8
Smart 8225
  6
Continuous
 62
    18
420
        0
 48
50.00000038146973
370
    25
100
AcDbBlockReference
  2
Dimension219
 10
0.0
 20
0.0
 30
0.0
  0
INSERT
  5
3B9
330
1F
100
AcDbEntity
  8
Smart 8225
  6
Continuous
 62
    18
420
        0
 48
50.00000038146973
370
    25
100
AcDbBlockReference
  2
Dimension220
 10
0.0
 20
0.0
 30
0.0
  0
INSERT
  5
3BD
330
1F
100
AcDbEntity
  8
Smart 8225
  6
Continuous
 62
    18
420
        0
 48
50.00000038146973
370
    25
100
AcDbBlockReference
  2
Dimension221
 10
0.0
 20
0.0
 30
0.0
  0
INSERT
  5
3C1
330
1F
100
AcDbEntity
  8
Smart 8225
  6
Continuous
 62
    18
420
        0
 48
50.00000038146973
370
    25
100
AcDbBlockReference
  2
Dimension222
 10
0.0
 20
0.0
 30
0.0
  0
INSERT
  5
3C5
330
1F
100
AcDbEntity
  8
Smart 8225
  6
Continuous
 62
    18
420
        0
 48
50.00000038146973
370
    25
100
AcDbBlockReference
  2
Dimension223
 10
0.0
 20
0.0
 30
0.0
  0
INSERT
  5
3C9
330
1F
100
AcDbEntity
  8
Smart 8225
  6
Continuous
 62
    18
420
        0
 48
50.00000038146973
370
    25
100
AcDbBlockReference
  2
Dimension224
 10
0.0
 20
0.0
 30
0.0
  0
INSERT
  5
3CD
330
1F
100
AcDbEntity
  8
Smart 8225
  6
Continuous
 62
    18
420
        0
 48
50.00000038146973
370
    25
100
AcDbBlockReference
  2
Dimension225
 10
0.0
 20
0.0
 30
0.0
  0
INSERT
  5
3D1
330
1F
100
AcDbEntity
  8
Smart 8225
  6
Continuous
 62
    18
420
        0
 48
50.00000038146973
370
    25
100
AcDbBlockReference
  2
Dimension226
 10
0.0
 20
0.0
 30
0.0
  0
INSERT
  5
3D5
330
1F
100
AcDbEntity
  8
Smart 8225
  6
Continuous
 62
    18
420
        0
 48
50.00000038146973
370
    25
100
AcDbBlockReference
  2
Dimension227
 10
0.0
 20
0.0
 30
0.0
  0
INSERT
  5
3D9
330
1F
100
AcDbEntity
  8
Smart 8225
  6
Continuous
 62
    18
420
        0
 48
50.00000038146973
370
    25
100
AcDbBlockReference
  2
Dimension228
 10
0.0
 20
0.0
 30
0.0
  0
INSERT
  5
3DD
330
1F
100
AcDbEntity
  8
Smart 8225
  6
Continuous
 62
    18
420
        0
 48
50.00000038146973
370
    25
100
AcDbBlockReference
  2
Dimension229
 10
0.0
 20
0.0
 30
0.0
  0
INSERT
  5
3E1
330
1F
100
AcDbEntity
  8
Smart 8225
  6
Continuous
 62
    18
420
        0
 48
50.00000038146973
370
    25
100
AcDbBlockReference
  2
Dimension230
 10
0.0
 20
0.0
 30
0.0
  0
INSERT
  5
3E5
330
1F
100
AcDbEntity
  8
Smart 8225
  6
Continuous
 62
    18
420
        0
 48
50.00000038146973
370
    25
100
AcDbBlockReference
  2
Dimension231
 10
0.0
 20
0.0
 30
0.0
  0
INSERT
  5
3E9
330
1F
100
AcDbEntity
  8
Smart 8225
  6
Continuous
 62
    18
420
        0
 48
50.00000038146973
370
    25
100
AcDbBlockReference
  2
Dimension232
 10
0.0
 20
0.0
 30
0.0
  0
INSERT
  5
3ED
330
1F
100
AcDbEntity
  8
Smart 8225
  6
Continuous
 62
    18
420
        0
 48
50.00000038146973
370
    25
100
AcDbBlockReference
  2
Dimension233
 10
0.0
 20
0.0
 30
0.0
  0
INSERT
  5
3F1
330
1F
100
AcDbEntity
  8
Smart 8225
  6
Continuous
 62
    18
420
        0
 48
50.00000038146973
370
    25
100
AcDbBlockReference
  2
Dimension234
 10
0.0
 20
0.0
 30
0.0
  0
INSERT
  5
3F5
330
1F
100
AcDbEntity
  8
Smart 8225
  6
Continuous
 62
    18
420
        0
 48
50.00000038146973
370
    25
100
AcDbBlockReference
  2
Dimension235
 10
0.0
 20
0.0
 30
0.0
  0
INSERT
  5
3F9
330
1F
100
AcDbEntity
  8
Smart 8225
  6
Continuous
 62
    18
420
        0
 48
50.00000038146973
370
    25
100
AcDbBlockReference
  2
Dimension236
 10
0.0
 20
0.0
 30
0.0
  0
INSERT
  5
3FD
330
1F
100
AcDbEntity
  8
Smart 8225
  6
Continuous
 62
    18
420
        0
 48
50.00000038146973
370
    25
100
AcDbBlockReference
  2
Dimension237
 10
0.0
 20
0.0
 30
0.0
  0
INSERT
  5
401
330
1F
100
AcDbEntity
  8
Smart 8225
  6
Continuous
 62
    18
420
        0
 48
50.00000038146973
370
    25
100
AcDbBlockReference
  2
Dimension238
 10
0.0
 20
0.0
 30
0.0
  0
INSERT
  5
405
330
1F
100
AcDbEntity
  8
Smart 8225
  6
Continuous
 62
    18
420
        0
 48
50.00000038146973
370
    25
100
AcDbBlockReference
  2
Dimension239
 10
0.0
 20
0.0
 30
0.0
  0
INSERT
  5
409
330
1F
100
AcDbEntity
  8
Smart 8225
  6
Continuous
 62
    18
420
        0
 48
50.00000038146973
370
    25
100
AcDbBlockReference
  2
Dimension240
 10
0.0
 20
0.0
 30
0.0
  0
INSERT
  5
40D
330
1F
100
AcDbEntity
  8
Smart 8225
  6
Continuous
 62
    18
420
        0
 48
50.00000038146973
370
    25
100
AcDbBlockReference
  2
Dimension241
 10
0.0
 20
0.0
 30
0.0
  0
INSERT
  5
411
330
1F
100
AcDbEntity
  8
Smart 8225
  6
Continuous
 62
    18
420
        0
 48
50.00000038146973
370
    25
100
AcDbBlockReference
  2
Dimension242
 10
0.0
 20
0.0
 30
0.0
  0
INSERT
  5
415
330
1F
100
AcDbEntity
  8
Smart 8225
  6
Continuous
 62
    18
420
        0
 48
50.00000038146973
370
    25
100
AcDbBlockReference
  2
Dimension243
 10
0.0
 20
0.0
 30
0.0
  0
INSERT
  5
41A
330
1F
100
AcDbEntity
  8
Smart 8226
  6
Continuous
 62
    18
420
        0
 48
50.00000038146973
370
    25
100
AcDbBlockReference
  2
Dimension244
 10
0.0
 20
0.0
 30
0.0
  0
INSERT
  5
41E
330
1F
100
AcDbEntity
  8
Smart 8226
  6
Continuous
 62
    18
420
        0
 48
50.00000038146973
370
    25
100
AcDbBlockReference
  2
Dimension245
 10
0.0
 20
0.0
 30
0.0
  0
INSERT
  5
422
330
1F
100
AcDbEntity
  8
Smart 8226
  6
Continuous
 62
    18
420
        0
 48
50.00000038146973
370
    25
100
AcDbBlockReference
  2
Dimension246
 10
0.0
 20
0.0
 30
0.0
  0
INSERT
  5
426
330
1F
100
AcDbEntity
  8
Smart 8226
  6
Continuous
 62
    18
420
        0
 48
50.00000038146973
370
    25
100
AcDbBlockReference
  2
Dimension247
 10
0.0
 20
0.0
 30
0.0
  0
INSERT
  5
42A
330
1F
100
AcDbEntity
  8
Smart 8226
  6
Continuous
 62
    18
420
        0
 48
50.00000038146973
370
    25
100
AcDbBlockReference
  2
Dimension248
 10
0.0
 20
0.0
 30
0.0
  0
INSERT
  5
42E
330
1F
100
AcDbEntity
  8
Smart 8226
  6
Continuous
 62
    18
420
        0
 48
50.00000038146973
370
    25
100
AcDbBlockReference
  2
Dimension249
 10
0.0
 20
0.0
 30
0.0
  0
INSERT
  5
432
330
1F
100
AcDbEntity
  8
Smart 8226
  6
Continuous
 62
    18
420
        0
 48
50.00000038146973
370
    25
100
AcDbBlockReference
  2
Dimension250
 10
0.0
 20
0.0
 30
0.0
  0
INSERT
  5
436
330
1F
100
AcDbEntity
  8
Smart 8226
  6
Continuous
 62
    18
420
        0
 48
50.00000038146973
370
    25
100
AcDbBlockReference
  2
Dimension251
 10
0.0
 20
0.0
 30
0.0
  0
INSERT
  5
43A
330
1F
100
AcDbEntity
  8
Smart 8226
  6
Continuous
 62
    18
420
        0
 48
50.00000038146973
370
    25
100
AcDbBlockReference
  2
Dimension252
 10
0.0
 20
0.0
 30
0.0
  0
INSERT
  5
43E
330
1F
100
AcDbEntity
  8
Smart 8226
  6
Continuous
 62
    18
420
        0
 48
50.00000038146973
370
    25
100
AcDbBlockReference
  2
Dimension253
 10
0.0
 20
0.0
 30
0.0
  0
INSERT
  5
442
330
1F
100
AcDbEntity
  8
Smart 8226
  6
Continuous
 62
    18
420
        0
 48
50.00000038146973
370
    25
100
AcDbBlockReference
  2
Dimension254
 10
0.0
 20
0.0
 30
0.0
  0
INSERT
  5
446
330
1F
100
AcDbEntity
  8
Smart 8226
  6
Continuous
 62
    18
420
        0
 48
50.00000038146973
370
    25
100
AcDbBlockReference
  2
Dimension255
 10
0.0
 20
0.0
 30
0.0
  0
INSERT
  5
44A
330
1F
100
AcDbEntity
  8
Smart 8226
  6
Continuous
 62
    18
420
        0
 48
50.00000038146973
370
    25
100
AcDbBlockReference
  2
Dimension256
 10
0.0
 20
0.0
 30
0.0
  0
INSERT
  5
44E
330
1F
100
AcDbEntity
  8
Smart 8226
  6
Continuous
 62
    18
420
        0
 48
50.00000038146973
370
    25
100
AcDbBlockReference
  2
Dimension257
 10
0.0
 20
0.0
 30
0.0
  0
INSERT
  5
452
330
1F
100
AcDbEntity
  8
Smart 8226
  6
Continuous
 62
    18
420
        0
 48
50.00000038146973
370
    25
100
AcDbBlockReference
  2
Dimension258
 10
0.0
 20
0.0
 30
0.0
  0
INSERT
  5
456
330
1F
100
AcDbEntity
  8
Smart 8226
  6
Continuous
 62
    18
420
        0
 48
50.00000038146973
370
    25
100
AcDbBlockReference
  2
Dimension259
 10
0.0
 20
0.0
 30
0.0
  0
INSERT
  5
45A
330
1F
100
AcDbEntity
  8
Smart 8226
  6
Continuous
 62
    18
420
        0
 48
50.00000038146973
370
    25
100
AcDbBlockReference
  2
Dimension260
 10
0.0
 20
0.0
 30
0.0
  0
INSERT
  5
45E
330
1F
100
AcDbEntity
  8
Smart 8226
  6
Continuous
 62
    18
420
        0
 48
50.00000038146973
370
    25
100
AcDbBlockReference
  2
Dimension261
 10
0.0
 20
0.0
 30
0.0
  0
INSERT
  5
462
330
1F
100
AcDbEntity
  8
Smart 8226
  6
Continuous
 62
    18
420
        0
 48
50.00000038146973
370
    25
100
AcDbBlockReference
  2
Dimension262
 10
0.0
 20
0.0
 30
0.0
  0
INSERT
  5
466
330
1F
100
AcDbEntity
  8
Smart 8226
  6
Continuous
 62
    18
420
        0
 48
50.00000038146973
370
    25
100
AcDbBlockReference
  2
Dimension263
 10
0.0
 20
0.0
 30
0.0
  0
INSERT
  5
46A
330
1F
100
AcDbEntity
  8
Smart 8226
  6
Continuous
 62
    18
420
        0
 48
50.00000038146973
370
    25
100
AcDbBlockReference
  2
Dimension264
 10
0.0
 20
0.0
 30
0.0
  0
INSERT
  5
46E
330
1F
100
AcDbEntity
  8
Smart 8226
  6
Continuous
 62
    18
420
        0
 48
50.00000038146973
370
    25
100
AcDbBlockReference
  2
Dimension265
 10
0.0
 20
0.0
 30
0.0
  0
INSERT
  5
472
330
1F
100
AcDbEntity
  8
Smart 8226
  6
Continuous
 62
    18
420
        0
 48
50.00000038146973
370
    25
100
AcDbBlockReference
  2
Dimension266
 10
0.0
 20
0.0
 30
0.0
  0
INSERT
  5
476
330
1F
100
AcDbEntity
  8
Smart 8226
  6
Continuous
 62
    18
420
        0
 48
50.00000038146973
370
    25
100
AcDbBlockReference
  2
Dimension267
 10
0.0
 20
0.0
 30
0.0
  0
INSERT
  5
47A
330
1F
100
AcDbEntity
  8
Smart 8226
  6
Continuous
 62
    18
420
        0
 48
50.00000038146973
370
    25
100
AcDbBlockReference
  2
Dimension268
 10
0.0
 20
0.0
 30
0.0
  0
INSERT
  5
47E
330
1F
100
AcDbEntity
  8
Smart 8226
  6
Continuous
 62
    18
420
        0
 48
50.00000038146973
370
    25
100
AcDbBlockReference
  2
Dimension269
 10
0.0
 20
0.0
 30
0.0
  0
INSERT
  5
482
330
1F
100
AcDbEntity
  8
Smart 8226
  6
Continuous
 62
    18
420
        0
 48
50.00000038146973
370
    25
100
AcDbBlockReference
  2
Dimension270
 10
0.0
 20
0.0
 30
0.0
  0
INSERT
  5
487
330
1F
100
AcDbEntity
  8
MO-525
  6
Continuous
 62
    18
420
        0
 48
50.00000038146973
370
    25
100
AcDbBlockReference
  2
Dimension271
 10
0.0
 20
0.0
 30
0.0
  0
INSERT
  5
48B
330
1F
100
AcDbEntity
  8
MO-525
  6
Continuous
 62
    18
420
        0
 48
50.00000038146973
370
    25
100
AcDbBlockReference
  2
Dimension272
 10
0.0
 20
0.0
 30
0.0
  0
INSERT
  5
48F
330
1F
100
AcDbEntity
  8
MO-525
  6
Continuous
 62
    18
420
        0
 48
50.00000038146973
370
    25
100
AcDbBlockReference
  2
Dimension273
 10
0.0
 20
0.0
 30
0.0
  0
INSERT
  5
493
330
1F
100
AcDbEntity
  8
MO-525
  6
Continuous
 62
    18
420
        0
 48
50.00000038146973
370
    25
100
AcDbBlockReference
  2
Dimension274
 10
0.0
 20
0.0
 30
0.0
  0
INSERT
  5
497
330
1F
100
AcDbEntity
  8
MO-525
  6
Continuous
 62
    18
420
        0
 48
50.00000038146973
370
    25
100
AcDbBlockReference
  2
Dimension275
 10
0.0
 20
0.0
 30
0.0
  0
INSERT
  5
49B
330
1F
100
AcDbEntity
  8
MO-525
  6
Continuous
 62
    18
420
        0
 48
50.00000038146973
370
    25
100
AcDbBlockReference
  2
Dimension276
 10
0.0
 20
0.0
 30
0.0
  0
INSERT
  5
49F
330
1F
100
AcDbEntity
  8
MO-525
  6
Continuous
 62
    18
420
        0
 48
50.00000038146973
370
    25
100
AcDbBlockReference
  2
Dimension277
 10
0.0
 20
0.0
 30
0.0
  0
INSERT
  5
4A3
330
1F
100
AcDbEntity
  8
MO-525
  6
Continuous
 62
    18
420
        0
 48
50.00000038146973
370
    25
100
AcDbBlockReference
  2
Dimension278
 10
0.0
 20
0.0
 30
0.0
  0
INSERT
  5
4A7
330
1F
100
AcDbEntity
  8
MO-525
  6
Continuous
 62
    18
420
        0
 48
50.00000038146973
370
    25
100
AcDbBlockReference
  2
Dimension279
 10
0.0
 20
0.0
 30
0.0
  0
INSERT
  5
4AB
330
1F
100
AcDbEntity
  8
MO-525
  6
Continuous
 62
    18
420
        0
 48
50.00000038146973
370
    25
100
AcDbBlockReference
  2
Dimension280
 10
0.0
 20
0.0
 30
0.0
  0
INSERT
  5
4AF
330
1F
100
AcDbEntity
  8
MO-525
  6
Continuous
 62
    18
420
        0
 48
50.00000038146973
370
    25
100
AcDbBlockReference
  2
Dimension281
 10
0.0
 20
0.0
 30
0.0
  0
INSERT
  5
4B3
330
1F
100
AcDbEntity
  8
MO-525
  6
Continuous
 62
    18
420
        0
 48
50.00000038146973
370
    25
100
AcDbBlockReference
  2
Dimension282
 10
0.0
 20
0.0
 30
0.0
  0
INSERT
  5
4B7
330
1F
100
AcDbEntity
  8
MO-525
  6
Continuous
 62
    18
420
        0
 48
50.00000038146973
370
    25
100
AcDbBlockReference
  2
Dimension283
 10
0.0
 20
0.0
 30
0.0
  0
INSERT
  5
4BB
330
1F
100
AcDbEntity
  8
MO-525
  6
Continuous
 62
    18
420
        0
 48
50.00000038146973
370
    25
100
AcDbBlockReference
  2
Dimension284
 10
0.0
 20
0.0
 30
0.0
  0
INSERT
  5
4BF
330
1F
100
AcDbEntity
  8
MO-525
  6
Continuous
 62
    18
420
        0
 48
50.00000038146973
370
    25
100
AcDbBlockReference
  2
Dimension285
 10
0.0
 20
0.0
 30
0.0
  0
INSERT
  5
4C3
330
1F
100
AcDbEntity
  8
MO-525
  6
Continuous
 62
    18
420
        0
 48
50.00000038146973
370
    25
100
AcDbBlockReference
  2
Dimension286
 10
0.0
 20
0.0
 30
0.0
  0
INSERT
  5
4C7
330
1F
100
AcDbEntity
  8
MO-525
  6
Continuous
 62
    18
420
        0
 48
50.00000038146973
370
    25
100
AcDbBlockReference
  2
Dimension287
 10
0.0
 20
0.0
 30
0.0
  0
INSERT
  5
4CB
330
1F
100
AcDbEntity
  8
MO-525
  6
Continuous
 62
    18
420
        0
 48
50.00000038146973
370
    25
100
AcDbBlockReference
  2
Dimension288
 10
0.0
 20
0.0
 30
0.0
  0
INSERT
  5
4CF
330
1F
100
AcDbEntity
  8
MO-525
  6
Continuous
 62
    18
420
        0
 48
50.00000038146973
370
    25
100
AcDbBlockReference
  2
Dimension289
 10
0.0
 20
0.0
 30
0.0
  0
INSERT
  5
4D3
330
1F
100
AcDbEntity
  8
MO-525
  6
Continuous
 62
    18
420
        0
 48
50.00000038146973
370
    25
100
AcDbBlockReference
  2
Dimension290
 10
0.0
 20
0.0
 30
0.0
  0
INSERT
  5
4D7
330
1F
100
AcDbEntity
  8
MO-525
  6
Continuous
 62
    18
420
        0
 48
50.00000038146973
370
    25
100
AcDbBlockReference
  2
Dimension291
 10
0.0
 20
0.0
 30
0.0
  0
TEXT
  5
4DA
330
1F
100
AcDbEntity
  8
MO-565
  6
Continuous
 62
    18
420
        0
 48
50.00000038146973
370
    25
100
AcDbText
 10
36862.87708571804
 20
18578.6878267194
 30
0.0
 40
32.00000000000001
  1
ü
 41
0.8125
  7
CENTURY GOTHIC
100
AcDbText
  0
TEXT
  5
4DC
330
1F
100
AcDbEntity
  8
MO-565
  6
Continuous
 62
    18
420
        0
 48
907.2000518798828
370
    25
100
AcDbText
 10
37927.64768700631
 20
17465.98548501932
 30
0.0
 40
19.2
  1
Moser GmbH
 41
0.8125
  7
HLV-L
100
AcDbText
  0
TEXT
  5
4DD
330
1F
100
AcDbEntity
  8
MO-565
  6
Continuous
 62
    18
420
        0
 48
907.2000518798828
370
    25
100
AcDbText
 10
37927.64768700631
 20
17445.36050564433
 30
0.0
 40
19.2
  1
Im Mühlegrün 13
 41
0.8125
  7
HLV-L
100
AcDbText
  0
TEXT
  5
4DE
330
1F
100
AcDbEntity
  8
MO-565
  6
Continuous
 62
    18
420
        0
 48
907.2000518798828
370
    25
100
AcDbText
 10
37927.64768700631
 20
17424.73552626933
 30
0.0
 40
19.2
  1
77716 Haslach
 41
0.8125
  7
HLV-L
100
AcDbText
  0
TEXT
  5
4DF
330
1F
100
AcDbEntity
  8
MO-565
  6
Continuous
 62
    18
420
        0
 48
907.2000518798828
370
    25
100
AcDbText
 10
37927.64768700631
 20
17404.11054689433
 30
0.0
 40
19.2
  1
www.moser.gmbh
 41
0.8125
  7
HLV-L
100
AcDbText
  0
TEXT
  5
4E1
330
1F
100
AcDbEntity
  8
MO-565
  6
Continuous
 62
    18
420
        0
 48
41.66666698455811
370
    25
100
AcDbText
 10
37697.24009035921
 20
17547.03309181181
 30
0.0
 40
40.0
  1
MO-565
 41
0.8125
  7
ARIAL
100
AcDbText
  0
TEXT
  5
4E3
330
1F
100
AcDbEntity
  8
MO-565
  6
Continuous
 62
    18
420
        0
 48
16.94687619209289
370
    25
100
AcDbText
 10
37724.17072001297
 20
17414.42004357839
 30
0.0
 40
10.86419914340973
  1
Mineralwerkstoffe
 41
0.8125
  7
HELV-HFT
100
AcDbText
  0
INSERT
  5
4E7
330
1F
100
AcDbEntity
  8
MO-565
  6
Continuous
 62
    18
420
        0
 48
50.00000038146973
370
    25
100
AcDbBlockReference
  2
Dimension292
 10
0.0
 20
0.0
 30
0.0
  0
INSERT
  5
4EB
330
1F
100
AcDbEntity
  8
MO-565
  6
Continuous
 62
    18
420
        0
 48
50.00000038146973
370
    25
100
AcDbBlockReference
  2
Dimension293
 10
0.0
 20
0.0
 30
0.0
  0
INSERT
  5
4EF
330
1F
100
AcDbEntity
  8
MO-565
  6
Continuous
 62
    18
420
        0
 48
50.00000038146973
370
    25
100
AcDbBlockReference
  2
Dimension294
 10
0.0
 20
0.0
 30
0.0
  0
INSERT
  5
4F3
330
1F
100
AcDbEntity
  8
MO-565
  6
Continuous
 62
    18
420
        0
 48
50.00000038146973
370
    25
100
AcDbBlockReference
  2
Dimension295
 10
0.0
 20
0.0
 30
0.0
  0
INSERT
  5
4F7
330
1F
100
AcDbEntity
  8
MO-565
  6
Continuous
 62
    18
420
        0
 48
50.00000038146973
370
    25
100
AcDbBlockReference
  2
Dimension296
 10
0.0
 20
0.0
 30
0.0
  0
INSERT
  5
4FB
330
1F
100
AcDbEntity
  8
MO-565
  6
Continuous
 62
    18
420
        0
 48
50.00000038146973
370
    25
100
AcDbBlockReference
  2
Dimension297
 10
0.0
 20
0.0
 30
0.0
  0
DIMENSION
  5
4FC
330
1F
100
AcDbEntity
  8
MO-565
  6
Continuous
 62
    18
420
        0
 48
50.00000038146973
370
    25
100
AcDbDimension
  2
*D298
 10
37164.07089858163
 20
18105.38091247665
 30
0.0
 11
36880.59517977605
 21
18145.80091656553
 31
0.0
 70
    32
 71
     5
 42
566.951437611162
  3
ISO-25
100
AcDbAlignedDimension
 13
36597.11946097047
 23
18367.85025061526
 33
0.0
 14
37164.07089858163
 24
18367.85025061526
 34
0.0
100
AcDbRotatedDimension
1001
ACAD
1000
DSTYLE
1002
{
1070
   271
1070
     3
1070
   177
1070
    18
1070
   176
1070
    18
1070
   140
1040
40.0
1070
    76
1070
     0
1070
    75
1070
     0
1070
   282
1070
     0
1070
   281
1070
     0
1070
   174
1070
     1
1070
    42
1040
0.0
1070
    49
1040
19.9999995470047
1070
   290
1070
     1
1070
    44
1040
19.9999995470047
1070
    46
1040
0.0
1070
    41
1040
15.00000059604645
1070
   173
1070
     1
1070
   342
1005
0
1070
   344
1005
50A
1070
   343
1005
50A
1070
   147
1040
20.00000408887863
1070
    70
1070
    18
1070
    69
1070
     0
1070
   340
1005
4E0
1070
   278
1070
    46
1002
}
1001
ACAD_DSTYLE_DIMEXT_ENABLED
1070
   383
1070
     1
1001
ACAD_DSTYLE_DIMEXT_LENGTH
1070
   378
1040
19.9999995470047
  0
DIMENSION
  5
511
330
1F
100
AcDbEntity
  8
MO-565
  6
Continuous
 62
    18
420
        0
 48
50.00000038146973
370
    25
100
AcDbDimension
  2
*D300
 10
37176.1339248742
 20
18051.38091247665
 30
0.0
 11
36880.59148720893
 21
18083.38091656553
 31
0.0
 70
    32
 71
     5
 42
591.0848753305327
  3
ISO-25
100
AcDbAlignedDimension
 13
36585.04904954367
 23
18367.84160551516
 33
0.0
 14
37176.1339248742
 24
18367.84160551516
 34
0.0
100
AcDbRotatedDimension
1001
ACAD
1000
DSTYLE
1002
{
1070
    69
1070
     0
1070
   271
1070
     3
1070
   177
1070
    18
1070
   176
1070
    18
1070
   140
1040
24.0
1070
    76
1070
     0
1070
    75
1070
     0
1070
   282
1070
     0
1070
   281
1070
     0
1070
   174
1070
     1
1070
    42
1040
0.0
1070
    49
1040
19.9999995470047
1070
   290
1070
     1
1070
    44
1040
19.9999995470047
1070
    46
1040
0.0
1070
    41
1040
9.000000357627869
1070
   173
1070
     1
1070
   342
1005
0
1070
   344
1005
50A
1070
   343
1005
50A
1070
   147
1040
20.00000408887863
1070
   178
1070
    18
1070
   340
1005
510
1070
   278
1070
    46
1002
}
1001
ACAD_DSTYLE_DIMEXT_ENABLED
1070
   383
1070
     1
1001
ACAD_DSTYLE_DIMEXT_LENGTH
1070
   378
1040
19.9999995470047
  0
DIMENSION
  5
51E
330
1F
100
AcDbEntity
  8
MO-565
  6
Continuous
 62
    18
420
        0
 48
50.00000038146973
370
    25
100
AcDbDimension
  2
*D301
 10
36526.03113511745
 20
18176.47331490153
 30
0.0
 11
36485.61113102857
 21
18367.85025061526
 31
0.0
 70
    32
 71
     5
 42
382.7538714274488
  3
ISO-25
100
AcDbAlignedDimension
 13
36880.59517977605
 23
18559.22718632898
 33
0.0
 14
36880.59517977605
 24
18176.47331490153
 34
0.0
 50
-90.0
100
AcDbRotatedDimension
1001
ACAD
1000
DSTYLE
1002
{
1070
   271
1070
     3
1070
   177
1070
    18
1070
   176
1070
    18
1070
   140
1040
40.0
1070
    76
1070
     0
1070
    75
1070
     0
1070
   282
1070
     0
1070
   281
1070
     0
1070
   174
1070
     1
1070
    42
1040
0.0
1070
    49
1040
19.9999995470047
1070
   290
1070
     1
1070
    44
1040
19.9999995470047
1070
    46
1040
0.0
1070
    41
1040
15.00000059604645
1070
   173
1070
     1
1070
   342
1005
0
1070
   344
1005
50A
1070
   343
1005
50A
1070
   147
1040
20.00000408887863
1070
    70
1070
    18
1070
    69
1070
     0
1070
   340
1005
4E0
1070
   278
1070
    46
1002
}
1001
ACAD_DSTYLE_DIMEXT_ENABLED
1070
   383
1070
     1
1001
ACAD_DSTYLE_DIMEXT_LENGTH
1070
   378
1040
19.9999995470047
  0
DIMENSION
  5
52B
330
1F
100
AcDbEntity
  8
MO-565
  6
Continuous
 62
    18
420
        0
 48
50.00000038146973
370
    25
100
AcDbDimension
  2
*D302
 10
36472.2644155244
 20
18164.38091247666
 30
0.0
 11
36440.26441143552
 21
18367.84160551517
 31
0.0
 70
    32
 71
     5
 42
406.9213860770215
  3
ISO-25
100
AcDbAlignedDimension
 13
36880.59148720893
 23
18571.30229855368
 33
0.0
 14
36880.59148720893
 24
18164.38091247666
 34
0.0
 50
-90.0
100
AcDbRotatedDimension
1001
ACAD
1000
DSTYLE
1002
{
1070
    69
1070
     0
1070
   271
1070
     3
1070
   177
1070
    18
1070
   176
1070
    18
1070
   140
1040
24.0
1070
    76
1070
     0
1070
    75
1070
     0
1070
   282
1070
     0
1070
   281
1070
     0
1070
   174
1070
     1
1070
    42
1040
0.0
1070
    49
1040
19.9999995470047
1070
   290
1070
     1
1070
    44
1040
19.9999995470047
1070
    46
1040
0.0
1070
    41
1040
9.000000357627869
1070
   173
1070
     1
1070
   342
1005
0
1070
   344
1005
50A
1070
   343
1005
50A
1070
   147
1040
20.00000408887863
1070
   178
1070
    18
1070
   340
1005
510
1070
   278
1070
    46
1002
}
1001
ACAD_DSTYLE_DIMEXT_ENABLED
1070
   383
1070
     1
1001
ACAD_DSTYLE_DIMEXT_LENGTH
1070
   378
1040
19.9999995470047
  0
DIMENSION
  5
538
330
1F
100
AcDbEntity
  8
MO-565
  6
Continuous
 62
    18
420
        0
 48
50.00000038146973
370
    25
100
AcDbDimension
  2
*D303
 10
37235.1339248742
 20
17781.51567622938
 30
0.0
 11
37203.13392078532
 21
17853.01567622938
 31
0.0
 70
    32
 71
     5
 42
142.9999999999964
  3
ISO-25
100
AcDbAlignedDimension
 13
37176.1339248742
 23
17924.51567622937
 33
0.0
 14
36880.58863735151
 24
17781.51567622938
 34
0.0
 50
-90.0
100
AcDbRotatedDimension
1001
ACAD
1000
DSTYLE
1002
{
1070
    69
1070
     0
1070
   271
1070
     3
1070
   177
1070
    18
1070
   176
1070
    18
1070
   140
1040
24.0
1070
    76
1070
     0
1070
    75
1070
     0
1070
   282
1070
     0
1070
   281
1070
     0
1070
   174
1070
     1
1070
    42
1040
0.0
1070
    49
1040
19.9999995470047
1070
   290
1070
     1
1070
    44
1040
19.9999995470047
1070
    46
1040
0.0
1070
    41
1040
9.000000357627869
1070
   173
1070
     1
1070
   342
1005
0
1070
   344
1005
50A
1070
   343
1005
50A
1070
   147
1040
20.00000408887863
1070
   178
1070
    18
1070
   340
1005
510
1070
   278
1070
    46
1002
}
1001
ACAD_DSTYLE_DIMEXT_ENABLED
1070
   383
1070
     1
1001
ACAD_DSTYLE_DIMEXT_LENGTH
1070
   378
1040
19.9999995470047
  0
DIMENSION
  5
545
330
1F
100
AcDbEntity
  8
MO-565
  6
Continuous
 62
    18
420
        0
 48
50.00000038146973
370
    25
100
AcDbDimension
  2
*D304
 10
37235.1339248742
 20
18407.84760010481
 30
0.0
 11
37203.13392078532
 21
18483.53739321689
 31
0.0
 70
    32
 71
     5
 42
151.3795862241714
  3
ISO-25
100
AcDbAlignedDimension
 13
36880.59517977605
 23
18559.22718632898
 33
0.0
 14
36880.59517977605
 24
18407.84760010481
 34
0.0
 50
-90.0
100
AcDbRotatedDimension
1001
ACAD
1000
DSTYLE
1002
{
1070
    69
1070
     0
1070
   271
1070
     3
1070
   177
1070
    18
1070
   176
1070
    18
1070
   140
1040
24.0
1070
    76
1070
     0
1070
    75
1070
     0
1070
   282
1070
     0
1070
   281
1070
     0
1070
   174
1070
     1
1070
    42
1040
0.0
1070
    49
1040
19.9999995470047
1070
   290
1070
     1
1070
    44
1040
19.9999995470047
1070
    46
1040
0.0
1070
    41
1040
9.000000357627869
1070
   173
1070
     1
1070
   342
1005
0
1070
   344
1005
50A
1070
   343
1005
50A
1070
   147
1040
20.00000408887863
1070
   178
1070
    18
1070
   340
1005
510
1070
   278
1070
    46
1002
}
1001
ACAD_DSTYLE_DIMEXT_ENABLED
1070
   383
1070
     1
1001
ACAD_DSTYLE_DIMEXT_LENGTH
1070
   378
1040
19.9999995470047
  0
INSERT
  5
557
330
1F
100
AcDbEntity
  8
MO-565
  6
Continuous
 62
    18
420
        0
 48
50.00000038146973
370
    25
100
AcDbBlockReference
  2
Dimension298
 10
0.0
 20
0.0
 30
0.0
  0
INSERT
  5
55B
330
1F
100
AcDbEntity
  8
MO-565
  6
Continuous
 62
    18
420
        0
 48
50.00000038146973
370
    25
100
AcDbBlockReference
  2
Dimension299
 10
0.0
 20
0.0
 30
0.0
  0
LINE
  5
55C
330
1F
100
AcDbEntity
  8
MO-565
  6
Continuous
 62
    18
420
        0
 48
50.00000038146973
370
    25
100
AcDbLine
 10
36836.59148720823
 20
18407.84760010481
 30
0.0
 11
36924.59148720823
 21
18407.84760010481
 31
0.0
  0
LINE
  5
55D
330
1F
100
AcDbEntity
  8
MO-565
  6
Continuous
 62
    18
420
        0
 48
50.00000038146973
370
    25
100
AcDbLine
 10
36880.59148720823
 20
18451.84760010481
 30
0.0
 11
36880.59148720823
 21
18363.84760010481
 31
0.0
  0
LINE
  5
55E
330
1F
100
AcDbEntity
  8
MO-565
  6
Continuous
 62
    18
420
        0
 48
1.999999992549419
370
    25
100
AcDbLine
 10
36899.05667377357
 20
17908.11744293133
 30
0.0
 11
36895.58863735152
 21
17909.51567622938
 31
0.0
  0
LINE
  5
55F
330
1F
100
AcDbEntity
  8
MO-565
  6
Continuous
 62
    18
420
        0
 48
1.999999992549419
370
    25
100
AcDbLine
 10
36895.58863735152
 20
17909.51567622938
 30
0.0
 11
36865.58863735151
 21
17909.51567622938
 31
0.0
  0
LINE
  5
560
330
1F
100
AcDbEntity
  8
MO-565
  6
Continuous
 62
    18
420
        0
 48
1.999999992549419
370
    25
100
AcDbLine
 10
36865.58863735151
 20
17909.51567622938
 30
0.0
 11
36862.12002761927
 21
17908.11689081966
 31
0.0
  0
LINE
  5
561
330
1F
100
AcDbEntity
  8
MO-565
  6
Continuous
 62
    18
420
        0
 48
1.999999992549419
370
    25
100
AcDbLine
 10
36898.94332415247
 20
17900.80810607259
 30
0.0
 11
36900.58863735152
 21
17904.51567622938
 31
0.0
  0
LINE
  5
562
330
1F
100
AcDbEntity
  8
MO-565
  6
Continuous
 62
    18
420
        0
 48
1.999999992549419
370
    25
100
AcDbLine
 10
36900.58863735152
 20
17904.51567622938
 30
0.0
 11
36899.03404598935
 21
17908.13909441092
 31
0.0
  0
LINE
  5
563
330
1F
100
AcDbEntity
  8
MO-565
  6
Continuous
 62
    18
420
        0
 48
1.999999992549419
370
    25
100
AcDbLine
 10
36860.58863735152
 20
17904.51567622938
 30
0.0
 11
36862.21109768411
 21
17900.82891263578
 31
0.0
  0
LINE
  5
564
330
1F
100
AcDbEntity
  8
MO-565
  6
Continuous
 62
    18
420
        0
 48
1.999999992549419
370
    25
100
AcDbLine
 10
36862.11774921516
 20
17908.11469492131
 30
0.0
 11
36860.58863735152
 21
17904.51567622938
 31
0.0
  0
LINE
  5
565
330
1F
100
AcDbEntity
  8
MO-565
  6
Continuous
 62
    18
420
        0
 48
1.999999992549419
370
    25
100
AcDbLine
 10
36865.58863735151
 20
17899.51567622938
 30
0.0
 11
36895.58863735152
 21
17899.51567622938
 31
0.0
  0
LINE
  5
566
330
1F
100
AcDbEntity
  8
MO-565
  6
Continuous
 62
    18
420
        0
 48
1.999999992549419
370
    25
100
AcDbLine
 10
36895.58863735152
 20
17899.51567622938
 30
0.0
 11
36898.96723900158
 21
17900.82988582701
 31
0.0
  0
LINE
  5
567
330
1F
100
AcDbEntity
  8
MO-565
  6
Continuous
 62
    18
420
        0
 48
1.999999992549419
370
    25
100
AcDbLine
 10
36862.2095541851
 20
17900.83032726972
 30
0.0
 11
36865.58863735151
 21
17899.51567622938
 31
0.0
  0
LINE
  5
568
330
1F
100
AcDbEntity
  8
MO-565
  6
Continuous
 62
    18
420
        0
 48
1.999999992549419
370
    25
100
AcDbLine
 10
36856.58863735152
 20
17788.51567622938
 30
0.0
 11
36904.58863735152
 21
17788.51567622938
 31
0.0
  0
LINE
  5
569
330
1F
100
AcDbEntity
  8
MO-565
  6
Continuous
 62
    18
420
        0
 48
1.999999992549419
370
    25
100
AcDbLine
 10
36846.3683324256
 20
17798.73598115529
 30
0.0
 11
36856.58863735152
 21
17788.51567622938
 31
0.0
  0
LINE
  5
56A
330
1F
100
AcDbEntity
  8
MO-565
  6
Continuous
 62
    18
420
        0
 48
1.999999992549419
370
    25
100
AcDbLine
 10
36904.58863735152
 20
17788.51567622938
 30
0.0
 11
36914.80894227744
 21
17798.73598115529
 31
0.0
  0
LINE
  5
56B
330
1F
100
AcDbEntity
  8
MO-565
  6
Continuous
 62
    18
420
        0
 48
1.999999992549419
370
    25
100
AcDbLine
 10
36856.58863735152
 20
17788.51567622938
 30
0.0
 11
36856.58863735152
 21
17781.51567622938
 31
0.0
  0
LINE
  5
56C
330
1F
100
AcDbEntity
  8
MO-565
  6
Continuous
 62
    18
420
        0
 48
1.999999992549419
370
    25
100
AcDbLine
 10
36904.58863735152
 20
17781.51567622938
 30
0.0
 11
36904.58863735152
 21
17788.51567622938
 31
0.0
  0
LINE
  5
56D
330
1F
100
AcDbEntity
  8
MO-565
  6
Continuous
 62
    18
420
        0
 48
1.999999992549419
370
    25
100
AcDbLine
 10
37512.13392487421
 20
18431.7903921133
 30
0.0
 11
37512.13392487421
 21
18383.7903921133
 31
0.0
  0
LINE
  5
56E
330
1F
100
AcDbEntity
  8
MO-565
  6
Continuous
 62
    18
420
        0
 48
1.999999992549419
370
    25
100
AcDbLine
 10
37391.13392487422
 20
18569.86466081454
 30
0.0
 11
37391.13392487422
 21
18557.79737348527
 31
0.0
  0
LINE
  5
56F
330
1F
100
AcDbEntity
  8
MO-565
  6
Continuous
 62
    18
420
        0
 48
1.999999992549419
370
    25
100
AcDbLine
 10
37401.13392487422
 20
18556.6374194973
 30
0.0
 11
37401.13392487422
 21
18568.72866410595
 31
0.0
  0
LINE
  5
570
330
1F
100
AcDbEntity
  8
MO-565
  6
Continuous
 62
    18
420
        0
 48
1.999999992549419
370
    25
100
AcDbLine
 10
37502.18362253273
 20
18441.74069445478
 30
0.0
 11
37512.13392487421
 21
18431.7903921133
 31
0.0
  0
LINE
  5
571
330
1F
100
AcDbEntity
  8
MO-565
  6
Continuous
 62
    18
420
        0
 48
1.999999992549419
370
    25
100
AcDbLine
 10
37512.13392487421
 20
18383.7903921133
 30
0.0
 11
37501.75696755817
 21
18373.41343479726
 31
0.0
  0
LINE
  5
572
330
1F
100
AcDbEntity
  8
MO-565
  6
Continuous
 62
    18
420
        0
 48
1.999999992549419
370
    25
100
AcDbLine
 10
37512.13392487421
 20
18431.7903921133
 30
0.0
 11
37519.13392487422
 21
18431.7903921133
 31
0.0
  0
LINE
  5
573
330
1F
100
AcDbEntity
  8
MO-565
  6
Continuous
 62
    18
420
        0
 48
1.999999992549419
370
    25
100
AcDbLine
 10
37519.13392487422
 20
18383.7903921133
 30
0.0
 11
37512.13392487421
 21
18383.7903921133
 31
0.0
  0
LINE
  5
574
330
1F
100
AcDbEntity
  8
MO-565
  6
Continuous
 62
    18
420
        0
 48
1.999999992549419
370
    25
100
AcDbLine
 10
37498.33256868097
 20
18466.60970673546
 30
0.0
 11
37498.33256868097
 21
18466.60970673546
 31
0.0
  0
LINE
  5
575
330
1F
100
AcDbEntity
  8
MO-565
  6
Continuous
 62
    18
420
        0
 48
907.2000518798828
370
    25
100
AcDbLine
 10
38069.93488352499
 20
17393.55731534453
 30
0.0
 11
38069.93488352499
 21
17616.30731534454
 31
0.0
  0
LINE
  5
576
330
1F
100
AcDbEntity
  8
MO-565
  6
Continuous
 62
    18
420
        0
 48
907.2000518798828
370
    25
100
AcDbLine
 10
37695.93488352499
 20
17393.55731534453
 30
0.0
 11
37695.93488352499
 21
17506.30731534453
 31
0.0
  0
LINE
  5
577
330
1F
100
AcDbEntity
  8
MO-565
  6
Continuous
 62
    18
420
        0
 48
60.00000166893005
370
    25
100
AcDbLine
 10
37695.93488352499
 20
17506.30731534453
 30
0.0
 11
38069.93488352499
 21
17506.30731534453
 31
0.0
  0
LINE
  5
578
330
1F
100
AcDbEntity
  8
MO-565
  6
Continuous
 62
    18
420
        0
 48
162.0000075340271
370
    25
100
AcDbLine
 10
37761.4457288688
 20
17476.4160320928
 30
0.0
 11
37791.0712270392
 21
17476.41795005119
 31
0.0
  0
LINE
  5
579
330
1F
100
AcDbEntity
  8
MO-565
  6
Continuous
 62
    18
420
        0
 48
162.0000075340271
370
    25
100
AcDbLine
 10
37757.61799941992
 20
17467.15871643424
 30
0.0
 11
37794.89719743457
 21
17467.15983498239
 31
0.0
  0
LINE
  5
57A
330
1F
100
AcDbEntity
  8
MO-565
  6
Continuous
 62
    18
420
        0
 48
162.0000075340271
370
    25
100
AcDbLine
 10
37793.71867365165
 20
17471.78697268292
 30
0.0
 11
37758.79793590734
 21
17471.78806851207
 31
0.0
  0
LINE
  5
57B
330
1F
100
AcDbEntity
  8
MO-565
  6
Continuous
 62
    18
420
        0
 48
162.0000075340271
370
    25
100
AcDbLine
 10
37758.79985401603
 20
17457.9634473272
 30
0.0
 11
37793.71824606809
 21
17457.96640113222
 31
0.0
  0
LINE
  5
57C
330
1F
100
AcDbEntity
  8
MO-565
  6
Continuous
 62
    18
420
        0
 48
162.0000075340271
370
    25
100
AcDbLine
 10
37794.89818230246
 20
17462.59692561908
 30
0.0
 11
37757.61898454087
 21
17462.5946346619
 31
0.0
  0
LINE
  5
57D
330
1F
100
AcDbEntity
  8
MO-565
  6
Continuous
 62
    18
420
        0
 48
162.0000075340271
370
    25
100
AcDbLine
 10
37791.07279831578
 20
17453.33662615273
 30
0.0
 11
37761.44484833059
 21
17453.33662615273
 31
0.0
  0
LINE
  5
57E
330
1F
100
AcDbEntity
  8
MO-565
  6
Continuous
 62
    18
420
        0
 48
162.0000075340271
370
    25
100
AcDbLine
 10
37797.83664872399
 20
17453.29385427904
 30
0.0
 11
37816.21266912932
 21
17453.29313096135
 31
0.0
  0
LINE
  5
57F
330
1F
100
AcDbEntity
  8
MO-565
  6
Continuous
 62
    18
420
        0
 48
162.0000075340271
370
    25
100
AcDbLine
 10
37816.21083013528
 20
17467.24501184034
 30
0.0
 11
37804.71141516128
 21
17467.24657992306
 31
0.0
  0
LINE
  5
580
330
1F
100
AcDbEntity
  8
MO-565
  6
Continuous
 62
    18
420
        0
 48
162.0000075340271
370
    25
100
AcDbLine
 10
37804.60688165901
 20
17471.579248425
 30
0.0
 11
37823.08543417209
 21
17471.580359143
 31
0.0
  0
LINE
  5
581
330
1F
100
AcDbEntity
  8
MO-565
  6
Continuous
 62
    18
420
        0
 48
162.0000075340271
370
    25
100
AcDbLine
 10
37823.08543417209
 20
17471.580359143
 30
0.0
 11
37823.08663561729
 21
17476.38382600592
 31
0.0
  0
LINE
  5
582
330
1F
100
AcDbEntity
  8
MO-565
  6
Continuous
 62
    18
420
        0
 48
162.0000075340271
370
    25
100
AcDbLine
 10
37823.08663561729
 20
17476.38382600592
 30
0.0
 11
37804.60701713979
 21
17476.3833545537
 31
0.0
  0
LINE
  5
583
330
1F
100
AcDbEntity
  8
MO-565
  6
Continuous
 62
    18
420
        0
 48
162.0000075340271
370
    25
100
AcDbLine
 10
37804.60885413239
 20
17462.44074636431
 30
0.0
 11
37816.10827060172
 21
17462.43225041005
 31
0.0
  0
LINE
  5
584
330
1F
100
AcDbEntity
  8
MO-565
  6
Continuous
 62
    18
420
        0
 48
162.0000075340271
370
    25
100
AcDbLine
 10
37816.21163206304
 20
17458.09787633283
 30
0.0
 11
37797.83678445782
 21
17458.09678799871
 31
0.0
  0
LINE
  5
585
330
1F
100
AcDbEntity
  8
MO-565
  6
Continuous
 62
    18
420
        0
 48
162.0000075340271
370
    25
100
AcDbLine
 10
37797.83678445782
 20
17458.09678799871
 30
0.0
 11
37797.83664872399
 21
17453.29385427904
 31
0.0
  0
LINE
  5
586
330
1F
100
AcDbEntity
  8
MO-565
  6
Continuous
 62
    18
420
        0
 48
162.0000075340271
370
    25
100
AcDbLine
 10
37836.35572108417
 20
17453.30216831613
 30
0.0
 11
37851.37854494216
 21
17453.30136073335
 31
0.0
  0
LINE
  5
587
330
1F
100
AcDbEntity
  8
MO-565
  6
Continuous
 62
    18
420
        0
 48
162.0000075340271
370
    25
100
AcDbLine
 10
37851.37854494216
 20
17453.30136073335
 30
0.0
 11
37851.37868030791
 21
17458.10599977524
 31
0.0
  0
LINE
  5
588
330
1F
100
AcDbEntity
  8
MO-565
  6
Continuous
 62
    18
420
        0
 48
162.0000075340271
370
    25
100
AcDbLine
 10
37851.37868030791
 20
17458.10599977524
 30
0.0
 11
37836.35468429395
 21
17458.10563469593
 31
0.0
  0
LINE
  5
589
330
1F
100
AcDbEntity
  8
MO-565
  6
Continuous
 62
    18
420
        0
 48
162.0000075340271
370
    25
100
AcDbLine
 10
37830.79044081669
 20
17462.50331258464
 30
0.0
 11
37851.3789033688
 21
17462.50434579681
 31
0.0
  0
LINE
  5
58A
330
1F
100
AcDbEntity
  8
MO-565
  6
Continuous
 62
    18
420
        0
 48
162.0000075340271
370
    25
100
AcDbLine
 10
37851.3789033688
 20
17462.50434579681
 30
0.0
 11
37851.37786683164
 21
17467.30663976759
 31
0.0
  0
LINE
  5
58B
330
1F
100
AcDbEntity
  8
MO-565
  6
Continuous
 62
    18
420
        0
 48
162.0000075340271
370
    25
100
AcDbLine
 10
37851.37786683164
 20
17467.30663976759
 30
0.0
 11
37830.79057666555
 21
17467.30571339111
 31
0.0
  0
LINE
  5
58C
330
1F
100
AcDbEntity
  8
MO-565
  6
Continuous
 62
    18
420
        0
 48
162.0000075340271
370
    25
100
AcDbLine
 10
37836.35281463383
 20
17471.70579284282
 30
0.0
 11
37851.37926193347
 21
17471.70669136444
 31
0.0
  0
LINE
  5
58D
330
1F
100
AcDbEntity
  8
MO-565
  6
Continuous
 62
    18
420
        0
 48
162.0000075340271
370
    25
100
AcDbLine
 10
37851.37926193347
 20
17471.70669136444
 30
0.0
 11
37851.37929108467
 21
17476.50962506111
 31
0.0
  0
LINE
  5
58E
330
1F
100
AcDbEntity
  8
MO-565
  6
Continuous
 62
    18
420
        0
 48
162.0000075340271
370
    25
100
AcDbLine
 10
37851.37929108467
 20
17476.50962506111
 30
0.0
 11
37836.35518835003
 21
17476.50989945463
 31
0.0
  0
LINE
  5
58F
330
1F
100
AcDbEntity
  8
MO-565
  6
Continuous
 62
    18
420
        0
 48
162.0000075340271
370
    25
100
AcDbLine
 10
37854.83874461591
 20
17453.32854008581
 30
0.0
 11
37859.94383997945
 21
17453.32910906704
 31
0.0
  0
LINE
  5
590
330
1F
100
AcDbEntity
  8
MO-565
  6
Continuous
 62
    18
420
        0
 48
162.0000075340271
370
    25
100
AcDbLine
 10
37859.94383997945
 20
17453.32910906704
 30
0.0
 11
37859.9444805707
 21
17471.59460325261
 31
0.0
  0
LINE
  5
591
330
1F
100
AcDbEntity
  8
MO-565
  6
Continuous
 62
    18
420
        0
 48
162.0000075340271
370
    25
100
AcDbLine
 10
37859.9444805707
 20
17471.59460325261
 30
0.0
 11
37872.39482571289
 21
17471.59387991652
 31
0.0
  0
LINE
  5
592
330
1F
100
AcDbEntity
  8
MO-565
  6
Continuous
 62
    18
420
        0
 48
162.0000075340271
370
    25
100
AcDbLine
 10
37872.49935898512
 20
17467.26227724097
 30
0.0
 11
37861.41305919454
 21
17467.25988435085
 31
0.0
  0
LINE
  5
593
330
1F
100
AcDbEntity
  8
MO-565
  6
Continuous
 62
    18
420
        0
 48
162.0000075340271
370
    25
100
AcDbLine
 10
37861.41305919454
 20
17467.25988435085
 30
0.0
 11
37861.41303487439
 21
17462.43456829997
 31
0.0
  0
LINE
  5
594
330
1F
100
AcDbEntity
  8
MO-565
  6
Continuous
 62
    18
420
        0
 48
162.0000075340271
370
    25
100
AcDbLine
 10
37861.41303487439
 20
17462.43456829997
 30
0.0
 11
37867.55294121917
 21
17462.4347211411
 31
0.0
  0
LINE
  5
595
330
1F
100
AcDbEntity
  8
MO-565
  6
Continuous
 62
    18
420
        0
 48
162.0000075340271
370
    25
100
AcDbLine
 10
37867.55294121917
 20
17462.4347211411
 30
0.0
 11
37873.80651169561
 21
17453.32858398782
 31
0.0
  0
LINE
  5
596
330
1F
100
AcDbEntity
  8
MO-565
  6
Continuous
 62
    18
420
        0
 48
162.0000075340271
370
    25
100
AcDbLine
 10
37873.80651169561
 20
17453.32858398782
 30
0.0
 11
37880.06035449052
 21
17453.33057332618
 31
0.0
  0
LINE
  5
597
330
1F
100
AcDbEntity
  8
MO-565
  6
Continuous
 62
    18
420
        0
 48
162.0000075340271
370
    25
100
AcDbLine
 10
37880.06035449052
 20
17453.33057332618
 30
0.0
 11
37873.64913563806
 21
17462.49529690656
 31
0.0
  0
LINE
  5
598
330
1F
100
AcDbEntity
  8
MO-565
  6
Continuous
 62
    18
420
        0
 48
162.0000075340271
370
    25
100
AcDbLine
 10
37872.49845282123
 20
17476.39854129629
 30
0.0
 11
37854.83952068794
 21
17476.39814040008
 31
0.0
  0
LINE
  5
599
330
1F
100
AcDbEntity
  8
MO-565
  6
Continuous
 62
    18
420
        0
 48
162.0000075340271
370
    25
100
AcDbLine
 10
37854.83952068794
 20
17476.39814040008
 30
0.0
 11
37854.83874461591
 21
17453.32854008581
 31
0.0
  0
LINE
  5
59A
330
1F
100
AcDbEntity
  8
MO-565
  6
Continuous
 62
    18
420
        0
 48
162.0000075340271
370
    25
100
AcDbLine
 10
37725.37313336234
 20
17453.29718531309
 30
0.0
 11
37725.37105111705
 21
17473.31404491855
 31
0.0
  0
LINE
  5
59B
330
1F
100
AcDbEntity
  8
MO-565
  6
Continuous
 62
    18
420
        0
 48
162.0000075340271
370
    25
100
AcDbLine
 10
37731.4852671591
 20
17474.81359685161
 30
0.0
 11
37739.6817632953
 21
17461.12130814059
 31
0.0
  0
LINE
  5
59C
330
1F
100
AcDbEntity
  8
MO-565
  6
Continuous
 62
    18
420
        0
 48
162.0000075340271
370
    25
100
AcDbLine
 10
37739.6817632953
 20
17461.12130814059
 30
0.0
 11
37747.87682515363
 21
17474.81361761249
 31
0.0
  0
LINE
  5
59D
330
1F
100
AcDbEntity
  8
MO-565
  6
Continuous
 62
    18
420
        0
 48
162.0000075340271
370
    25
100
AcDbLine
 10
37753.98945006845
 20
17473.31510600667
 30
0.0
 11
37753.99153233675
 21
17453.29813981858
 31
0.0
  0
LINE
  5
59E
330
1F
100
AcDbEntity
  8
MO-565
  6
Continuous
 62
    18
420
        0
 48
162.0000075340271
370
    25
100
AcDbLine
 10
37753.99153233675
 20
17453.29813981858
 30
0.0
 11
37748.98310728886
 21
17453.29823119874
 31
0.0
  0
LINE
  5
59F
330
1F
100
AcDbEntity
  8
MO-565
  6
Continuous
 62
    18
420
        0
 48
162.0000075340271
370
    25
100
AcDbLine
 10
37748.98310728886
 20
17453.29823119874
 30
0.0
 11
37748.98253861321
 21
17466.79649661869
 31
0.0
  0
LINE
  5
5A0
330
1F
100
AcDbEntity
  8
MO-565
  6
Continuous
 62
    18
420
        0
 48
162.0000075340271
370
    25
100
AcDbLine
 10
37748.98253861321
 20
17466.79649661869
 30
0.0
 11
37742.29241439613
 21
17455.61623856616
 31
0.0
  0
LINE
  5
5A1
330
1F
100
AcDbEntity
  8
MO-565
  6
Continuous
 62
    18
420
        0
 48
162.0000075340271
370
    25
100
AcDbLine
 10
37737.071144186
 20
17455.61457868306
 30
0.0
 11
37730.38088340499
 21
17466.79418692086
 31
0.0
  0
LINE
  5
5A2
330
1F
100
AcDbEntity
  8
MO-565
  6
Continuous
 62
    18
420
        0
 48
162.0000075340271
370
    25
100
AcDbLine
 10
37730.38088340499
 20
17466.79418692086
 30
0.0
 11
37730.38038611622
 21
17453.29656076669
 31
0.0
  0
LINE
  5
5A3
330
1F
100
AcDbEntity
  8
MO-565
  6
Continuous
 62
    18
420
        0
 48
162.0000075340271
370
    25
100
AcDbLine
 10
37730.38038611622
 20
17453.29656076669
 30
0.0
 11
37725.37313336234
 21
17453.29718531309
 31
0.0
  0
LINE
  5
5A4
330
1F
100
AcDbEntity
  8
MO-565
  6
Continuous
 62
    18
420
        0
 48
60.00000166893005
370
    25
100
AcDbLine
 10
38089.93521311484
 20
18796.55723072978
 30
0.0
 11
36039.93514902792
 21
18796.55723072978
 31
0.0
  0
LINE
  5
5A5
330
1F
100
AcDbEntity
  8
MO-565
  6
Continuous
 62
    18
420
        0
 48
60.00000166893005
370
    25
100
AcDbLine
 10
36039.93514902792
 20
18796.55723072978
 30
0.0
 11
36039.93514902792
 21
17361.55722462626
 31
0.0
  0
LINE
  5
5A6
330
1F
100
AcDbEntity
  8
MO-565
  6
Continuous
 62
    18
420
        0
 48
120.0000033378601
370
    25
100
AcDbLine
 10
36039.93514902792
 20
17361.55722462626
 30
0.0
 11
38089.93521311484
 21
17361.55722462627
 31
0.0
  0
LINE
  5
5A7
330
1F
100
AcDbEntity
  8
MO-565
  6
Continuous
 62
    18
420
        0
 48
60.00000166893005
370
    25
100
AcDbLine
 10
38089.93521311484
 20
17361.55722462627
 30
0.0
 11
38089.93521311484
 21
18796.55723072978
 31
0.0
  0
LINE
  5
5A8
330
1F
100
AcDbEntity
  8
MO-565
  6
Continuous
 62
    18
420
        0
 48
60.00000166893005
370
    25
100
AcDbLine
 10
36124.93519327841
 20
17393.55731534453
 30
0.0
 11
38069.93488352499
 21
17393.55731534453
 31
0.0
  0
LINE
  5
5A9
330
1F
100
AcDbEntity
  8
MO-565
  6
Continuous
 62
    18
420
        0
 48
60.00000166893005
370
    25
100
AcDbLine
 10
38069.93488352499
 20
18784.55718800517
 30
0.0
 11
36124.93519327841
 21
18784.55718800517
 31
0.0
  0
LINE
  5
5AA
330
1F
100
AcDbEntity
  8
MO-565
  6
Continuous
 62
    18
420
        0
 48
60.00000166893005
370
    25
100
AcDbLine
 10
38069.93488352499
 20
17393.55731534453
 30
0.0
 11
38069.93488352499
 21
18784.55718800517
 31
0.0
  0
LINE
  5
5AB
330
1F
100
AcDbEntity
  8
MO-565
  6
Continuous
 62
    18
420
        0
 48
60.00000166893005
370
    25
100
AcDbLine
 10
36124.93519327841
 20
18784.55718800517
 30
0.0
 11
36124.93519327841
 21
17393.55731534453
 31
0.0
  0
LINE
  5
5AC
330
1F
100
AcDbEntity
  8
MO-565
  6
Continuous
 62
    18
420
        0
 48
60.00000166893005
370
    25
100
AcDbLine
 10
36039.93514902792
 20
18079.05722767802
 30
0.0
 11
36099.93514902792
 21
18079.05722767802
 31
0.0
  0
LINE
  5
5AD
330
1F
100
AcDbEntity
  8
MO-565
  6
Continuous
 62
    18
420
        0
 48
60.00000166893005
370
    25
100
AcDbLine
 10
37214.93514902792
 20
17393.55731534453
 30
0.0
 11
37214.93514902792
 21
17384.03370544078
 31
0.0
  0
LINE
  5
5AE
330
1F
100
AcDbEntity
  8
MO-565
  6
Continuous
 62
    18
420
        0
 48
60.00000166893005
370
    25
100
AcDbLine
 10
37214.93514902792
 20
18784.55718800517
 30
0.0
 11
37214.93514902792
 21
18796.55723072978
 31
0.0
  0
LINE
  5
5AF
330
1F
100
AcDbEntity
  8
MO-565
  6
Continuous
 62
    18
420
        0
 48
60.00000166893005
370
    25
100
AcDbLine
 10
36689.93514902792
 20
17393.55731534453
 30
0.0
 11
36689.93514902792
 21
17384.03370544078
 31
0.0
  0
LINE
  5
5B0
330
1F
100
AcDbEntity
  8
MO-565
  6
Continuous
 62
    18
420
        0
 48
60.00000166893005
370
    25
100
AcDbLine
 10
36689.93514902792
 20
18784.55718800517
 30
0.0
 11
36689.93514902792
 21
18796.55723072978
 31
0.0
  0
LWPOLYLINE
  5
5B1
330
1F
100
AcDbEntity
  8
MO-565
  6
Continuous
 62
    18
420
        0
 48
25.00000019073486
370
    25
100
AcDbPolyline
 90
        6
 70
     0
 43
0.0
 38
3.174999952316284
 10
37164.12757686691
 20
17924.51567622937
 42
-0.2594403554883272
 10
37127.81647895315
 20
17860.93191819395
 42
-0.1308073079062231
 10
36914.80894227744
 20
17798.73598115529
 10
36846.3683324256
 20
17798.73598115529
 42
-0.1308073079062229
 10
36633.36079574988
 20
17860.93191819395
 42
-0.2594403554883272
 10
36597.04969783612
 20
17924.51567622938
  0
LWPOLYLINE
  5
5B2
330
1F
100
AcDbEntity
  8
MO-565
  6
Continuous
 62
    18
420
        0
 48
25.00000019073486
370
    25
100
AcDbPolyline
 90
        8
 70
     1
 43
0.0
 38
3.174999952316284
 10
37176.12822515937
 20
17924.51567622937
 10
36585.04904954367
 20
17924.51567622938
 42
0.2598508988245714
 10
36627.14769728125
 20
17850.66559424527
 42
0.1298938939777188
 10
36844.48863735151
 20
17786.78043414942
 10
36844.48863735151
 20
17781.51567622938
 10
36916.68863735152
 20
17781.51567622938
 10
36916.68863735152
 20
17786.78043414942
 42
0.1298938939777189
 10
37134.02957742179
 20
17850.66559424527
 42
0.2598508988245715
  0
LWPOLYLINE
  5
5B3
330
1F
100
AcDbEntity
  8
MO-565
  6
Continuous
 62
    18
420
        0
 48
25.00000019073486
370
    25
100
AcDbPolyline
 90
        9
 70
     1
 43
0.0
 38
3.174999952316284
 10
37376.1339248742
 20
18164.03399571688
 42
0.2480799218302184
 10
37473.04526266039
 20
18221.8817103749
 42
0.1227703240053496
 10
37513.72716498164
 20
18371.69039211331
 10
37519.13392487422
 20
18371.69039211331
 10
37519.13392487422
 20
18443.89039211331
 10
37514.01997538687
 20
18443.89736903955
 42
0.018398889374117
 10
37510.1541486454
 20
18470.15668740445
 42
0.3246517295861886
 10
37407.26719388899
 20
18567.94604887074
 42
0.0132990984477976
 10
37376.1339248742
 20
18571.24509056391
  0
LWPOLYLINE
  5
5B4
330
1F
100
AcDbEntity
  8
MO-565
  6
Continuous
 62
    18
420
        0
 48
25.00000019073486
370
    25
100
AcDbPolyline
 90
        7
 70
     0
 43
0.0
 38
3.174999952316284
 10
37376.1339248742
 20
18176.05189995181
 42
0.2460316925668531
 10
37462.67879749892
 20
18227.93058065308
 42
0.1237962167992856
 10
37501.75696755817
 20
18373.41343479726
 10
37502.18362253273
 20
18441.74069445478
 42
0.019009657666645
 10
37498.35443742824
 20
18467.97338367125
 42
0.3246517295861868
 10
37405.6857935046
 20
18556.05070638621
 42
0.0128872695985914
 10
37376.1339248742
 20
18559.20678661134
  0
CIRCLE
  5
5B5
330
1F
100
AcDbEntity
  8
MO-565
  6
Continuous
 62
    18
420
        0
 48
1.999999992549419
370
    25
100
AcDbCircle
 10
36880.59148720823
 20
18407.84760010481
 30
3.174999952316284
 40
23.99999999999999
  0
CIRCLE
  5
5B6
330
1F
100
AcDbEntity
  8
MO-565
  6
Continuous
 62
    18
420
        0
 48
1.999999992549419
370
    25
100
AcDbCircle
 10
36880.59148720823
 20
18407.84760010481
 30
3.174999952316284
 40
34.0
  0
ARC
  5
5B7
330
1F
100
AcDbEntity
  8
MO-565
  6
Continuous
 62
    18
420
        0
 48
162.0000075340271
370
    25
100
AcDbCircle
 10
37776.25922501658
 20
17464.87758472658
 30
0.0
 40
18.77699219107415
100
AcDbArc
 50
37.92296160428956
 51
142.0844570673071
  0
ARC
  5
5B8
330
1F
100
AcDbEntity
  8
MO-565
  6
Continuous
 62
    18
420
        0
 48
162.0000075340271
370
    25
100
AcDbCircle
 10
37776.25644440584
 20
17464.87316853413
 30
0.0
 40
18.77805529592489
100
AcDbArc
 50
158.3926594912069
 51
173.0089805633655
  0
ARC
  5
5B9
330
1F
100
AcDbEntity
  8
MO-565
  6
Continuous
 62
    18
420
        0
 48
162.0000075340271
370
    25
100
AcDbCircle
 10
37776.2681259541
 20
17464.87869625836
 30
0.0
 40
18.76821510166706
100
AcDbArc
 50
6.9811420411914
 51
21.59749032313623
  0
ARC
  5
5BA
330
1F
100
AcDbEntity
  8
MO-565
  6
Continuous
 62
    18
420
        0
 48
162.0000075340271
370
    25
100
AcDbCircle
 10
37776.26515308516
 20
17464.8829283701
 30
0.0
 40
18.78605571898771
100
AcDbArc
 50
186.9964645332844
 51
201.6127039760878
  0
ARC
  5
5BB
330
1F
100
AcDbEntity
  8
MO-565
  6
Continuous
 62
    18
420
        0
 48
162.0000075340271
370
    25
100
AcDbCircle
 10
37776.25516656647
 20
17464.88188632808
 30
0.0
 40
18.78252062887146
100
AcDbArc
 50
338.396134446147
 51
353.0124555183045
  0
ARC
  5
5BC
330
1F
100
AcDbEntity
  8
MO-565
  6
Continuous
 62
    18
420
        0
 48
162.0000075340271
370
    25
100
AcDbCircle
 10
37776.25882332319
 20
17464.87689587179
 30
0.0
 40
18.77848982931697
100
AcDbArc
 50
217.9190317150191
 51
322.080968284981
  0
ARC
  5
5BD
330
1F
100
AcDbEntity
  8
MO-565
  6
Continuous
 62
    18
420
        0
 48
162.0000075340271
370
    25
100
AcDbCircle
 10
37816.40319216125
 20
17460.26909663484
 30
0.0
 40
6.978566908997784
100
AcDbArc
 50
268.4355638780451
 51
91.57954040753737
  0
ARC
  5
5BE
330
1F
100
AcDbEntity
  8
MO-565
  6
Continuous
 62
    18
420
        0
 48
162.0000075340271
370
    25
100
AcDbCircle
 10
37804.95224327431
 20
17469.41998562033
 30
0.0
 40
2.186707686213958
100
AcDbArc
 50
99.08716097410273
 51
263.677032393143
  0
ARC
  5
5BF
330
1F
100
AcDbEntity
  8
MO-565
  6
Continuous
 62
    18
420
        0
 48
162.0000075340271
370
    25
100
AcDbCircle
 10
37804.41663813838
 20
17469.41202525482
 30
0.0
 40
6.973928330401642
100
AcDbArc
 50
88.43570681814643
 51
271.5793910633276
  0
ARC
  5
5C0
330
1F
100
AcDbEntity
  8
MO-565
  6
Continuous
 62
    18
420
        0
 48
162.0000075340271
370
    25
100
AcDbCircle
 10
37815.8667154318
 20
17460.25807059909
 30
0.0
 40
2.187557256506918
100
AcDbArc
 50
279.0717992648611
 51
83.66033837562392
  0
ARC
  5
5C1
330
1F
100
AcDbEntity
  8
MO-565
  6
Continuous
 62
    18
420
        0
 48
162.0000075340271
370
    25
100
AcDbCircle
 10
37836.69577015957
 20
17464.25616996272
 30
0.0
 40
6.159985684698465
100
AcDbArc
 50
196.5322763668531
 51
266.8258399252677
  0
ARC
  5
5C2
330
1F
100
AcDbEntity
  8
MO-565
  6
Continuous
 62
    18
420
        0
 48
162.0000075340271
370
    25
100
AcDbCircle
 10
37836.69660703319
 20
17465.55548336944
 30
0.0
 40
6.159910700022103
100
AcDbArc
 50
93.19941229080963
 51
163.4930068869733
  0
ARC
  5
5C3
330
1F
100
AcDbEntity
  8
MO-565
  6
Continuous
 62
    18
420
        0
 48
162.0000075340271
370
    25
100
AcDbCircle
 10
37836.18821922695
 20
17465.70266797846
 30
0.0
 40
10.8085212155781
100
AcDbArc
 50
89.11486442915225
 51
136.5283713875384
  0
ARC
  5
5C4
330
1F
100
AcDbEntity
  8
MO-565
  6
Continuous
 62
    18
420
        0
 48
162.0000075340271
370
    25
100
AcDbCircle
 10
37837.06062712154
 20
17465.60441250316
 30
0.0
 40
11.52138668666262
100
AcDbArc
 50
139.1595473476376
 51
183.4766818662686
  0
ARC
  5
5C5
330
1F
100
AcDbEntity
  8
MO-565
  6
Continuous
 62
    18
420
        0
 48
162.0000075340271
370
    25
100
AcDbCircle
 10
37837.0608343596
 20
17464.20719670355
 30
0.0
 40
11.52158436745914
100
AcDbArc
 50
176.5241317977107
 51
220.8411051562533
  0
ARC
  5
5C6
330
1F
100
AcDbEntity
  8
MO-565
  6
Continuous
 62
    18
420
        0
 48
162.0000075340271
370
    25
100
AcDbCircle
 10
37836.18778745612
 20
17464.10952916464
 30
0.0
 40
10.80866551491771
100
AcDbArc
 50
223.4768675460023
 51
270.890237122227
  0
ARC
  5
5C7
330
1F
100
AcDbEntity
  8
MO-565
  6
Continuous
 62
    18
420
        0
 48
162.0000075340271
370
    25
100
AcDbCircle
 10
37872.15399131719
 20
17469.42100525918
 30
0.0
 40
2.186180569544971
100
AcDbArc
 50
279.0895312176609
 51
83.67533595583488
  0
ARC
  5
5C8
330
1F
100
AcDbEntity
  8
MO-565
  6
Continuous
 62
    18
420
        0
 48
162.0000075340271
370
    25
100
AcDbCircle
 10
37872.76183428162
 20
17468.8029364427
 30
0.0
 40
6.369742554847889
100
AcDbArc
 50
278.0073079506292
 51
5.572465930779263
  0
ARC
  5
5C9
330
1F
100
AcDbEntity
  8
MO-565
  6
Continuous
 62
    18
420
        0
 48
162.0000075340271
370
    25
100
AcDbCircle
 10
37872.76340794335
 20
17470.03624326784
 30
0.0
 40
6.367812608690737
100
AcDbArc
 50
354.4597953776715
 51
92.38467978670899
  0
ARC
  5
5CA
330
1F
100
AcDbEntity
  8
MO-565
  6
Continuous
 62
    18
420
        0
 48
162.0000075340271
370
    25
100
AcDbCircle
 10
37728.59450164502
 20
17473.38558227126
 30
0.0
 40
3.224244236885948
100
AcDbArc
 50
26.28899618675848
 51
181.2713443681834
  0
ARC
  5
5CB
330
1F
100
AcDbEntity
  8
MO-565
  6
Continuous
 62
    18
420
        0
 48
162.0000075340271
370
    25
100
AcDbCircle
 10
37750.76688308514
 20
17473.38618784467
 30
0.0
 40
3.223350832532582
100
AcDbArc
 50
358.7364020576685
 51
153.7147532946061
  0
ARC
  5
5CC
330
1F
100
AcDbEntity
  8
MO-565
  6
Continuous
 62
    18
420
        0
 48
162.0000075340271
370
    25
100
AcDbCircle
 10
37739.68140187408
 20
17456.80259829268
 30
0.0
 40
2.867897451272214
100
AcDbArc
 50
204.4719426219853
 51
335.5644869397248
  0
INSERT
  5
5D0
330
1F
100
AcDbEntity
  8
MO-565
  6
Continuous
 62
    18
420
        0
 48
50.00000038146973
370
    25
100
AcDbBlockReference
  2
Dimension300
 10
0.0
 20
0.0
 30
0.0
  0
INSERT
  5
5D4
330
1F
100
AcDbEntity
  8
MO-565
  6
Continuous
 62
    18
420
        0
 48
50.00000038146973
370
    25
100
AcDbBlockReference
  2
Dimension301
 10
0.0
 20
0.0
 30
0.0
  0
DIMENSION
  5
5D5
330
1F
100
AcDbEntity
  8
MO-565
  6
Continuous
 62
    18
420
        0
 48
50.00000038146973
370
    25
100
AcDbDimension
  2
*D309
 10
37501.97029504544
 20
18630.67876261641
 30
0.0
 11
37439.05210995983
 21
18671.09876670529
 31
0.0
 70
    32
 71
     5
 42
125.8363701712442
  3
ISO-25
100
AcDbAlignedDimension
 13
37376.1339248742
 23
18571.24509056391
 33
0.0
 14
37501.97029504544
 24
18407.57706462602
 34
0.0
100
AcDbRotatedDimension
1001
ACAD
1000
DSTYLE
1002
{
1070
   271
1070
     3
1070
   177
1070
    18
1070
   176
1070
    18
1070
   140
1040
40.0
1070
    76
1070
     0
1070
    75
1070
     0
1070
   282
1070
     0
1070
   281
1070
     0
1070
   174
1070
     1
1070
    42
1040
0.0
1070
    49
1040
19.9999995470047
1070
   290
1070
     1
1070
    44
1040
19.9999995470047
1070
    46
1040
0.0
1070
    41
1040
15.00000059604645
1070
   173
1070
     1
1070
   342
1005
0
1070
   344
1005
50A
1070
   343
1005
50A
1070
   147
1040
20.00000408887863
1070
    70
1070
    18
1070
    69
1070
     0
1070
   340
1005
4E0
1070
   278
1070
    46
1002
}
1001
ACAD_DSTYLE_DIMEXT_ENABLED
1070
   383
1070
     1
1001
ACAD_DSTYLE_DIMEXT_LENGTH
1070
   378
1040
19.9999995470047
  0
ENDSEC
  0
SECTION
  2
OBJECTS
  0
DICTIONARY
  5
C
330
0
100
AcDbDictionary
281
     1
  3
ACAD_GROUP
350
D
  3
ACAD_LAYOUT
350
1A
  3
ACAD_MATERIAL
350
3B
  3
ACAD_MLEADERSTYLE
350
60D
  3
ACAD_MLINESTYLE
350
17
  3
ACAD_PLOTSETTINGS
350
19
  3
ACAD_PLOTSTYLENAME
350
E
  3
ACAD_TABLESTYLE
350
60C
  3
ACAD_VISUALSTYLE
350
2A
  0
DICTIONARY
  5
D
102
{ACAD_REACTORS
330
C
102
}
330
C
100
AcDbDictionary
281
     1
  0
DICTIONARY
  5
1A
102
{ACAD_REACTORS
330
C
102
}
330
C
100
AcDbDictionary
281
     1
  3
Layout1
350
1E
  3
Layout2
350
26
  3
Model
350
22
  0
DICTIONARY
  5
3B
102
{ACAD_REACTORS
330
C
102
}
330
C
100
AcDbDictionary
281
     1
  3
ByBlock
350
3D
  3
ByLayer
350
3C
  3
Global
350
3E
  0
DICTIONARY
  5
60D
102
{ACAD_REACTORS
330
C
102
}
330
C
100
AcDbDictionary
281
     1
  0
DICTIONARY
  5
17
102
{ACAD_REACTORS
330
C
102
}
330
C
100
AcDbDictionary
281
     1
  3
Standard
350
18
  0
DICTIONARY
  5
19
102
{ACAD_REACTORS
330
C
102
}
330
C
100
AcDbDictionary
281
     1
  0
ACDBDICTIONARYWDFLT
  5
E
102
{ACAD_REACTORS
330
C
102
}
330
C
100
AcDbDictionary
281
     1
  3
Normal
350
F
100
AcDbDictionaryWithDefault
340
F
  0
DICTIONARY
  5
60C
102
{ACAD_REACTORS
330
C
102
}
330
C
100
AcDbDictionary
281
     1
  0
DICTIONARY
  5
2A
102
{ACAD_REACTORS
330
C
102
}
330
C
100
AcDbDictionary
281
     1
  3
2dWireframe
350
2F
  3
3D Hidden
350
31
  3
3dWireframe
350
30
  3
Basic
350
32
  3
Brighten
350
36
  3
ColorChange
350
3A
  3
Conceptual
350
34
  3
Dim
350
35
  3
Facepattern
350
39
  3
Flat
350
2B
  3
FlatWithEdges
350
2C
  3
Gouraud
350
2D
  3
GouraudWithEdges
350
2E
  3
Linepattern
350
38
  3
Realistic
350
33
  3
Thicken
350
37
  0
LAYOUT
  5
1E
102
{ACAD_REACTORS
330
1A
102
}
330
1A
100
AcDbPlotSettings
  1

  2
none_device
  4

  6

 40
0.0
 41
0.0
 42
0.0
 43
0.0
 44
0.0
 45
0.0
 46
0.0
 47
0.0
 48
0.0
 49
0.0
140
0.0
141
0.0
142
1.0
143
1.0
 70
   688
 72
     0
 73
     0
 74
     5
  7

 75
    16
 76
     0
 77
     2
 78
   300
147
1.0
148
0.0
149
0.0
100
AcDbLayout
  1
Layout1
 70
     1
 71
     1
 10
0.0
 20
0.0
 11
420.0
 21
297.0
 12
0.0
 22
0.0
 32
0.0
 14
1.000000000000000E+20
 24
1.000000000000000E+20
 34
1.000000000000000E+20
 15
-1.000000000000000E+20
 25
-1.000000000000000E+20
 35
-1.000000000000000E+20
146
0.0
 13
0.0
 23
0.0
 33
0.0
 16
1.0
 26
0.0
 36
0.0
 17
0.0
 27
1.0
 37
0.0
 76
     0
330
1B
  0
LAYOUT
  5
26
102
{ACAD_REACTORS
330
1A
102
}
330
1A
100
AcDbPlotSettings
  1

  2
none_device
  4

  6

 40
0.0
 41
0.0
 42
0.0
 43
0.0
 44
0.0
 45
0.0
 46
0.0
 47
0.0
 48
0.0
 49
0.0
140
0.0
141
0.0
142
1.0
143
1.0
 70
   688
 72
     0
 73
     0
 74
     5
  7

 75
    16
 76
     0
 77
     2
 78
   300
147
1.0
148
0.0
149
0.0
100
AcDbLayout
  1
Layout2
 70
     1
 71
     2
 10
0.0
 20
0.0
 11
0.0
 21
0.0
 12
0.0
 22
0.0
 32
0.0
 14
0.0
 24
0.0
 34
0.0
 15
0.0
 25
0.0
 35
0.0
146
0.0
 13
0.0
 23
0.0
 33
0.0
 16
1.0
 26
0.0
 36
0.0
 17
0.0
 27
1.0
 37
0.0
 76
     0
330
23
  0
LAYOUT
  5
22
102
{ACAD_REACTORS
330
1A
102
}
330
1A
100
AcDbPlotSettings
  1

  2
none_device
  4

  6

 40
0.0
 41
0.0
 42
0.0
 43
0.0
 44
0.0
 45
0.0
 46
0.0
 47
0.0
 48
0.0
 49
0.0
140
0.0
141
0.0
142
1.0
143
1.0
 70
  1712
 72
     0
 73
     0
 74
     0
  7

 75
     0
 76
     0
 77
     2
 78
   300
147
1.0
148
0.0
149
0.0
100
AcDbLayout
  1
Model
 70
     1
 71
     0
 10
0.0
 20
0.0
 11
420.0
 21
297.0
 12
0.0
 22
0.0
 32
0.0
 14
72780.9396511572
 24
35292.11445230429
 34
0.0
 15
74871.45218913558
 25
36727.1144584078
 35
3.174999952316284
146
0.0
 13
0.0
 23
0.0
 33
0.0
 16
1.0
 26
0.0
 36
0.0
 17
0.0
 27
1.0
 37
0.0
 76
     0
330
1F
331
29
  0
MATERIAL
  5
3D
102
{ACAD_REACTORS
330
3B
102
}
102
{ACAD_XDICTIONARY
360
608
102
}
330
3B
100
AcDbMaterial
  1
ByBlock
  0
MATERIAL
  5
3C
102
{ACAD_REACTORS
330
3B
102
}
102
{ACAD_XDICTIONARY
360
606
102
}
330
3B
100
AcDbMaterial
  1
ByLayer
  0
MATERIAL
  5
3E
102
{ACAD_REACTORS
330
3B
102
}
102
{ACAD_XDICTIONARY
360
60A
102
}
330
3B
100
AcDbMaterial
  1
Global
  0
MLINESTYLE
  5
18
102
{ACAD_REACTORS
330
17
102
}
330
17
100
AcDbMlineStyle
  2
Standard
 70
     0
  3

 62
   256
 51
90.0
 52
90.0
 71
     2
 49
0.5
 62
   256
  6
BYLAYER
 49
-0.5
 62
   256
  6
BYLAYER
  0
ACDBPLACEHOLDER
  5
F
102
{ACAD_REACTORS
330
E
102
}
330
E
  0
VISUALSTYLE
  5
2F
102
{ACAD_REACTORS
330
2A
102
}
102
{ACAD_XDICTIONARY
360
5EE
102
}
330
2A
100
AcDbVisualStyle
  2
2dWireframe
 70
     4
 71
     0
 72
     2
 73
     0
 90
        0
 40
-0.6
 41
-30.0
 62
     5
 63
     7
421
 16777215
 74
     1
 91
        4
 64
     7
 65
   257
 75
     1
175
     1
 42
1.0
 92
        0
 66
   257
 43
1.0
 76
     1
 77
     6
 78
     2
 67
     7
 79
     5
170
     0
171
     0
290
     0
174
     0
 93
        1
 44
0.0
173
     0
291
     0
 45
0.0
1001
ACAD
1000
AcDbSavedByObjectVersion
1070
     0
  0
VISUALSTYLE
  5
31
102
{ACAD_REACTORS
330
2A
102
}
102
{ACAD_XDICTIONARY
360
5F2
102
}
330
2A
100
AcDbVisualStyle
  2
3D Hidden
 70
     6
 71
     1
 72
     2
 73
     2
 90
        0
 40
-0.6
 41
-30.0
 62
     5
 63
     7
421
 16777215
 74
     2
 91
        2
 64
     7
 65
   257
 75
     2
175
     1
 42
40.0
 92
        0
 66
   257
 43
1.0
 76
     1
 77
     6
 78
     2
 67
     7
 79
     3
170
     0
171
     0
290
     0
174
     0
 93
        1
 44
0.0
173
     0
291
     0
 45
0.0
1001
ACAD
1000
AcDbSavedByObjectVersion
1070
     0
  0
VISUALSTYLE
  5
30
102
{ACAD_REACTORS
330
2A
102
}
102
{ACAD_XDICTIONARY
360
5F0
102
}
330
2A
100
AcDbVisualStyle
  2
3dWireframe
 70
     5
 71
     0
 72
     2
 73
     0
 90
        0
 40
-0.6
 41
-30.0
 62
     5
 63
     7
421
 16777215
 74
     1
 91
        4
 64
     7
 65
   257
 75
     1
175
     1
 42
1.0
 92
        0
 66
   257
 43
1.0
 76
     1
 77
     6
 78
     2
 67
     7
 79
     5
170
     0
171
     0
290
     0
174
     0
 93
        1
 44
0.0
173
     0
291
     0
 45
0.0
1001
ACAD
1000
AcDbSavedByObjectVersion
1070
     0
  0
VISUALSTYLE
  5
32
102
{ACAD_REACTORS
330
2A
102
}
102
{ACAD_XDICTIONARY
360
5F4
102
}
330
2A
100
AcDbVisualStyle
  2
Basic
 70
     7
 71
     1
 72
     0
 73
     1
 90
        0
 40
-0.6
 41
-30.0
 62
     5
 63
     7
421
 16777215
 74
     0
 91
        4
 64
     7
 65
   257
 75
     1
175
     1
 42
1.0
 92
        8
 66
     7
 43
1.0
 76
     1
 77
     6
 78
     2
 67
     7
 79
     5
170
     0
171
     0
290
     0
174
     0
 93
        1
 44
0.0
173
     0
291
     1
 45
0.0
1001
ACAD
1000
AcDbSavedByObjectVersion
1070
     0
  0
VISUALSTYLE
  5
36
102
{ACAD_REACTORS
330
2A
102
}
102
{ACAD_XDICTIONARY
360
5FC
102
}
330
2A
100
AcDbVisualStyle
  2
Brighten
 70
    12
 71
     2
 72
     2
 73
     0
 90
        0
 40
-0.6
 41
-30.0
 62
     5
 63
     7
421
 16777215
 74
     1
 91
        4
 64
     7
 65
   257
 75
     1
175
     1
 42
1.0
 92
        8
 66
     7
 43
1.0
 76
     1
 77
     6
 78
     2
 67
     7
 79
     5
170
     0
171
     0
290
     0
174
     0
 93
        1
 44
50.0
173
     0
291
     1
 45
0.0
1001
ACAD
1000
AcDbSavedByObjectVersion
1070
     0
  0
VISUALSTYLE
  5
3A
102
{ACAD_REACTORS
330
2A
102
}
102
{ACAD_XDICTIONARY
360
604
102
}
330
2A
100
AcDbVisualStyle
  2
ColorChange
 70
    16
 71
     2
 72
     2
 73
     3
 90
        0
 40
-0.6
 41
-30.0
 62
     5
 63
     8
421
  8421504
 74
     1
 91
        4
 64
     7
 65
   257
 75
     1
175
     1
 42
1.0
 92
        8
 66
     8
424
  8421504
 43
1.0
 76
     1
 77
     6
 78
     2
 67
     7
 79
     5
170
     0
171
     0
290
     0
174
     0
 93
        1
 44
0.0
173
     0
291
     1
 45
0.0
1001
ACAD
1000
AcDbSavedByObjectVersion
1070
     0
  0
VISUALSTYLE
  5
34
102
{ACAD_REACTORS
330
2A
102
}
102
{ACAD_XDICTIONARY
360
5F8
102
}
330
2A
100
AcDbVisualStyle
  2
Conceptual
 70
     9
 71
     3
 72
     2
 73
     0
 90
        0
 40
-0.6
 41
-30.0
 62
     5
 63
     7
421
 16777215
 74
     2
 91
        2
 64
     7
 65
   257
 75
     1
175
     1
 42
40.0
 92
        8
 66
     7
 43
1.0
 76
     1
 77
     6
 78
     2
 67
     7
 79
     3
170
     0
171
     0
290
     0
174
     0
 93
        1
 44
0.0
173
     0
291
     0
 45
0.0
1001
ACAD
1000
AcDbSavedByObjectVersion
1070
     0
  0
VISUALSTYLE
  5
35
102
{ACAD_REACTORS
330
2A
102
}
102
{ACAD_XDICTIONARY
360
5FA
102
}
330
2A
100
AcDbVisualStyle
  2
Dim
 70
    11
 71
     2
 72
     2
 73
     0
 90
        0
 40
-0.6
 41
-30.0
 62
     5
 63
     7
421
 16777215
 74
     1
 91
        4
 64
     7
 65
   257
 75
     1
175
     1
 42
1.0
 92
        8
 66
     7
 43
1.0
 76
     1
 77
     6
 78
     2
 67
     7
 79
     5
170
     0
171
     0
290
     0
174
     0
 93
        1
 44
-50.0
173
     0
291
     1
 45
0.0
1001
ACAD
1000
AcDbSavedByObjectVersion
1070
     0
  0
VISUALSTYLE
  5
39
102
{ACAD_REACTORS
330
2A
102
}
102
{ACAD_XDICTIONARY
360
602
102
}
330
2A
100
AcDbVisualStyle
  2
Facepattern
 70
    15
 71
     2
 72
     2
 73
     0
 90
        0
 40
-0.6
 41
-30.0
 62
     5
 63
     7
421
 16777215
 74
     1
 91
        4
 64
     7
 65
   257
 75
     1
175
     1
 42
1.0
 92
        8
 66
     7
 43
1.0
 76
     1
 77
     6
 78
     2
 67
     7
 79
     5
170
     0
171
     0
290
     0
174
     0
 93
        1
 44
0.0
173
     0
291
     1
 45
0.0
1001
ACAD
1000
AcDbSavedByObjectVersion
1070
     0
  0
VISUALSTYLE
  5
2B
102
{ACAD_REACTORS
330
2A
102
}
102
{ACAD_XDICTIONARY
360
5E6
102
}
330
2A
100
AcDbVisualStyle
  2
Flat
 70
     0
 71
     2
 72
     1
 73
     1
 90
        2
 40
-0.6
 41
30.0
 62
     5
 63
     7
421
 16777215
 74
     0
 91
        4
 64
     7
 65
   257
 75
     1
175
     1
 42
1.0
 92
        8
 66
     7
 43
1.0
 76
     1
 77
     6
 78
     2
 67
     7
 79
     5
170
     0
171
     0
290
     0
174
     0
 93
       13
 44
0.0
173
     0
291
     1
 45
0.0
1001
ACAD
1000
AcDbSavedByObjectVersion
1070
     0
  0
VISUALSTYLE
  5
2C
102
{ACAD_REACTORS
330
2A
102
}
102
{ACAD_XDICTIONARY
360
5E8
102
}
330
2A
100
AcDbVisualStyle
  2
FlatWithEdges
 70
     1
 71
     2
 72
     1
 73
     1
 90
        2
 40
-0.6
 41
30.0
 62
     5
 63
     7
421
 16777215
 74
     1
 91
        4
 64
     7
 65
   257
 75
     1
175
     1
 42
1.0
 92
        0
 66
   257
 43
1.0
 76
     1
 77
     6
 78
     2
 67
     7
 79
     5
170
     0
171
     0
290
     0
174
     0
 93
       13
 44
0.0
173
     0
291
     1
 45
0.0
1001
ACAD
1000
AcDbSavedByObjectVersion
1070
     0
  0
VISUALSTYLE
  5
2D
102
{ACAD_REACTORS
330
2A
102
}
102
{ACAD_XDICTIONARY
360
5EA
102
}
330
2A
100
AcDbVisualStyle
  2
Gouraud
 70
     2
 71
     2
 72
     2
 73
     1
 90
        2
 40
-0.6
 41
30.0
 62
     5
 63
     7
421
 16777215
 74
     0
 91
        4
 64
     7
 65
   257
 75
     1
175
     1
 42
1.0
 92
        0
 66
     7
 43
1.0
 76
     1
 77
     6
 78
     2
 67
     7
 79
     5
170
     0
171
     0
290
     0
174
     0
 93
       13
 44
0.0
173
     0
291
     1
 45
0.0
1001
ACAD
1000
AcDbSavedByObjectVersion
1070
     0
  0
VISUALSTYLE
  5
2E
102
{ACAD_REACTORS
330
2A
102
}
102
{ACAD_XDICTIONARY
360
5EC
102
}
330
2A
100
AcDbVisualStyle
  2
GouraudWithEdges
 70
     3
 71
     2
 72
     2
 73
     1
 90
        2
 40
-0.6
 41
30.0
 62
     5
 63
     7
421
 16777215
 74
     1
 91
        4
 64
     7
 65
   257
 75
     1
175
     1
 42
1.0
 92
        0
 66
   257
 43
1.0
 76
     1
 77
     6
 78
     2
 67
     7
 79
     5
170
     0
171
     0
290
     0
174
     0
 93
       13
 44
0.0
173
     0
291
     1
 45
0.0
1001
ACAD
1000
AcDbSavedByObjectVersion
1070
     0
  0
VISUALSTYLE
  5
38
102
{ACAD_REACTORS
330
2A
102
}
102
{ACAD_XDICTIONARY
360
600
102
}
330
2A
100
AcDbVisualStyle
  2
Linepattern
 70
    14
 71
     2
 72
     2
 73
     0
 90
        0
 40
-0.6
 41
-30.0
 62
     5
 63
     7
421
 16777215
 74
     1
 91
        4
 64
     7
 65
   257
 75
     7
175
     7
 42
1.0
 92
        8
 66
     7
 43
1.0
 76
     1
 77
     6
 78
     2
 67
     7
 79
     5
170
     0
171
     0
290
     0
174
     0
 93
        1
 44
0.0
173
     0
291
     1
 45
0.0
1001
ACAD
1000
AcDbSavedByObjectVersion
1070
     0
  0
VISUALSTYLE
  5
33
102
{ACAD_REACTORS
330
2A
102
}
102
{ACAD_XDICTIONARY
360
5F6
102
}
330
2A
100
AcDbVisualStyle
  2
Realistic
 70
     8
 71
     2
 72
     2
 73
     0
 90
        0
 40
-0.6
 41
-30.0
 62
     5
 63
     7
421
 16777215
 74
     1
 91
        0
 64
     7
 65
   257
 75
     1
175
     1
 42
1.0
 92
        8
 66
     8
424
  7895160
 43
1.0
 76
     1
 77
     6
 78
     2
 67
     7
 79
     5
170
     0
171
     0
290
     0
174
     0
 93
       13
 44
0.0
173
     0
291
     0
 45
0.0
1001
ACAD
1000
AcDbSavedByObjectVersion
1070
     0
  0
VISUALSTYLE
  5
37
102
{ACAD_REACTORS
330
2A
102
}
102
{ACAD_XDICTIONARY
360
5FE
102
}
330
2A
100
AcDbVisualStyle
  2
Thicken
 70
    13
 71
     2
 72
     2
 73
     0
 90
        0
 40
-0.6
 41
-30.0
 62
     5
 63
     7
421
 16777215
 74
     1
 91
        4
 64
     7
 65
   257
 75
     1
175
     1
 42
1.0
 92
       12
 66
     7
 43
1.0
 76
     1
 77
     6
 78
     2
 67
     7
 79
     5
170
     0
171
     0
290
     0
174
     0
 93
        1
 44
0.0
173
     0
291
     1
 45
0.0
1001
ACAD
1000
AcDbSavedByObjectVersion
1070
     0
  0
DICTIONARY
  5
608
330
3D
100
AcDbDictionary
280
     1
281
     1
  3
ACAD_XREC_ROUNDTRIP
360
609
  0
DICTIONARY
  5
606
330
3C
100
AcDbDictionary
280
     1
281
     1
  3
ACAD_XREC_ROUNDTRIP
360
607
  0
DICTIONARY
  5
60A
330
3E
100
AcDbDictionary
280
     1
281
     1
  3
ACAD_XREC_ROUNDTRIP
360
60B
  0
DICTIONARY
  5
5EE
330
2F
100
AcDbDictionary
280
     1
281
     1
  3
ACAD_XREC_ROUNDTRIP
360
5EF
  0
DICTIONARY
  5
5F2
330
31
100
AcDbDictionary
280
     1
281
     1
  3
ACAD_XREC_ROUNDTRIP
360
5F3
  0
DICTIONARY
  5
5F0
330
30
100
AcDbDictionary
280
     1
281
     1
  3
ACAD_XREC_ROUNDTRIP
360
5F1
  0
DICTIONARY
  5
5F4
330
32
100
AcDbDictionary
280
     1
281
     1
  3
ACAD_XREC_ROUNDTRIP
360
5F5
  0
DICTIONARY
  5
5FC
330
36
100
AcDbDictionary
280
     1
281
     1
  3
ACAD_XREC_ROUNDTRIP
360
5FD
  0
DICTIONARY
  5
604
330
3A
100
AcDbDictionary
280
     1
281
     1
  3
ACAD_XREC_ROUNDTRIP
360
605
  0
DICTIONARY
  5
5F8
330
34
100
AcDbDictionary
280
     1
281
     1
  3
ACAD_XREC_ROUNDTRIP
360
5F9
  0
DICTIONARY
  5
5FA
330
35
100
AcDbDictionary
280
     1
281
     1
  3
ACAD_XREC_ROUNDTRIP
360
5FB
  0
DICTIONARY
  5
602
330
39
100
AcDbDictionary
280
     1
281
     1
  3
ACAD_XREC_ROUNDTRIP
360
603
  0
DICTIONARY
  5
5E6
330
2B
100
AcDbDictionary
280
     1
281
     1
  3
ACAD_XREC_ROUNDTRIP
360
5E7
  0
DICTIONARY
  5
5E8
330
2C
100
AcDbDictionary
280
     1
281
     1
  3
ACAD_XREC_ROUNDTRIP
360
5E9
  0
DICTIONARY
  5
5EA
330
2D
100
AcDbDictionary
280
     1
281
     1
  3
ACAD_XREC_ROUNDTRIP
360
5EB
  0
DICTIONARY
  5
5EC
330
2E
100
AcDbDictionary
280
     1
281
     1
  3
ACAD_XREC_ROUNDTRIP
360
5ED
  0
DICTIONARY
  5
600
330
38
100
AcDbDictionary
280
     1
281
     1
  3
ACAD_XREC_ROUNDTRIP
360
601
  0
DICTIONARY
  5
5F6
330
33
100
AcDbDictionary
280
     1
281
     1
  3
ACAD_XREC_ROUNDTRIP
360
5F7
  0
DICTIONARY
  5
5FE
330
37
100
AcDbDictionary
280
     1
281
     1
  3
ACAD_XREC_ROUNDTRIP
360
5FF
  0
XRECORD
  5
609
102
{ACAD_REACTORS
330
608
102
}
330
608
100
AcDbXrecord
280
     1
102
MATERIAL
148
0.0
149
0.0
149
0.0
 93
        0
 94
      127
282
     0
 72
     1
 77
     1
171
     1
175
     1
179
     1
273
     0
  0
XRECORD
  5
607
102
{ACAD_REACTORS
330
606
102
}
330
606
100
AcDbXrecord
280
     1
102
MATERIAL
148
0.0
149
0.0
149
0.0
 93
        0
 94
      127
282
     0
 72
     1
 77
     1
171
     1
175
     1
179
     1
273
     0
  0
XRECORD
  5
60B
102
{ACAD_REACTORS
330
60A
102
}
330
60A
100
AcDbXrecord
280
     1
102
MATERIAL
148
0.0
149
0.0
149
0.0
 93
        0
 94
      127
282
     0
 72
     1
 77
     1
171
     1
175
     1
179
     1
273
     0
  0
XRECORD
  5
5EF
102
{ACAD_REACTORS
330
5EE
102
}
330
5EE
100
AcDbXrecord
280
     1
102
RTVSPropertyOp0
 70
     1
102
RTVSPropertyOp1
 70
     1
102
RTVSPropertyOp2
 70
     1
102
RTVSPropertyOp3
 70
     1
102
RTVSPropertyOp4
 70
     1
102
RTVSPropertyOp5
 70
     1
102
RTVSPropertyOp6
 70
     1
102
RTVSPropertyOp7
 70
     1
102
RTVSPropertyOp8
 70
     1
102
RTVSPropertyOp9
 70
     1
102
RTVSPropertyOp10
 70
     1
102
RTVSPropertyOp11
 70
     1
102
RTVSPropertyOp12
 70
     1
102
RTVSPropertyOp13
 70
     1
102
RTVSPropertyOp14
 70
     1
102
RTVSPropertyOp15
 70
     1
102
RTVSPropertyOp16
 70
     1
102
RTVSPropertyOp17
 70
     1
102
RTVSPropertyOp18
 70
     1
102
RTVSPropertyOp19
 70
     1
102
RTVSPropertyOp20
 70
     1
102
RTVSPropertyOp21
 70
     1
102
RTVSPropertyOp22
 70
     1
102
RTVSPropertyOp23
 70
     1
102
RTVSPropertyOp24
 70
     1
102
RTVSPropertyOp25
 70
     1
102
RTVSPropertyOp26
 70
     1
102
RTVSPropertyOp27
 70
     1
  0
XRECORD
  5
5F3
102
{ACAD_REACTORS
330
5F2
102
}
330
5F2
100
AcDbXrecord
280
     1
102
RTVSPropertyOp0
 70
     1
102
RTVSPropertyOp1
 70
     1
102
RTVSPropertyOp2
 70
     1
102
RTVSPropertyOp3
 70
     1
102
RTVSPropertyOp4
 70
     1
102
RTVSPropertyOp5
 70
     1
102
RTVSPropertyOp6
 70
     1
102
RTVSPropertyOp7
 70
     1
102
RTVSPropertyOp8
 70
     1
102
RTVSPropertyOp9
 70
     1
102
RTVSPropertyOp10
 70
     1
102
RTVSPropertyOp11
 70
     1
102
RTVSPropertyOp12
 70
     1
102
RTVSPropertyOp13
 70
     1
102
RTVSPropertyOp14
 70
     1
102
RTVSPropertyOp15
 70
     1
102
RTVSPropertyOp16
 70
     1
102
RTVSPropertyOp17
 70
     1
102
RTVSPropertyOp18
 70
     1
102
RTVSPropertyOp19
 70
     1
102
RTVSPropertyOp20
 70
     1
102
RTVSPropertyOp21
 70
     1
102
RTVSPropertyOp22
 70
     1
102
RTVSPropertyOp23
 70
     1
102
RTVSPropertyOp24
 70
     1
102
RTVSPropertyOp25
 70
     1
102
RTVSPropertyOp26
 70
     1
102
RTVSPropertyOp27
 70
     1
  0
XRECORD
  5
5F1
102
{ACAD_REACTORS
330
5F0
102
}
330
5F0
100
AcDbXrecord
280
     1
102
RTVSPropertyOp0
 70
     1
102
RTVSPropertyOp1
 70
     1
102
RTVSPropertyOp2
 70
     1
102
RTVSPropertyOp3
 70
     1
102
RTVSPropertyOp4
 70
     1
102
RTVSPropertyOp5
 70
     1
102
RTVSPropertyOp6
 70
     1
102
RTVSPropertyOp7
 70
     1
102
RTVSPropertyOp8
 70
     1
102
RTVSPropertyOp9
 70
     1
102
RTVSPropertyOp10
 70
     1
102
RTVSPropertyOp11
 70
     1
102
RTVSPropertyOp12
 70
     1
102
RTVSPropertyOp13
 70
     1
102
RTVSPropertyOp14
 70
     1
102
RTVSPropertyOp15
 70
     1
102
RTVSPropertyOp16
 70
     1
102
RTVSPropertyOp17
 70
     1
102
RTVSPropertyOp18
 70
     1
102
RTVSPropertyOp19
 70
     1
102
RTVSPropertyOp20
 70
     1
102
RTVSPropertyOp21
 70
     1
102
RTVSPropertyOp22
 70
     1
102
RTVSPropertyOp23
 70
     1
102
RTVSPropertyOp24
 70
     1
102
RTVSPropertyOp25
 70
     1
102
RTVSPropertyOp26
 70
     1
102
RTVSPropertyOp27
 70
     1
  0
XRECORD
  5
5F5
102
{ACAD_REACTORS
330
5F4
102
}
330
5F4
100
AcDbXrecord
280
     1
102
RTVSPropertyOp0
 70
     1
102
RTVSPropertyOp1
 70
     1
102
RTVSPropertyOp2
 70
     1
102
RTVSPropertyOp3
 70
     1
102
RTVSPropertyOp4
 70
     1
102
RTVSPropertyOp5
 70
     1
102
RTVSPropertyOp6
 70
     1
102
RTVSPropertyOp7
 70
     1
102
RTVSPropertyOp8
 70
     1
102
RTVSPropertyOp9
 70
     1
102
RTVSPropertyOp10
 70
     1
102
RTVSPropertyOp11
 70
     1
102
RTVSPropertyOp12
 70
     1
102
RTVSPropertyOp13
 70
     1
102
RTVSPropertyOp14
 70
     1
102
RTVSPropertyOp15
 70
     1
102
RTVSPropertyOp16
 70
     1
102
RTVSPropertyOp17
 70
     1
102
RTVSPropertyOp18
 70
     1
102
RTVSPropertyOp19
 70
     1
102
RTVSPropertyOp20
 70
     1
102
RTVSPropertyOp21
 70
     1
102
RTVSPropertyOp22
 70
     1
102
RTVSPropertyOp23
 70
     1
102
RTVSPropertyOp24
 70
     1
102
RTVSPropertyOp25
 70
     1
102
RTVSPropertyOp26
 70
     1
102
RTVSPropertyOp27
 70
     1
  0
XRECORD
  5
5FD
102
{ACAD_REACTORS
330
5FC
102
}
330
5FC
100
AcDbXrecord
280
     1
102
RTVSPropertyOp0
 70
     1
102
RTVSPropertyOp1
 70
     1
102
RTVSPropertyOp2
 70
     1
102
RTVSPropertyOp3
 70
     1
102
RTVSPropertyOp4
 70
     1
102
RTVSPropertyOp5
 70
     1
102
RTVSPropertyOp6
 70
     1
102
RTVSPropertyOp7
 70
     1
102
RTVSPropertyOp8
 70
     1
102
RTVSPropertyOp9
 70
     1
102
RTVSPropertyOp10
 70
     1
102
RTVSPropertyOp11
 70
     1
102
RTVSPropertyOp12
 70
     1
102
RTVSPropertyOp13
 70
     1
102
RTVSPropertyOp14
 70
     1
102
RTVSPropertyOp15
 70
     1
102
RTVSPropertyOp16
 70
     1
102
RTVSPropertyOp17
 70
     1
102
RTVSPropertyOp18
 70
     1
102
RTVSPropertyOp19
 70
     1
102
RTVSPropertyOp20
 70
     1
102
RTVSPropertyOp21
 70
     1
102
RTVSPropertyOp22
 70
     1
102
RTVSPropertyOp23
 70
     1
102
RTVSPropertyOp24
 70
     1
102
RTVSPropertyOp25
 70
     1
102
RTVSPropertyOp26
 70
     1
102
RTVSPropertyOp27
 70
     1
  0
XRECORD
  5
605
102
{ACAD_REACTORS
330
604
102
}
330
604
100
AcDbXrecord
280
     1
102
RTVSPropertyOp0
 70
     1
102
RTVSPropertyOp1
 70
     1
102
RTVSPropertyOp2
 70
     1
102
RTVSPropertyOp3
 70
     1
102
RTVSPropertyOp4
 70
     1
102
RTVSPropertyOp5
 70
     1
102
RTVSPropertyOp6
 70
     1
102
RTVSPropertyOp7
 70
     1
102
RTVSPropertyOp8
 70
     1
102
RTVSPropertyOp9
 70
     1
102
RTVSPropertyOp10
 70
     1
102
RTVSPropertyOp11
 70
     1
102
RTVSPropertyOp12
 70
     1
102
RTVSPropertyOp13
 70
     1
102
RTVSPropertyOp14
 70
     1
102
RTVSPropertyOp15
 70
     1
102
RTVSPropertyOp16
 70
     1
102
RTVSPropertyOp17
 70
     1
102
RTVSPropertyOp18
 70
     1
102
RTVSPropertyOp19
 70
     1
102
RTVSPropertyOp20
 70
     1
102
RTVSPropertyOp21
 70
     1
102
RTVSPropertyOp22
 70
     1
102
RTVSPropertyOp23
 70
     1
102
RTVSPropertyOp24
 70
     1
102
RTVSPropertyOp25
 70
     1
102
RTVSPropertyOp26
 70
     1
102
RTVSPropertyOp27
 70
     1
  0
XRECORD
  5
5F9
102
{ACAD_REACTORS
330
5F8
102
}
330
5F8
100
AcDbXrecord
280
     1
102
RTVSPropertyOp0
 70
     1
102
RTVSPropertyOp1
 70
     1
102
RTVSPropertyOp2
 70
     1
102
RTVSPropertyOp3
 70
     1
102
RTVSPropertyOp4
 70
     1
102
RTVSPropertyOp5
 70
     1
102
RTVSPropertyOp6
 70
     1
102
RTVSPropertyOp7
 70
     1
102
RTVSPropertyOp8
 70
     1
102
RTVSPropertyOp9
 70
     1
102
RTVSPropertyOp10
 70
     1
102
RTVSPropertyOp11
 70
     1
102
RTVSPropertyOp12
 70
     1
102
RTVSPropertyOp13
 70
     1
102
RTVSPropertyOp14
 70
     1
102
RTVSPropertyOp15
 70
     1
102
RTVSPropertyOp16
 70
     1
102
RTVSPropertyOp17
 70
     1
102
RTVSPropertyOp18
 70
     1
102
RTVSPropertyOp19
 70
     1
102
RTVSPropertyOp20
 70
     1
102
RTVSPropertyOp21
 70
     1
102
RTVSPropertyOp22
 70
     1
102
RTVSPropertyOp23
 70
     1
102
RTVSPropertyOp24
 70
     1
102
RTVSPropertyOp25
 70
     1
102
RTVSPropertyOp26
 70
     1
102
RTVSPropertyOp27
 70
     1
  0
XRECORD
  5
5FB
102
{ACAD_REACTORS
330
5FA
102
}
330
5FA
100
AcDbXrecord
280
     1
102
RTVSPropertyOp0
 70
     1
102
RTVSPropertyOp1
 70
     1
102
RTVSPropertyOp2
 70
     1
102
RTVSPropertyOp3
 70
     1
102
RTVSPropertyOp4
 70
     1
102
RTVSPropertyOp5
 70
     1
102
RTVSPropertyOp6
 70
     1
102
RTVSPropertyOp7
 70
     1
102
RTVSPropertyOp8
 70
     1
102
RTVSPropertyOp9
 70
     1
102
RTVSPropertyOp10
 70
     1
102
RTVSPropertyOp11
 70
     1
102
RTVSPropertyOp12
 70
     1
102
RTVSPropertyOp13
 70
     1
102
RTVSPropertyOp14
 70
     1
102
RTVSPropertyOp15
 70
     1
102
RTVSPropertyOp16
 70
     1
102
RTVSPropertyOp17
 70
     1
102
RTVSPropertyOp18
 70
     1
102
RTVSPropertyOp19
 70
     1
102
RTVSPropertyOp20
 70
     1
102
RTVSPropertyOp21
 70
     1
102
RTVSPropertyOp22
 70
     1
102
RTVSPropertyOp23
 70
     1
102
RTVSPropertyOp24
 70
     1
102
RTVSPropertyOp25
 70
     1
102
RTVSPropertyOp26
 70
     1
102
RTVSPropertyOp27
 70
     1
  0
XRECORD
  5
603
102
{ACAD_REACTORS
330
602
102
}
330
602
100
AcDbXrecord
280
     1
102
RTVSPropertyOp0
 70
     1
102
RTVSPropertyOp1
 70
     1
102
RTVSPropertyOp2
 70
     1
102
RTVSPropertyOp3
 70
     1
102
RTVSPropertyOp4
 70
     1
102
RTVSPropertyOp5
 70
     1
102
RTVSPropertyOp6
 70
     1
102
RTVSPropertyOp7
 70
     1
102
RTVSPropertyOp8
 70
     1
102
RTVSPropertyOp9
 70
     1
102
RTVSPropertyOp10
 70
     1
102
RTVSPropertyOp11
 70
     1
102
RTVSPropertyOp12
 70
     1
102
RTVSPropertyOp13
 70
     1
102
RTVSPropertyOp14
 70
     1
102
RTVSPropertyOp15
 70
     1
102
RTVSPropertyOp16
 70
     1
102
RTVSPropertyOp17
 70
     1
102
RTVSPropertyOp18
 70
     1
102
RTVSPropertyOp19
 70
     1
102
RTVSPropertyOp20
 70
     1
102
RTVSPropertyOp21
 70
     1
102
RTVSPropertyOp22
 70
     1
102
RTVSPropertyOp23
 70
     1
102
RTVSPropertyOp24
 70
     1
102
RTVSPropertyOp25
 70
     1
102
RTVSPropertyOp26
 70
     1
102
RTVSPropertyOp27
 70
     1
  0
XRECORD
  5
5E7
102
{ACAD_REACTORS
330
5E6
102
}
330
5E6
100
AcDbXrecord
280
     1
102
RTVSPropertyOp0
 70
     1
102
RTVSPropertyOp1
 70
     1
102
RTVSPropertyOp2
 70
     1
102
RTVSPropertyOp3
 70
     1
102
RTVSPropertyOp4
 70
     1
102
RTVSPropertyOp5
 70
     1
102
RTVSPropertyOp6
 70
     1
102
RTVSPropertyOp7
 70
     1
102
RTVSPropertyOp8
 70
     1
102
RTVSPropertyOp9
 70
     1
102
RTVSPropertyOp10
 70
     1
102
RTVSPropertyOp11
 70
     1
102
RTVSPropertyOp12
 70
     1
102
RTVSPropertyOp13
 70
     1
102
RTVSPropertyOp14
 70
     1
102
RTVSPropertyOp15
 70
     1
102
RTVSPropertyOp16
 70
     1
102
RTVSPropertyOp17
 70
     1
102
RTVSPropertyOp18
 70
     1
102
RTVSPropertyOp19
 70
     1
102
RTVSPropertyOp20
 70
     1
102
RTVSPropertyOp21
 70
     1
102
RTVSPropertyOp22
 70
     1
102
RTVSPropertyOp23
 70
     1
102
RTVSPropertyOp24
 70
     1
102
RTVSPropertyOp25
 70
     1
102
RTVSPropertyOp26
 70
     1
102
RTVSPropertyOp27
 70
     1
  0
XRECORD
  5
5E9
102
{ACAD_REACTORS
330
5E8
102
}
330
5E8
100
AcDbXrecord
280
     1
102
RTVSPropertyOp0
 70
     1
102
RTVSPropertyOp1
 70
     1
102
RTVSPropertyOp2
 70
     1
102
RTVSPropertyOp3
 70
     1
102
RTVSPropertyOp4
 70
     1
102
RTVSPropertyOp5
 70
     1
102
RTVSPropertyOp6
 70
     1
102
RTVSPropertyOp7
 70
     1
102
RTVSPropertyOp8
 70
     1
102
RTVSPropertyOp9
 70
     1
102
RTVSPropertyOp10
 70
     1
102
RTVSPropertyOp11
 70
     1
102
RTVSPropertyOp12
 70
     1
102
RTVSPropertyOp13
 70
     1
102
RTVSPropertyOp14
 70
     1
102
RTVSPropertyOp15
 70
     1
102
RTVSPropertyOp16
 70
     1
102
RTVSPropertyOp17
 70
     1
102
RTVSPropertyOp18
 70
     1
102
RTVSPropertyOp19
 70
     1
102
RTVSPropertyOp20
 70
     1
102
RTVSPropertyOp21
 70
     1
102
RTVSPropertyOp22
 70
     1
102
RTVSPropertyOp23
 70
     1
102
RTVSPropertyOp24
 70
     1
102
RTVSPropertyOp25
 70
     1
102
RTVSPropertyOp26
 70
     1
102
RTVSPropertyOp27
 70
     1
  0
XRECORD
  5
5EB
102
{ACAD_REACTORS
330
5EA
102
}
330
5EA
100
AcDbXrecord
280
     1
102
RTVSPropertyOp0
 70
     1
102
RTVSPropertyOp1
 70
     1
102
RTVSPropertyOp2
 70
     1
102
RTVSPropertyOp3
 70
     1
102
RTVSPropertyOp4
 70
     1
102
RTVSPropertyOp5
 70
     1
102
RTVSPropertyOp6
 70
     1
102
RTVSPropertyOp7
 70
     1
102
RTVSPropertyOp8
 70
     1
102
RTVSPropertyOp9
 70
     1
102
RTVSPropertyOp10
 70
     1
102
RTVSPropertyOp11
 70
     1
102
RTVSPropertyOp12
 70
     1
102
RTVSPropertyOp13
 70
     1
102
RTVSPropertyOp14
 70
     1
102
RTVSPropertyOp15
 70
     1
102
RTVSPropertyOp16
 70
     1
102
RTVSPropertyOp17
 70
     1
102
RTVSPropertyOp18
 70
     1
102
RTVSPropertyOp19
 70
     1
102
RTVSPropertyOp20
 70
     1
102
RTVSPropertyOp21
 70
     1
102
RTVSPropertyOp22
 70
     1
102
RTVSPropertyOp23
 70
     1
102
RTVSPropertyOp24
 70
     1
102
RTVSPropertyOp25
 70
     1
102
RTVSPropertyOp26
 70
     1
102
RTVSPropertyOp27
 70
     1
  0
XRECORD
  5
5ED
102
{ACAD_REACTORS
330
5EC
102
}
330
5EC
100
AcDbXrecord
280
     1
102
RTVSPropertyOp0
 70
     1
102
RTVSPropertyOp1
 70
     1
102
RTVSPropertyOp2
 70
     1
102
RTVSPropertyOp3
 70
     1
102
RTVSPropertyOp4
 70
     1
102
RTVSPropertyOp5
 70
     1
102
RTVSPropertyOp6
 70
     1
102
RTVSPropertyOp7
 70
     1
102
RTVSPropertyOp8
 70
     1
102
RTVSPropertyOp9
 70
     1
102
RTVSPropertyOp10
 70
     1
102
RTVSPropertyOp11
 70
     1
102
RTVSPropertyOp12
 70
     1
102
RTVSPropertyOp13
 70
     1
102
RTVSPropertyOp14
 70
     1
102
RTVSPropertyOp15
 70
     1
102
RTVSPropertyOp16
 70
     1
102
RTVSPropertyOp17
 70
     1
102
RTVSPropertyOp18
 70
     1
102
RTVSPropertyOp19
 70
     1
102
RTVSPropertyOp20
 70
     1
102
RTVSPropertyOp21
 70
     1
102
RTVSPropertyOp22
 70
     1
102
RTVSPropertyOp23
 70
     1
102
RTVSPropertyOp24
 70
     1
102
RTVSPropertyOp25
 70
     1
102
RTVSPropertyOp26
 70
     1
102
RTVSPropertyOp27
 70
     1
  0
XRECORD
  5
601
102
{ACAD_REACTORS
330
600
102
}
330
600
100
AcDbXrecord
280
     1
102
RTVSPropertyOp0
 70
     1
102
RTVSPropertyOp1
 70
     1
102
RTVSPropertyOp2
 70
     1
102
RTVSPropertyOp3
 70
     1
102
RTVSPropertyOp4
 70
     1
102
RTVSPropertyOp5
 70
     1
102
RTVSPropertyOp6
 70
     1
102
RTVSPropertyOp7
 70
     1
102
RTVSPropertyOp8
 70
     1
102
RTVSPropertyOp9
 70
     1
102
RTVSPropertyOp10
 70
     1
102
RTVSPropertyOp11
 70
     1
102
RTVSPropertyOp12
 70
     1
102
RTVSPropertyOp13
 70
     1
102
RTVSPropertyOp14
 70
     1
102
RTVSPropertyOp15
 70
     1
102
RTVSPropertyOp16
 70
     1
102
RTVSPropertyOp17
 70
     1
102
RTVSPropertyOp18
 70
     1
102
RTVSPropertyOp19
 70
     1
102
RTVSPropertyOp20
 70
     1
102
RTVSPropertyOp21
 70
     1
102
RTVSPropertyOp22
 70
     1
102
RTVSPropertyOp23
 70
     1
102
RTVSPropertyOp24
 70
     1
102
RTVSPropertyOp25
 70
     1
102
RTVSPropertyOp26
 70
     1
102
RTVSPropertyOp27
 70
     1
  0
XRECORD
  5
5F7
102
{ACAD_REACTORS
330
5F6
102
}
330
5F6
100
AcDbXrecord
280
     1
102
RTVSPropertyOp0
 70
     1
102
RTVSPropertyOp1
 70
     1
102
RTVSPropertyOp2
 70
     1
102
RTVSPropertyOp3
 70
     1
102
RTVSPropertyOp4
 70
     1
102
RTVSPropertyOp5
 70
     1
102
RTVSPropertyOp6
 70
     1
102
RTVSPropertyOp7
 70
     1
102
RTVSPropertyOp8
 70
     1
102
RTVSPropertyOp9
 70
     1
102
RTVSPropertyOp10
 70
     1
102
RTVSPropertyOp11
 70
     1
102
RTVSPropertyOp12
 70
     1
102
RTVSPropertyOp13
 70
     1
102
RTVSPropertyOp14
 70
     1
102
RTVSPropertyOp15
 70
     1
102
RTVSPropertyOp16
 70
     1
102
RTVSPropertyOp17
 70
     1
102
RTVSPropertyOp18
 70
     1
102
RTVSPropertyOp19
 70
     1
102
RTVSPropertyOp20
 70
     1
102
RTVSPropertyOp21
 70
     1
102
RTVSPropertyOp22
 70
     1
102
RTVSPropertyOp23
 70
     1
102
RTVSPropertyOp24
 70
     1
102
RTVSPropertyOp25
 70
     1
102
RTVSPropertyOp26
 70
     1
102
RTVSPropertyOp27
 70
     1
  0
XRECORD
  5
5FF
102
{ACAD_REACTORS
330
5FE
102
}
330
5FE
100
AcDbXrecord
280
     1
102
RTVSPropertyOp0
 70
     1
102
RTVSPropertyOp1
 70
     1
102
RTVSPropertyOp2
 70
     1
102
RTVSPropertyOp3
 70
     1
102
RTVSPropertyOp4
 70
     1
102
RTVSPropertyOp5
 70
     1
102
RTVSPropertyOp6
 70
     1
102
RTVSPropertyOp7
 70
     1
102
RTVSPropertyOp8
 70
     1
102
RTVSPropertyOp9
 70
     1
102
RTVSPropertyOp10
 70
     1
102
RTVSPropertyOp11
 70
     1
102
RTVSPropertyOp12
 70
     1
102
RTVSPropertyOp13
 70
     1
102
RTVSPropertyOp14
 70
     1
102
RTVSPropertyOp15
 70
     1
102
RTVSPropertyOp16
 70
     1
102
RTVSPropertyOp17
 70
     1
102
RTVSPropertyOp18
 70
     1
102
RTVSPropertyOp19
 70
     1
102
RTVSPropertyOp20
 70
     1
102
RTVSPropertyOp21
 70
     1
102
RTVSPropertyOp22
 70
     1
102
RTVSPropertyOp23
 70
     1
102
RTVSPropertyOp24
 70
     1
102
RTVSPropertyOp25
 70
     1
102
RTVSPropertyOp26
 70
     1
102
RTVSPropertyOp27
 70
     1
  0
ENDSEC
  0
EOF
