  0
SECTION
  2
HEADER
  9
$ACADVER
  1
AC1018
  9
$ACADMAINTVER
 70
     0
  9
$DWGCODEPAGE
  3
ANSI_1252
  9
$INSBASE
 10
0.0
 20
0.0
 30
0.0
  9
$EXTMIN
 10
72387.75524404547
 20
10903.18063023235
 30
0.0
  9
$EXTMAX
 10
74478.26778202386
 20
12338.18063633586
 30
0.0
  9
$LIMMIN
 10
0.0
 20
0.0
  9
$LIMMAX
 10
420.0
 20
297.0
  9
$ORTHOMODE
 70
     0
  9
$REGENMODE
 70
     1
  9
$FILLMODE
 70
     1
  9
$QTEXTMODE
 70
     0
  9
$MIRRTEXT
 70
     1
  9
$LTSCALE
 40
1.0
  9
$ATTMODE
 70
     1
  9
$TEXTSIZE
 40
0.2
  9
$TRACEWID
 40
1.0
  9
$TEXTSTYLE
  7
HELV-HFT
  9
$CLAYER
  8
ROUNDED 9310
  9
$CELTYPE
  6
Continuous
  9
$CECOLOR
 62
   256
  9
$CELTSCALE
 40
1.0
  9
$DISPSILH
 70
     0
  9
$DIMSCALE
 40
1.0
  9
$DIMASZ
 40
2.5
  9
$DIMEXO
 40
0.625
  9
$DIMDLI
 40
3.75
  9
$DIMRND
 40
0.0
  9
$DIMDLE
 40
0.0
  9
$DIMEXE
 40
1.25
  9
$DIMTP
 40
0.0
  9
$DIMTM
 40
0.0
  9
$DIMTXT
 40
2.5
  9
$DIMCEN
 40
2.5
  9
$DIMTSZ
 40
0.0
  9
$DIMTOL
 70
     0
  9
$DIMLIM
 70
     0
  9
$DIMTIH
 70
     0
  9
$DIMTOH
 70
     0
  9
$DIMSE1
 70
     0
  9
$DIMSE2
 70
     0
  9
$DIMTAD
 70
     1
  9
$DIMZIN
 70
     8
  9
$DIMBLK
  1

  9
$DIMASO
 70
     1
  9
$DIMSHO
 70
     1
  9
$DIMPOST
  1

  9
$DIMAPOST
  1

  9
$DIMALT
 70
     0
  9
$DIMALTD
 70
     3
  9
$DIMALTF
 40
0.03937007874016
  9
$DIMLFAC
 40
1.0
  9
$DIMTOFL
 70
     1
  9
$DIMTVP
 40
0.0
  9
$DIMTIX
 70
     0
  9
$DIMSOXD
 70
     0
  9
$DIMSAH
 70
     0
  9
$DIMBLK1
  1

  9
$DIMBLK2
  1

  9
$DIMSTYLE
  2
ISO-25
  9
$DIMCLRD
 70
     0
  9
$DIMCLRE
 70
     0
  9
$DIMCLRT
 70
     0
  9
$DIMTFAC
 40
1.0
  9
$DIMGAP
 40
0.625
  9
$DIMJUST
 70
     0
  9
$DIMSD1
 70
     0
  9
$DIMSD2
 70
     0
  9
$DIMTOLJ
 70
     0
  9
$DIMTZIN
 70
     8
  9
$DIMALTZ
 70
     0
  9
$DIMALTTZ
 70
     0
  9
$DIMUPT
 70
     0
  9
$DIMDEC
 70
     2
  9
$DIMTDEC
 70
     2
  9
$DIMALTU
 70
     2
  9
$DIMALTTD
 70
     3
  9
$DIMTXSTY
  7
Standard
  9
$DIMAUNIT
 70
     0
  9
$DIMADEC
 70
     0
  9
$DIMALTRND
 40
0.0
  9
$DIMAZIN
 70
     0
  9
$DIMDSEP
 70
    44
  9
$DIMATFIT
 70
     3
  9
$DIMFRAC
 70
     0
  9
$DIMLDRBLK
  1

  9
$DIMLUNIT
 70
     2
  9
$DIMLWD
 70
    -2
  9
$DIMLWE
 70
    -2
  9
$DIMTMOVE
 70
     0
  9
$LUNITS
 70
     2
  9
$LUPREC
 70
     4
  9
$SKETCHINC
 40
1.0
  9
$FILLETRAD
 40
10.0
  9
$AUNITS
 70
     0
  9
$AUPREC
 70
     0
  9
$MENU
  1
.
  9
$ELEVATION
 40
0.0
  9
$PELEVATION
 40
0.0
  9
$THICKNESS
 40
0.0
  9
$LIMCHECK
 70
     0
  9
$CHAMFERA
 40
10.0
  9
$CHAMFERB
 40
10.0
  9
$CHAMFERC
 40
20.0
  9
$CHAMFERD
 40
0.0
  9
$SKPOLY
 70
     0
  9
$TDCREATE
 40
2457975.657359965
  9
$TDUCREATE
 40
2457975.574026632
  9
$TDUPDATE
 40
2457975.657423183
  9
$TDUUPDATE
 40
2457975.574089849
  9
$TDINDWG
 40
0.0000000116
  9
$TDUSRTIMER
 40
0.0000000116
  9
$USRTIMER
 70
     1
  9
$ANGBASE
 50
0.0
  9
$ANGDIR
 70
     0
  9
$PDMODE
 70
     0
  9
$PDSIZE
 40
0.0
  9
$PLINEWID
 40
0.0
  9
$SPLFRAME
 70
     0
  9
$SPLINETYPE
 70
     6
  9
$SPLINESEGS
 70
     8
  9
$HANDSEED
  5
354
  9
$SURFTAB1
 70
     6
  9
$SURFTAB2
 70
     6
  9
$SURFTYPE
 70
     6
  9
$SURFU
 70
     6
  9
$SURFV
 70
     6
  9
$UCSBASE
  2

  9
$UCSNAME
  2

  9
$UCSORG
 10
0.0
 20
0.0
 30
0.0
  9
$UCSXDIR
 10
1.0
 20
0.0
 30
0.0
  9
$UCSYDIR
 10
0.0
 20
1.0
 30
0.0
  9
$UCSORTHOREF
  2

  9
$UCSORTHOVIEW
 70
     0
  9
$UCSORGTOP
 10
0.0
 20
0.0
 30
0.0
  9
$UCSORGBOTTOM
 10
0.0
 20
0.0
 30
0.0
  9
$UCSORGLEFT
 10
0.0
 20
0.0
 30
0.0
  9
$UCSORGRIGHT
 10
0.0
 20
0.0
 30
0.0
  9
$UCSORGFRONT
 10
0.0
 20
0.0
 30
0.0
  9
$UCSORGBACK
 10
0.0
 20
0.0
 30
0.0
  9
$PUCSBASE
  2

  9
$PUCSNAME
  2

  9
$PUCSORG
 10
0.0
 20
0.0
 30
0.0
  9
$PUCSXDIR
 10
1.0
 20
0.0
 30
0.0
  9
$PUCSYDIR
 10
0.0
 20
1.0
 30
0.0
  9
$PUCSORTHOREF
  2

  9
$PUCSORTHOVIEW
 70
     0
  9
$PUCSORGTOP
 10
0.0
 20
0.0
 30
0.0
  9
$PUCSORGBOTTOM
 10
0.0
 20
0.0
 30
0.0
  9
$PUCSORGLEFT
 10
0.0
 20
0.0
 30
0.0
  9
$PUCSORGRIGHT
 10
0.0
 20
0.0
 30
0.0
  9
$PUCSORGFRONT
 10
0.0
 20
0.0
 30
0.0
  9
$PUCSORGBACK
 10
0.0
 20
0.0
 30
0.0
  9
$USERI1
 70
     0
  9
$USERI2
 70
     0
  9
$USERI3
 70
     0
  9
$USERI4
 70
     0
  9
$USERI5
 70
     0
  9
$USERR1
 40
0.0
  9
$USERR2
 40
0.0
  9
$USERR3
 40
0.0
  9
$USERR4
 40
0.0
  9
$USERR5
 40
0.0
  9
$WORLDVIEW
 70
     1
  9
$SHADEDGE
 70
     3
  9
$SHADEDIF
 70
    70
  9
$TILEMODE
 70
     1
  9
$MAXACTVP
 70
    64
  9
$PINSBASE
 10
0.0
 20
0.0
 30
0.0
  9
$PLIMCHECK
 70
     0
  9
$PEXTMIN
 10
1.000000000000000E+20
 20
1.000000000000000E+20
 30
1.000000000000000E+20
  9
$PEXTMAX
 10
-1.000000000000000E+20
 20
-1.000000000000000E+20
 30
-1.000000000000000E+20
  9
$PLIMMIN
 10
0.0
 20
0.0
  9
$PLIMMAX
 10
420.0
 20
297.0
  9
$UNITMODE
 70
     0
  9
$VISRETAIN
 70
     1
  9
$PLINEGEN
 70
     0
  9
$PSLTSCALE
 70
     1
  9
$TREEDEPTH
 70
  3020
  9
$CMLSTYLE
  2
Standard
  9
$CMLJUST
 70
     0
  9
$CMLSCALE
 40
20.0
  9
$PROXYGRAPHICS
 70
     1
  9
$MEASUREMENT
 70
     1
  9
$CELWEIGHT
370
    -1
  9
$ENDCAPS
280
     0
  9
$JOINSTYLE
280
     0
  9
$LWDISPLAY
290
     0
  9
$INSUNITS
 70
     4
  9
$HYPERLINKBASE
  1

  9
$STYLESHEET
  1

  9
$XEDIT
290
     1
  9
$CEPSNTYPE
380
     0
  9
$PSTYLEMODE
290
     1
  9
$FINGERPRINTGUID
  2
{D051BC34-D39F-45C7-AC53-165BDF32B5EC}
  9
$VERSIONGUID
  2
{FAEB1C32-E019-11D5-929B-00C0DF256EC4}
  9
$EXTNAMES
290
     1
  9
$PSVPSCALE
 40
0.0
  9
$OLESTARTUP
290
     0
  9
$SORTENTS
280
   127
  9
$INDEXCTL
280
     0
  9
$HIDETEXT
280
     1
  9
$XCLIPFRAME
290
     0
  9
$HALOGAP
280
     0
  9
$OBSCOLOR
 70
   257
  9
$OBSLTYPE
280
     0
  9
$INTERSECTIONDISPLAY
280
     0
  9
$INTERSECTIONCOLOR
 70
   257
  9
$DIMASSOC
280
     2
  9
$PROJECTNAME
  1

  0
ENDSEC
  0
SECTION
  2
CLASSES
  0
CLASS
  1
ACDBDICTIONARYWDFLT
  2
AcDbDictionaryWithDefault
  3
ObjectDBX Classes
 90
        0
 91
        4
280
     0
281
     0
  0
CLASS
  1
VISUALSTYLE
  2
AcDbVisualStyle
  3
ObjectDBX Classes
 90
     4095
 91
        4
280
     0
281
     0
  0
CLASS
  1
MATERIAL
  2
AcDbMaterial
  3
ObjectDBX Classes
 90
     1153
 91
        4
280
     0
281
     0
  0
ENDSEC
  0
SECTION
  2
TABLES
  0
TABLE
  2
VPORT
  5
8
330
0
100
AcDbSymbolTable
 70
     1
  0
VPORT
  5
29
330
8
100
AcDbSymbolTableRecord
100
AcDbViewportTableRecord
  2
*Active
 70
     0
 10
0.0
 20
0.0
 11
1.0
 21
1.0
 12
36888.59921446126
 22
5884.590316642052
 13
0.0
 23
0.0
 14
10.0
 24
10.0
 15
10.0
 25
10.0
 16
0.0
 26
0.0
 36
1.0
 17
0.0
 27
0.0
 37
0.0
 40
1463.700006225587
 41
1.456803156158023
 42
50.0
 43
0.0
 44
0.0
 50
0.0
 51
0.0
 71
     0
 72
   100
 73
     1
 74
     3
 75
     0
 76
     0
 77
     0
 78
     0
281
     0
 65
     1
110
0.0
120
0.0
130
0.0
111
1.0
121
0.0
131
0.0
112
0.0
122
1.0
132
0.0
 79
     0
146
0.0
  0
ENDTAB
  0
TABLE
  2
LTYPE
  5
5
330
0
100
AcDbSymbolTable
 70
     1
  0
LTYPE
  5
14
330
5
100
AcDbSymbolTableRecord
100
AcDbLinetypeTableRecord
  2
ByBlock
 70
     0
  3

 72
    65
 73
     0
 40
0.0
  0
LTYPE
  5
15
330
5
100
AcDbSymbolTableRecord
100
AcDbLinetypeTableRecord
  2
ByLayer
 70
     0
  3

 72
    65
 73
     0
 40
0.0
  0
LTYPE
  5
16
330
5
100
AcDbSymbolTableRecord
100
AcDbLinetypeTableRecord
  2
Continuous
 70
     0
  3
Solid line
 72
    65
 73
     0
 40
0.0
  0
ENDTAB
  0
TABLE
  2
LAYER
  5
2
330
0
100
AcDbSymbolTable
 70
    12
  0
LAYER
  5
10
330
2
100
AcDbSymbolTableRecord
100
AcDbLayerTableRecord
  2
0
 70
     0
 62
     7
  6
Continuous
370
    -3
390
F
  0
LAYER
  5
3F
330
2
100
AcDbSymbolTableRecord
100
AcDbLayerTableRecord
  2
MR-380
 70
     0
 62
    18
420
        0
  6
Continuous
370
    25
390
F
  0
LAYER
  5
68
330
2
100
AcDbSymbolTableRecord
100
AcDbLayerTableRecord
  2
allgemein
 70
     0
 62
    18
420
        0
  6
Continuous
370
    25
390
F
  0
LAYER
  5
9D
330
2
100
AcDbSymbolTableRecord
100
AcDbLayerTableRecord
  2
Beschriftung Allgemein
 70
     0
 62
    18
420
        0
  6
Continuous
370
    25
390
F
  0
LAYER
  5
9E
330
2
100
AcDbSymbolTableRecord
100
AcDbLayerTableRecord
  2
MR-320
 70
     0
 62
    18
420
        0
  6
Continuous
370
    25
390
F
  0
LAYER
  5
C7
330
2
100
AcDbSymbolTableRecord
100
AcDbLayerTableRecord
  2
FR-45
 70
     0
 62
    18
420
        0
  6
Continuous
370
    25
390
F
  0
LAYER
  5
DC
330
2
100
AcDbSymbolTableRecord
100
AcDbLayerTableRecord
  2
Defpoints
 70
     0
 62
     7
  6
Continuous
290
     0
370
    -3
390
F
  0
LAYER
  5
1A9
330
2
100
AcDbSymbolTableRecord
100
AcDbLayerTableRecord
  2
SPICY 9910
 70
     0
 62
    18
420
        0
  6
Continuous
370
    25
390
F
  0
LAYER
  5
1E6
330
2
100
AcDbSymbolTableRecord
100
AcDbLayerTableRecord
  2
SPICY 9920
 70
     0
 62
    18
420
        0
  6
Continuous
370
    25
390
F
  0
LAYER
  5
243
330
2
100
AcDbSymbolTableRecord
100
AcDbLayerTableRecord
  2
SALTY 9410
 70
     0
 62
    18
420
        0
  6
Continuous
370
    25
390
F
  0
LAYER
  5
2A0
330
2
100
AcDbSymbolTableRecord
100
AcDbLayerTableRecord
  2
TASTY 9610
 70
     0
 62
    18
420
        0
  6
Continuous
370
    25
390
F
  0
LAYER
  5
2F5
330
2
100
AcDbSymbolTableRecord
100
AcDbLayerTableRecord
  2
ROUNDED 9310
 70
     0
 62
    18
420
        0
  6
Continuous
370
    25
390
F
  0
ENDTAB
  0
TABLE
  2
STYLE
  5
3
330
0
100
AcDbSymbolTable
 70
     6
  0
STYLE
  5
11
330
3
100
AcDbSymbolTableRecord
100
AcDbTextStyleTableRecord
  2
Standard
 70
     0
 40
0.0
 41
1.0
 50
0.0
 71
     0
 42
2.5
  3
txt
  4

  0
STYLE
  5
C8
330
3
100
AcDbSymbolTableRecord
100
AcDbTextStyleTableRecord
  2
CENTURY GOTHIC
 70
     0
 40
0.0
 41
1.0
 50
0.0
 71
     0
 42
0.2
  3
CENTURY GOTHIC
  4

  0
STYLE
  5
DA
330
3
100
AcDbSymbolTableRecord
100
AcDbTextStyleTableRecord
  2
ROMAN
 70
     0
 40
0.0
 41
1.0
 50
0.0
 71
     0
 42
0.2
  3
ROMAN
  4

  0
STYLE
  5
F1
330
3
100
AcDbSymbolTableRecord
100
AcDbTextStyleTableRecord
  2
ARIAL
 70
     0
 40
0.0
 41
1.0
 50
0.0
 71
     0
 42
0.2
  3
ARIAL
  4

  0
STYLE
  5
18B
330
3
100
AcDbSymbolTableRecord
100
AcDbTextStyleTableRecord
  2
HLV-L
 70
     0
 40
0.0
 41
1.0
 50
0.0
 71
     0
 42
0.2
  3
HLV-L
  4

  0
STYLE
  5
191
330
3
100
AcDbSymbolTableRecord
100
AcDbTextStyleTableRecord
  2
HELV-HFT
 70
     0
 40
0.0
 41
1.0
 50
0.0
 71
     0
 42
0.2
  3
HELV-HFT
  4

  0
ENDTAB
  0
TABLE
  2
VIEW
  5
6
330
0
100
AcDbSymbolTable
 70
     0
  0
ENDTAB
  0
TABLE
  2
UCS
  5
7
330
0
100
AcDbSymbolTable
 70
     0
  0
ENDTAB
  0
TABLE
  2
APPID
  5
9
330
0
100
AcDbSymbolTable
 70
     3
  0
APPID
  5
12
330
9
100
AcDbSymbolTableRecord
100
AcDbRegAppTableRecord
  2
ACAD
 70
     0
  0
APPID
  5
32A
330
9
100
AcDbSymbolTableRecord
100
AcDbRegAppTableRecord
  2
ACAD_DSTYLE_DIMEXT_ENABLED
 70
     0
  0
APPID
  5
32B
330
9
100
AcDbSymbolTableRecord
100
AcDbRegAppTableRecord
  2
ACAD_DSTYLE_DIMEXT_LENGTH
 70
     0
  0
ENDTAB
  0
TABLE
  2
DIMSTYLE
  5
A
330
0
100
AcDbSymbolTable
 70
     1
100
AcDbDimStyleTable
  0
DIMSTYLE
105
27
102
{ACAD_REACTORS
330
DB
330
F2
330
FF
330
137
102
}
330
A
100
AcDbSymbolTableRecord
100
AcDbDimStyleTableRecord
  2
ISO-25
 70
     0
 41
2.5
 42
0.625
 43
3.75
 44
1.25
 73
     0
 74
     0
 77
     1
 78
     8
140
2.5
141
2.5
143
0.03937007874016
147
0.625
171
     3
172
     1
178
     0
271
     2
272
     2
274
     3
278
    44
283
     0
284
     8
340
11
  0
ENDTAB
  0
TABLE
  2
BLOCK_RECORD
  5
1
330
0
100
AcDbSymbolTable
 70
   140
  0
BLOCK_RECORD
  5
1F
330
1
100
AcDbSymbolTableRecord
100
AcDbBlockTableRecord
  2
*Model_Space
340
22
  0
BLOCK_RECORD
  5
1B
330
1
100
AcDbSymbolTableRecord
100
AcDbBlockTableRecord
  2
*Paper_Space
340
1E
  0
BLOCK_RECORD
  5
23
330
1
100
AcDbSymbolTableRecord
100
AcDbBlockTableRecord
  2
*Paper_Space0
340
26
  0
BLOCK_RECORD
  5
40
330
1
100
AcDbSymbolTableRecord
100
AcDbBlockTableRecord
  2
Dimension1
340
0
102
{BLKREFS
331
43
102
}
  0
BLOCK_RECORD
  5
44
330
1
100
AcDbSymbolTableRecord
100
AcDbBlockTableRecord
  2
Dimension2
340
0
102
{BLKREFS
331
47
102
}
  0
BLOCK_RECORD
  5
48
330
1
100
AcDbSymbolTableRecord
100
AcDbBlockTableRecord
  2
Dimension3
340
0
102
{BLKREFS
331
4B
102
}
  0
BLOCK_RECORD
  5
4C
330
1
100
AcDbSymbolTableRecord
100
AcDbBlockTableRecord
  2
Dimension4
340
0
102
{BLKREFS
331
4F
102
}
  0
BLOCK_RECORD
  5
50
330
1
100
AcDbSymbolTableRecord
100
AcDbBlockTableRecord
  2
Dimension5
340
0
102
{BLKREFS
331
53
102
}
  0
BLOCK_RECORD
  5
54
330
1
100
AcDbSymbolTableRecord
100
AcDbBlockTableRecord
  2
Dimension6
340
0
102
{BLKREFS
331
57
102
}
  0
BLOCK_RECORD
  5
58
330
1
100
AcDbSymbolTableRecord
100
AcDbBlockTableRecord
  2
Dimension7
340
0
102
{BLKREFS
331
5B
102
}
  0
BLOCK_RECORD
  5
5C
330
1
100
AcDbSymbolTableRecord
100
AcDbBlockTableRecord
  2
Dimension8
340
0
102
{BLKREFS
331
5F
102
}
  0
BLOCK_RECORD
  5
60
330
1
100
AcDbSymbolTableRecord
100
AcDbBlockTableRecord
  2
Dimension9
340
0
102
{BLKREFS
331
63
102
}
  0
BLOCK_RECORD
  5
64
330
1
100
AcDbSymbolTableRecord
100
AcDbBlockTableRecord
  2
Dimension10
340
0
102
{BLKREFS
331
67
102
}
  0
BLOCK_RECORD
  5
69
330
1
100
AcDbSymbolTableRecord
100
AcDbBlockTableRecord
  2
Dimension11
340
0
102
{BLKREFS
331
6C
102
}
  0
BLOCK_RECORD
  5
6D
330
1
100
AcDbSymbolTableRecord
100
AcDbBlockTableRecord
  2
Dimension12
340
0
102
{BLKREFS
331
70
102
}
  0
BLOCK_RECORD
  5
71
330
1
100
AcDbSymbolTableRecord
100
AcDbBlockTableRecord
  2
Dimension13
340
0
102
{BLKREFS
331
74
102
}
  0
BLOCK_RECORD
  5
75
330
1
100
AcDbSymbolTableRecord
100
AcDbBlockTableRecord
  2
Dimension14
340
0
102
{BLKREFS
331
78
102
}
  0
BLOCK_RECORD
  5
79
330
1
100
AcDbSymbolTableRecord
100
AcDbBlockTableRecord
  2
Dimension15
340
0
102
{BLKREFS
331
7C
102
}
  0
BLOCK_RECORD
  5
7D
330
1
100
AcDbSymbolTableRecord
100
AcDbBlockTableRecord
  2
Dimension16
340
0
102
{BLKREFS
331
80
102
}
  0
BLOCK_RECORD
  5
81
330
1
100
AcDbSymbolTableRecord
100
AcDbBlockTableRecord
  2
Dimension17
340
0
102
{BLKREFS
331
84
102
}
  0
BLOCK_RECORD
  5
85
330
1
100
AcDbSymbolTableRecord
100
AcDbBlockTableRecord
  2
Dimension18
340
0
102
{BLKREFS
331
88
102
}
  0
BLOCK_RECORD
  5
89
330
1
100
AcDbSymbolTableRecord
100
AcDbBlockTableRecord
  2
Dimension19
340
0
102
{BLKREFS
331
8C
102
}
  0
BLOCK_RECORD
  5
8D
330
1
100
AcDbSymbolTableRecord
100
AcDbBlockTableRecord
  2
Dimension20
340
0
102
{BLKREFS
331
90
102
}
  0
BLOCK_RECORD
  5
91
330
1
100
AcDbSymbolTableRecord
100
AcDbBlockTableRecord
  2
Dimension21
340
0
102
{BLKREFS
331
94
102
}
  0
BLOCK_RECORD
  5
95
330
1
100
AcDbSymbolTableRecord
100
AcDbBlockTableRecord
  2
Dimension22
340
0
102
{BLKREFS
331
98
102
}
  0
BLOCK_RECORD
  5
99
330
1
100
AcDbSymbolTableRecord
100
AcDbBlockTableRecord
  2
Dimension23
340
0
102
{BLKREFS
331
9C
102
}
  0
BLOCK_RECORD
  5
9F
330
1
100
AcDbSymbolTableRecord
100
AcDbBlockTableRecord
  2
Dimension24
340
0
102
{BLKREFS
331
A2
102
}
  0
BLOCK_RECORD
  5
A3
330
1
100
AcDbSymbolTableRecord
100
AcDbBlockTableRecord
  2
Dimension25
340
0
102
{BLKREFS
331
A6
102
}
  0
BLOCK_RECORD
  5
A7
330
1
100
AcDbSymbolTableRecord
100
AcDbBlockTableRecord
  2
Dimension26
340
0
102
{BLKREFS
331
AA
102
}
  0
BLOCK_RECORD
  5
AB
330
1
100
AcDbSymbolTableRecord
100
AcDbBlockTableRecord
  2
Dimension27
340
0
102
{BLKREFS
331
AE
102
}
  0
BLOCK_RECORD
  5
AF
330
1
100
AcDbSymbolTableRecord
100
AcDbBlockTableRecord
  2
Dimension28
340
0
102
{BLKREFS
331
B2
102
}
  0
BLOCK_RECORD
  5
B3
330
1
100
AcDbSymbolTableRecord
100
AcDbBlockTableRecord
  2
Dimension29
340
0
102
{BLKREFS
331
B6
102
}
  0
BLOCK_RECORD
  5
B7
330
1
100
AcDbSymbolTableRecord
100
AcDbBlockTableRecord
  2
Dimension30
340
0
102
{BLKREFS
331
BA
102
}
  0
BLOCK_RECORD
  5
BB
330
1
100
AcDbSymbolTableRecord
100
AcDbBlockTableRecord
  2
Dimension31
340
0
102
{BLKREFS
331
BE
102
}
  0
BLOCK_RECORD
  5
BF
330
1
100
AcDbSymbolTableRecord
100
AcDbBlockTableRecord
  2
Dimension32
340
0
102
{BLKREFS
331
C2
102
}
  0
BLOCK_RECORD
  5
C3
330
1
100
AcDbSymbolTableRecord
100
AcDbBlockTableRecord
  2
Dimension33
340
0
102
{BLKREFS
331
C6
102
}
  0
BLOCK_RECORD
  5
CE
330
1
100
AcDbSymbolTableRecord
100
AcDbBlockTableRecord
  2
Dimension34
340
0
102
{BLKREFS
331
D1
102
}
  0
BLOCK_RECORD
  5
D2
330
1
100
AcDbSymbolTableRecord
100
AcDbBlockTableRecord
  2
Dimension35
340
0
102
{BLKREFS
331
D5
102
}
  0
BLOCK_RECORD
  5
D6
330
1
100
AcDbSymbolTableRecord
100
AcDbBlockTableRecord
  2
Dimension36
340
0
102
{BLKREFS
331
D9
102
}
  0
BLOCK_RECORD
  5
DD
330
1
100
AcDbSymbolTableRecord
100
AcDbBlockTableRecord
  2
*D37
340
0
  0
BLOCK_RECORD
  5
E9
330
1
100
AcDbSymbolTableRecord
100
AcDbBlockTableRecord
  2
_OPEN30
340
0
102
{BLKREFS
331
0
331
0
331
E4
331
E3
331
F7
331
F8
331
104
331
105
331
0
331
0
331
13F
331
13E
102
}
  0
BLOCK_RECORD
  5
F3
330
1
100
AcDbSymbolTableRecord
100
AcDbBlockTableRecord
  2
*D39
340
0
  0
BLOCK_RECORD
  5
100
330
1
100
AcDbSymbolTableRecord
100
AcDbBlockTableRecord
  2
*D40
340
0
  0
BLOCK_RECORD
  5
10C
330
1
100
AcDbSymbolTableRecord
100
AcDbBlockTableRecord
  2
Dimension37
340
0
102
{BLKREFS
331
10F
102
}
  0
BLOCK_RECORD
  5
138
330
1
100
AcDbSymbolTableRecord
100
AcDbBlockTableRecord
  2
*D42
340
0
  0
BLOCK_RECORD
  5
146
330
1
100
AcDbSymbolTableRecord
100
AcDbBlockTableRecord
  2
Dimension38
340
0
102
{BLKREFS
331
149
102
}
  0
BLOCK_RECORD
  5
14A
330
1
100
AcDbSymbolTableRecord
100
AcDbBlockTableRecord
  2
Dimension39
340
0
102
{BLKREFS
331
14D
102
}
  0
BLOCK_RECORD
  5
1AA
330
1
100
AcDbSymbolTableRecord
100
AcDbBlockTableRecord
  2
Dimension40
340
0
102
{BLKREFS
331
1AD
102
}
  0
BLOCK_RECORD
  5
1AE
330
1
100
AcDbSymbolTableRecord
100
AcDbBlockTableRecord
  2
Dimension41
340
0
102
{BLKREFS
331
1B1
102
}
  0
BLOCK_RECORD
  5
1B2
330
1
100
AcDbSymbolTableRecord
100
AcDbBlockTableRecord
  2
Dimension42
340
0
102
{BLKREFS
331
1B5
102
}
  0
BLOCK_RECORD
  5
1B6
330
1
100
AcDbSymbolTableRecord
100
AcDbBlockTableRecord
  2
Dimension43
340
0
102
{BLKREFS
331
1B9
102
}
  0
BLOCK_RECORD
  5
1BA
330
1
100
AcDbSymbolTableRecord
100
AcDbBlockTableRecord
  2
Dimension44
340
0
102
{BLKREFS
331
1BD
102
}
  0
BLOCK_RECORD
  5
1BE
330
1
100
AcDbSymbolTableRecord
100
AcDbBlockTableRecord
  2
Dimension45
340
0
102
{BLKREFS
331
1C1
102
}
  0
BLOCK_RECORD
  5
1C2
330
1
100
AcDbSymbolTableRecord
100
AcDbBlockTableRecord
  2
Dimension46
340
0
102
{BLKREFS
331
1C5
102
}
  0
BLOCK_RECORD
  5
1C6
330
1
100
AcDbSymbolTableRecord
100
AcDbBlockTableRecord
  2
Dimension47
340
0
102
{BLKREFS
331
1C9
102
}
  0
BLOCK_RECORD
  5
1CA
330
1
100
AcDbSymbolTableRecord
100
AcDbBlockTableRecord
  2
Dimension48
340
0
102
{BLKREFS
331
1CD
102
}
  0
BLOCK_RECORD
  5
1CE
330
1
100
AcDbSymbolTableRecord
100
AcDbBlockTableRecord
  2
Dimension49
340
0
102
{BLKREFS
331
1D1
102
}
  0
BLOCK_RECORD
  5
1D2
330
1
100
AcDbSymbolTableRecord
100
AcDbBlockTableRecord
  2
Dimension50
340
0
102
{BLKREFS
331
1D5
102
}
  0
BLOCK_RECORD
  5
1D6
330
1
100
AcDbSymbolTableRecord
100
AcDbBlockTableRecord
  2
Dimension51
340
0
102
{BLKREFS
331
1D9
102
}
  0
BLOCK_RECORD
  5
1DA
330
1
100
AcDbSymbolTableRecord
100
AcDbBlockTableRecord
  2
Dimension52
340
0
102
{BLKREFS
331
1DD
102
}
  0
BLOCK_RECORD
  5
1DE
330
1
100
AcDbSymbolTableRecord
100
AcDbBlockTableRecord
  2
Dimension53
340
0
102
{BLKREFS
331
1E1
102
}
  0
BLOCK_RECORD
  5
1E2
330
1
100
AcDbSymbolTableRecord
100
AcDbBlockTableRecord
  2
Dimension54
340
0
102
{BLKREFS
331
1E5
102
}
  0
BLOCK_RECORD
  5
1E7
330
1
100
AcDbSymbolTableRecord
100
AcDbBlockTableRecord
  2
Dimension55
340
0
102
{BLKREFS
331
1EA
102
}
  0
BLOCK_RECORD
  5
1EB
330
1
100
AcDbSymbolTableRecord
100
AcDbBlockTableRecord
  2
Dimension56
340
0
102
{BLKREFS
331
1EE
102
}
  0
BLOCK_RECORD
  5
1EF
330
1
100
AcDbSymbolTableRecord
100
AcDbBlockTableRecord
  2
Dimension57
340
0
102
{BLKREFS
331
1F2
102
}
  0
BLOCK_RECORD
  5
1F3
330
1
100
AcDbSymbolTableRecord
100
AcDbBlockTableRecord
  2
Dimension58
340
0
102
{BLKREFS
331
1F6
102
}
  0
BLOCK_RECORD
  5
1F7
330
1
100
AcDbSymbolTableRecord
100
AcDbBlockTableRecord
  2
Dimension59
340
0
102
{BLKREFS
331
1FA
102
}
  0
BLOCK_RECORD
  5
1FB
330
1
100
AcDbSymbolTableRecord
100
AcDbBlockTableRecord
  2
Dimension60
340
0
102
{BLKREFS
331
1FE
102
}
  0
BLOCK_RECORD
  5
1FF
330
1
100
AcDbSymbolTableRecord
100
AcDbBlockTableRecord
  2
Dimension61
340
0
102
{BLKREFS
331
202
102
}
  0
BLOCK_RECORD
  5
203
330
1
100
AcDbSymbolTableRecord
100
AcDbBlockTableRecord
  2
Dimension62
340
0
102
{BLKREFS
331
206
102
}
  0
BLOCK_RECORD
  5
207
330
1
100
AcDbSymbolTableRecord
100
AcDbBlockTableRecord
  2
Dimension63
340
0
102
{BLKREFS
331
20A
102
}
  0
BLOCK_RECORD
  5
20B
330
1
100
AcDbSymbolTableRecord
100
AcDbBlockTableRecord
  2
Dimension64
340
0
102
{BLKREFS
331
20E
102
}
  0
BLOCK_RECORD
  5
20F
330
1
100
AcDbSymbolTableRecord
100
AcDbBlockTableRecord
  2
Dimension65
340
0
102
{BLKREFS
331
212
102
}
  0
BLOCK_RECORD
  5
213
330
1
100
AcDbSymbolTableRecord
100
AcDbBlockTableRecord
  2
Dimension66
340
0
102
{BLKREFS
331
216
102
}
  0
BLOCK_RECORD
  5
217
330
1
100
AcDbSymbolTableRecord
100
AcDbBlockTableRecord
  2
Dimension67
340
0
102
{BLKREFS
331
21A
102
}
  0
BLOCK_RECORD
  5
21B
330
1
100
AcDbSymbolTableRecord
100
AcDbBlockTableRecord
  2
Dimension68
340
0
102
{BLKREFS
331
21E
102
}
  0
BLOCK_RECORD
  5
21F
330
1
100
AcDbSymbolTableRecord
100
AcDbBlockTableRecord
  2
Dimension69
340
0
102
{BLKREFS
331
222
102
}
  0
BLOCK_RECORD
  5
223
330
1
100
AcDbSymbolTableRecord
100
AcDbBlockTableRecord
  2
Dimension70
340
0
102
{BLKREFS
331
226
102
}
  0
BLOCK_RECORD
  5
227
330
1
100
AcDbSymbolTableRecord
100
AcDbBlockTableRecord
  2
Dimension71
340
0
102
{BLKREFS
331
22A
102
}
  0
BLOCK_RECORD
  5
22B
330
1
100
AcDbSymbolTableRecord
100
AcDbBlockTableRecord
  2
Dimension72
340
0
102
{BLKREFS
331
22E
102
}
  0
BLOCK_RECORD
  5
22F
330
1
100
AcDbSymbolTableRecord
100
AcDbBlockTableRecord
  2
Dimension73
340
0
102
{BLKREFS
331
232
102
}
  0
BLOCK_RECORD
  5
233
330
1
100
AcDbSymbolTableRecord
100
AcDbBlockTableRecord
  2
Dimension74
340
0
102
{BLKREFS
331
236
102
}
  0
BLOCK_RECORD
  5
237
330
1
100
AcDbSymbolTableRecord
100
AcDbBlockTableRecord
  2
Dimension75
340
0
102
{BLKREFS
331
23A
102
}
  0
BLOCK_RECORD
  5
23B
330
1
100
AcDbSymbolTableRecord
100
AcDbBlockTableRecord
  2
Dimension76
340
0
102
{BLKREFS
331
23E
102
}
  0
BLOCK_RECORD
  5
23F
330
1
100
AcDbSymbolTableRecord
100
AcDbBlockTableRecord
  2
Dimension77
340
0
102
{BLKREFS
331
242
102
}
  0
BLOCK_RECORD
  5
244
330
1
100
AcDbSymbolTableRecord
100
AcDbBlockTableRecord
  2
Dimension78
340
0
102
{BLKREFS
331
247
102
}
  0
BLOCK_RECORD
  5
248
330
1
100
AcDbSymbolTableRecord
100
AcDbBlockTableRecord
  2
Dimension79
340
0
102
{BLKREFS
331
24B
102
}
  0
BLOCK_RECORD
  5
24C
330
1
100
AcDbSymbolTableRecord
100
AcDbBlockTableRecord
  2
Dimension80
340
0
102
{BLKREFS
331
24F
102
}
  0
BLOCK_RECORD
  5
250
330
1
100
AcDbSymbolTableRecord
100
AcDbBlockTableRecord
  2
Dimension81
340
0
102
{BLKREFS
331
253
102
}
  0
BLOCK_RECORD
  5
254
330
1
100
AcDbSymbolTableRecord
100
AcDbBlockTableRecord
  2
Dimension82
340
0
102
{BLKREFS
331
257
102
}
  0
BLOCK_RECORD
  5
258
330
1
100
AcDbSymbolTableRecord
100
AcDbBlockTableRecord
  2
Dimension83
340
0
102
{BLKREFS
331
25B
102
}
  0
BLOCK_RECORD
  5
25C
330
1
100
AcDbSymbolTableRecord
100
AcDbBlockTableRecord
  2
Dimension84
340
0
102
{BLKREFS
331
25F
102
}
  0
BLOCK_RECORD
  5
260
330
1
100
AcDbSymbolTableRecord
100
AcDbBlockTableRecord
  2
Dimension85
340
0
102
{BLKREFS
331
263
102
}
  0
BLOCK_RECORD
  5
264
330
1
100
AcDbSymbolTableRecord
100
AcDbBlockTableRecord
  2
Dimension86
340
0
102
{BLKREFS
331
267
102
}
  0
BLOCK_RECORD
  5
268
330
1
100
AcDbSymbolTableRecord
100
AcDbBlockTableRecord
  2
Dimension87
340
0
102
{BLKREFS
331
26B
102
}
  0
BLOCK_RECORD
  5
26C
330
1
100
AcDbSymbolTableRecord
100
AcDbBlockTableRecord
  2
Dimension88
340
0
102
{BLKREFS
331
26F
102
}
  0
BLOCK_RECORD
  5
270
330
1
100
AcDbSymbolTableRecord
100
AcDbBlockTableRecord
  2
Dimension89
340
0
102
{BLKREFS
331
273
102
}
  0
BLOCK_RECORD
  5
274
330
1
100
AcDbSymbolTableRecord
100
AcDbBlockTableRecord
  2
Dimension90
340
0
102
{BLKREFS
331
277
102
}
  0
BLOCK_RECORD
  5
278
330
1
100
AcDbSymbolTableRecord
100
AcDbBlockTableRecord
  2
Dimension91
340
0
102
{BLKREFS
331
27B
102
}
  0
BLOCK_RECORD
  5
27C
330
1
100
AcDbSymbolTableRecord
100
AcDbBlockTableRecord
  2
Dimension92
340
0
102
{BLKREFS
331
27F
102
}
  0
BLOCK_RECORD
  5
280
330
1
100
AcDbSymbolTableRecord
100
AcDbBlockTableRecord
  2
Dimension93
340
0
102
{BLKREFS
331
283
102
}
  0
BLOCK_RECORD
  5
284
330
1
100
AcDbSymbolTableRecord
100
AcDbBlockTableRecord
  2
Dimension94
340
0
102
{BLKREFS
331
287
102
}
  0
BLOCK_RECORD
  5
288
330
1
100
AcDbSymbolTableRecord
100
AcDbBlockTableRecord
  2
Dimension95
340
0
102
{BLKREFS
331
28B
102
}
  0
BLOCK_RECORD
  5
28C
330
1
100
AcDbSymbolTableRecord
100
AcDbBlockTableRecord
  2
Dimension96
340
0
102
{BLKREFS
331
28F
102
}
  0
BLOCK_RECORD
  5
290
330
1
100
AcDbSymbolTableRecord
100
AcDbBlockTableRecord
  2
Dimension97
340
0
102
{BLKREFS
331
293
102
}
  0
BLOCK_RECORD
  5
294
330
1
100
AcDbSymbolTableRecord
100
AcDbBlockTableRecord
  2
Dimension98
340
0
102
{BLKREFS
331
297
102
}
  0
BLOCK_RECORD
  5
298
330
1
100
AcDbSymbolTableRecord
100
AcDbBlockTableRecord
  2
Dimension99
340
0
102
{BLKREFS
331
29B
102
}
  0
BLOCK_RECORD
  5
29C
330
1
100
AcDbSymbolTableRecord
100
AcDbBlockTableRecord
  2
Dimension100
340
0
102
{BLKREFS
331
29F
102
}
  0
BLOCK_RECORD
  5
2A1
330
1
100
AcDbSymbolTableRecord
100
AcDbBlockTableRecord
  2
Dimension101
340
0
102
{BLKREFS
331
2A4
102
}
  0
BLOCK_RECORD
  5
2A5
330
1
100
AcDbSymbolTableRecord
100
AcDbBlockTableRecord
  2
Dimension102
340
0
102
{BLKREFS
331
2A8
102
}
  0
BLOCK_RECORD
  5
2A9
330
1
100
AcDbSymbolTableRecord
100
AcDbBlockTableRecord
  2
Dimension103
340
0
102
{BLKREFS
331
2AC
102
}
  0
BLOCK_RECORD
  5
2AD
330
1
100
AcDbSymbolTableRecord
100
AcDbBlockTableRecord
  2
Dimension104
340
0
102
{BLKREFS
331
2B0
102
}
  0
BLOCK_RECORD
  5
2B1
330
1
100
AcDbSymbolTableRecord
100
AcDbBlockTableRecord
  2
Dimension105
340
0
102
{BLKREFS
331
2B4
102
}
  0
BLOCK_RECORD
  5
2B5
330
1
100
AcDbSymbolTableRecord
100
AcDbBlockTableRecord
  2
Dimension106
340
0
102
{BLKREFS
331
2B8
102
}
  0
BLOCK_RECORD
  5
2B9
330
1
100
AcDbSymbolTableRecord
100
AcDbBlockTableRecord
  2
Dimension107
340
0
102
{BLKREFS
331
2BC
102
}
  0
BLOCK_RECORD
  5
2BD
330
1
100
AcDbSymbolTableRecord
100
AcDbBlockTableRecord
  2
Dimension108
340
0
102
{BLKREFS
331
2C0
102
}
  0
BLOCK_RECORD
  5
2C1
330
1
100
AcDbSymbolTableRecord
100
AcDbBlockTableRecord
  2
Dimension109
340
0
102
{BLKREFS
331
2C4
102
}
  0
BLOCK_RECORD
  5
2C5
330
1
100
AcDbSymbolTableRecord
100
AcDbBlockTableRecord
  2
Dimension110
340
0
102
{BLKREFS
331
2C8
102
}
  0
BLOCK_RECORD
  5
2C9
330
1
100
AcDbSymbolTableRecord
100
AcDbBlockTableRecord
  2
Dimension111
340
0
102
{BLKREFS
331
2CC
102
}
  0
BLOCK_RECORD
  5
2CD
330
1
100
AcDbSymbolTableRecord
100
AcDbBlockTableRecord
  2
Dimension112
340
0
102
{BLKREFS
331
2D0
102
}
  0
BLOCK_RECORD
  5
2D1
330
1
100
AcDbSymbolTableRecord
100
AcDbBlockTableRecord
  2
Dimension113
340
0
102
{BLKREFS
331
2D4
102
}
  0
BLOCK_RECORD
  5
2D5
330
1
100
AcDbSymbolTableRecord
100
AcDbBlockTableRecord
  2
Dimension114
340
0
102
{BLKREFS
331
2D8
102
}
  0
BLOCK_RECORD
  5
2D9
330
1
100
AcDbSymbolTableRecord
100
AcDbBlockTableRecord
  2
Dimension115
340
0
102
{BLKREFS
331
2DC
102
}
  0
BLOCK_RECORD
  5
2DD
330
1
100
AcDbSymbolTableRecord
100
AcDbBlockTableRecord
  2
Dimension116
340
0
102
{BLKREFS
331
2E0
102
}
  0
BLOCK_RECORD
  5
2E1
330
1
100
AcDbSymbolTableRecord
100
AcDbBlockTableRecord
  2
Dimension117
340
0
102
{BLKREFS
331
2E4
102
}
  0
BLOCK_RECORD
  5
2E5
330
1
100
AcDbSymbolTableRecord
100
AcDbBlockTableRecord
  2
Dimension118
340
0
102
{BLKREFS
331
2E8
102
}
  0
BLOCK_RECORD
  5
2E9
330
1
100
AcDbSymbolTableRecord
100
AcDbBlockTableRecord
  2
Dimension119
340
0
102
{BLKREFS
331
2EC
102
}
  0
BLOCK_RECORD
  5
2ED
330
1
100
AcDbSymbolTableRecord
100
AcDbBlockTableRecord
  2
Dimension120
340
0
102
{BLKREFS
331
2F0
102
}
  0
BLOCK_RECORD
  5
2F1
330
1
100
AcDbSymbolTableRecord
100
AcDbBlockTableRecord
  2
Dimension121
340
0
102
{BLKREFS
331
2F4
102
}
  0
BLOCK_RECORD
  5
2F6
330
1
100
AcDbSymbolTableRecord
100
AcDbBlockTableRecord
  2
Dimension122
340
0
102
{BLKREFS
331
2F9
102
}
  0
BLOCK_RECORD
  5
2FA
330
1
100
AcDbSymbolTableRecord
100
AcDbBlockTableRecord
  2
Dimension123
340
0
102
{BLKREFS
331
2FD
102
}
  0
BLOCK_RECORD
  5
2FE
330
1
100
AcDbSymbolTableRecord
100
AcDbBlockTableRecord
  2
Dimension124
340
0
102
{BLKREFS
331
301
102
}
  0
BLOCK_RECORD
  5
302
330
1
100
AcDbSymbolTableRecord
100
AcDbBlockTableRecord
  2
Dimension125
340
0
102
{BLKREFS
331
305
102
}
  0
BLOCK_RECORD
  5
306
330
1
100
AcDbSymbolTableRecord
100
AcDbBlockTableRecord
  2
Dimension126
340
0
102
{BLKREFS
331
309
102
}
  0
BLOCK_RECORD
  5
30A
330
1
100
AcDbSymbolTableRecord
100
AcDbBlockTableRecord
  2
Dimension127
340
0
102
{BLKREFS
331
30D
102
}
  0
BLOCK_RECORD
  5
30E
330
1
100
AcDbSymbolTableRecord
100
AcDbBlockTableRecord
  2
Dimension128
340
0
102
{BLKREFS
331
311
102
}
  0
BLOCK_RECORD
  5
312
330
1
100
AcDbSymbolTableRecord
100
AcDbBlockTableRecord
  2
Dimension129
340
0
102
{BLKREFS
331
315
102
}
  0
BLOCK_RECORD
  5
316
330
1
100
AcDbSymbolTableRecord
100
AcDbBlockTableRecord
  2
Dimension130
340
0
102
{BLKREFS
331
319
102
}
  0
BLOCK_RECORD
  5
31A
330
1
100
AcDbSymbolTableRecord
100
AcDbBlockTableRecord
  2
Dimension131
340
0
102
{BLKREFS
331
31D
102
}
  0
BLOCK_RECORD
  5
31E
330
1
100
AcDbSymbolTableRecord
100
AcDbBlockTableRecord
  2
Dimension132
340
0
102
{BLKREFS
331
321
102
}
  0
BLOCK_RECORD
  5
322
330
1
100
AcDbSymbolTableRecord
100
AcDbBlockTableRecord
  2
Dimension133
340
0
102
{BLKREFS
331
325
102
}
  0
BLOCK_RECORD
  5
326
330
1
100
AcDbSymbolTableRecord
100
AcDbBlockTableRecord
  2
Dimension134
340
0
102
{BLKREFS
331
329
102
}
  0
ENDTAB
  0
ENDSEC
  0
SECTION
  2
BLOCKS
  0
BLOCK
  5
20
330
1F
100
AcDbEntity
  8
0
100
AcDbBlockBegin
  2
*Model_Space
 70
     0
 10
0.0
 20
0.0
 30
0.0
  3
*Model_Space
  1

  0
ENDBLK
  5
21
330
1F
100
AcDbEntity
  8
0
100
AcDbBlockEnd
  0
BLOCK
  5
1C
330
1B
100
AcDbEntity
 67
     1
  8
0
100
AcDbBlockBegin
  2
*Paper_Space
 70
     0
 10
0.0
 20
0.0
 30
0.0
  3
*Paper_Space
  1

  0
ENDBLK
  5
1D
330
1B
100
AcDbEntity
 67
     1
  8
0
100
AcDbBlockEnd
  0
BLOCK
  5
24
330
23
100
AcDbEntity
  8
0
100
AcDbBlockBegin
  2
*Paper_Space0
 70
     0
 10
0.0
 20
0.0
 30
0.0
  3
*Paper_Space0
  1

  0
ENDBLK
  5
25
330
23
100
AcDbEntity
  8
0
100
AcDbBlockEnd
  0
BLOCK
  5
41
330
40
100
AcDbEntity
  8
0
100
AcDbBlockBegin
  2
Dimension1
 70
     0
 10
0.0
 20
0.0
 30
0.0
  3
Dimension1
  1

  0
ENDBLK
  5
42
330
40
100
AcDbEntity
  8
0
100
AcDbBlockEnd
  0
BLOCK
  5
45
330
44
100
AcDbEntity
  8
0
100
AcDbBlockBegin
  2
Dimension2
 70
     0
 10
0.0
 20
0.0
 30
0.0
  3
Dimension2
  1

  0
ENDBLK
  5
46
330
44
100
AcDbEntity
  8
0
100
AcDbBlockEnd
  0
BLOCK
  5
49
330
48
100
AcDbEntity
  8
0
100
AcDbBlockBegin
  2
Dimension3
 70
     0
 10
0.0
 20
0.0
 30
0.0
  3
Dimension3
  1

  0
ENDBLK
  5
4A
330
48
100
AcDbEntity
  8
0
100
AcDbBlockEnd
  0
BLOCK
  5
4D
330
4C
100
AcDbEntity
  8
0
100
AcDbBlockBegin
  2
Dimension4
 70
     0
 10
0.0
 20
0.0
 30
0.0
  3
Dimension4
  1

  0
ENDBLK
  5
4E
330
4C
100
AcDbEntity
  8
0
100
AcDbBlockEnd
  0
BLOCK
  5
51
330
50
100
AcDbEntity
  8
0
100
AcDbBlockBegin
  2
Dimension5
 70
     0
 10
0.0
 20
0.0
 30
0.0
  3
Dimension5
  1

  0
ENDBLK
  5
52
330
50
100
AcDbEntity
  8
0
100
AcDbBlockEnd
  0
BLOCK
  5
55
330
54
100
AcDbEntity
  8
0
100
AcDbBlockBegin
  2
Dimension6
 70
     0
 10
0.0
 20
0.0
 30
0.0
  3
Dimension6
  1

  0
ENDBLK
  5
56
330
54
100
AcDbEntity
  8
0
100
AcDbBlockEnd
  0
BLOCK
  5
59
330
58
100
AcDbEntity
  8
0
100
AcDbBlockBegin
  2
Dimension7
 70
     0
 10
0.0
 20
0.0
 30
0.0
  3
Dimension7
  1

  0
ENDBLK
  5
5A
330
58
100
AcDbEntity
  8
0
100
AcDbBlockEnd
  0
BLOCK
  5
5D
330
5C
100
AcDbEntity
  8
0
100
AcDbBlockBegin
  2
Dimension8
 70
     0
 10
0.0
 20
0.0
 30
0.0
  3
Dimension8
  1

  0
ENDBLK
  5
5E
330
5C
100
AcDbEntity
  8
0
100
AcDbBlockEnd
  0
BLOCK
  5
61
330
60
100
AcDbEntity
  8
0
100
AcDbBlockBegin
  2
Dimension9
 70
     0
 10
0.0
 20
0.0
 30
0.0
  3
Dimension9
  1

  0
ENDBLK
  5
62
330
60
100
AcDbEntity
  8
0
100
AcDbBlockEnd
  0
BLOCK
  5
65
330
64
100
AcDbEntity
  8
0
100
AcDbBlockBegin
  2
Dimension10
 70
     0
 10
0.0
 20
0.0
 30
0.0
  3
Dimension10
  1

  0
ENDBLK
  5
66
330
64
100
AcDbEntity
  8
0
100
AcDbBlockEnd
  0
BLOCK
  5
6A
330
69
100
AcDbEntity
  8
0
100
AcDbBlockBegin
  2
Dimension11
 70
     0
 10
0.0
 20
0.0
 30
0.0
  3
Dimension11
  1

  0
ENDBLK
  5
6B
330
69
100
AcDbEntity
  8
0
100
AcDbBlockEnd
  0
BLOCK
  5
6E
330
6D
100
AcDbEntity
  8
0
100
AcDbBlockBegin
  2
Dimension12
 70
     0
 10
0.0
 20
0.0
 30
0.0
  3
Dimension12
  1

  0
ENDBLK
  5
6F
330
6D
100
AcDbEntity
  8
0
100
AcDbBlockEnd
  0
BLOCK
  5
72
330
71
100
AcDbEntity
  8
0
100
AcDbBlockBegin
  2
Dimension13
 70
     0
 10
0.0
 20
0.0
 30
0.0
  3
Dimension13
  1

  0
ENDBLK
  5
73
330
71
100
AcDbEntity
  8
0
100
AcDbBlockEnd
  0
BLOCK
  5
76
330
75
100
AcDbEntity
  8
0
100
AcDbBlockBegin
  2
Dimension14
 70
     0
 10
0.0
 20
0.0
 30
0.0
  3
Dimension14
  1

  0
ENDBLK
  5
77
330
75
100
AcDbEntity
  8
0
100
AcDbBlockEnd
  0
BLOCK
  5
7A
330
79
100
AcDbEntity
  8
0
100
AcDbBlockBegin
  2
Dimension15
 70
     0
 10
0.0
 20
0.0
 30
0.0
  3
Dimension15
  1

  0
ENDBLK
  5
7B
330
79
100
AcDbEntity
  8
0
100
AcDbBlockEnd
  0
BLOCK
  5
7E
330
7D
100
AcDbEntity
  8
0
100
AcDbBlockBegin
  2
Dimension16
 70
     0
 10
0.0
 20
0.0
 30
0.0
  3
Dimension16
  1

  0
ENDBLK
  5
7F
330
7D
100
AcDbEntity
  8
0
100
AcDbBlockEnd
  0
BLOCK
  5
82
330
81
100
AcDbEntity
  8
0
100
AcDbBlockBegin
  2
Dimension17
 70
     0
 10
0.0
 20
0.0
 30
0.0
  3
Dimension17
  1

  0
ENDBLK
  5
83
330
81
100
AcDbEntity
  8
0
100
AcDbBlockEnd
  0
BLOCK
  5
86
330
85
100
AcDbEntity
  8
0
100
AcDbBlockBegin
  2
Dimension18
 70
     0
 10
0.0
 20
0.0
 30
0.0
  3
Dimension18
  1

  0
ENDBLK
  5
87
330
85
100
AcDbEntity
  8
0
100
AcDbBlockEnd
  0
BLOCK
  5
8A
330
89
100
AcDbEntity
  8
0
100
AcDbBlockBegin
  2
Dimension19
 70
     0
 10
0.0
 20
0.0
 30
0.0
  3
Dimension19
  1

  0
ENDBLK
  5
8B
330
89
100
AcDbEntity
  8
0
100
AcDbBlockEnd
  0
BLOCK
  5
8E
330
8D
100
AcDbEntity
  8
0
100
AcDbBlockBegin
  2
Dimension20
 70
     0
 10
0.0
 20
0.0
 30
0.0
  3
Dimension20
  1

  0
ENDBLK
  5
8F
330
8D
100
AcDbEntity
  8
0
100
AcDbBlockEnd
  0
BLOCK
  5
92
330
91
100
AcDbEntity
  8
0
100
AcDbBlockBegin
  2
Dimension21
 70
     0
 10
0.0
 20
0.0
 30
0.0
  3
Dimension21
  1

  0
ENDBLK
  5
93
330
91
100
AcDbEntity
  8
0
100
AcDbBlockEnd
  0
BLOCK
  5
96
330
95
100
AcDbEntity
  8
0
100
AcDbBlockBegin
  2
Dimension22
 70
     0
 10
0.0
 20
0.0
 30
0.0
  3
Dimension22
  1

  0
ENDBLK
  5
97
330
95
100
AcDbEntity
  8
0
100
AcDbBlockEnd
  0
BLOCK
  5
9A
330
99
100
AcDbEntity
  8
0
100
AcDbBlockBegin
  2
Dimension23
 70
     0
 10
0.0
 20
0.0
 30
0.0
  3
Dimension23
  1

  0
ENDBLK
  5
9B
330
99
100
AcDbEntity
  8
0
100
AcDbBlockEnd
  0
BLOCK
  5
A0
330
9F
100
AcDbEntity
  8
0
100
AcDbBlockBegin
  2
Dimension24
 70
     0
 10
0.0
 20
0.0
 30
0.0
  3
Dimension24
  1

  0
ENDBLK
  5
A1
330
9F
100
AcDbEntity
  8
0
100
AcDbBlockEnd
  0
BLOCK
  5
A4
330
A3
100
AcDbEntity
  8
0
100
AcDbBlockBegin
  2
Dimension25
 70
     0
 10
0.0
 20
0.0
 30
0.0
  3
Dimension25
  1

  0
ENDBLK
  5
A5
330
A3
100
AcDbEntity
  8
0
100
AcDbBlockEnd
  0
BLOCK
  5
A8
330
A7
100
AcDbEntity
  8
0
100
AcDbBlockBegin
  2
Dimension26
 70
     0
 10
0.0
 20
0.0
 30
0.0
  3
Dimension26
  1

  0
ENDBLK
  5
A9
330
A7
100
AcDbEntity
  8
0
100
AcDbBlockEnd
  0
BLOCK
  5
AC
330
AB
100
AcDbEntity
  8
0
100
AcDbBlockBegin
  2
Dimension27
 70
     0
 10
0.0
 20
0.0
 30
0.0
  3
Dimension27
  1

  0
ENDBLK
  5
AD
330
AB
100
AcDbEntity
  8
0
100
AcDbBlockEnd
  0
BLOCK
  5
B0
330
AF
100
AcDbEntity
  8
0
100
AcDbBlockBegin
  2
Dimension28
 70
     0
 10
0.0
 20
0.0
 30
0.0
  3
Dimension28
  1

  0
ENDBLK
  5
B1
330
AF
100
AcDbEntity
  8
0
100
AcDbBlockEnd
  0
BLOCK
  5
B4
330
B3
100
AcDbEntity
  8
0
100
AcDbBlockBegin
  2
Dimension29
 70
     0
 10
0.0
 20
0.0
 30
0.0
  3
Dimension29
  1

  0
ENDBLK
  5
B5
330
B3
100
AcDbEntity
  8
0
100
AcDbBlockEnd
  0
BLOCK
  5
B8
330
B7
100
AcDbEntity
  8
0
100
AcDbBlockBegin
  2
Dimension30
 70
     0
 10
0.0
 20
0.0
 30
0.0
  3
Dimension30
  1

  0
ENDBLK
  5
B9
330
B7
100
AcDbEntity
  8
0
100
AcDbBlockEnd
  0
BLOCK
  5
BC
330
BB
100
AcDbEntity
  8
0
100
AcDbBlockBegin
  2
Dimension31
 70
     0
 10
0.0
 20
0.0
 30
0.0
  3
Dimension31
  1

  0
ENDBLK
  5
BD
330
BB
100
AcDbEntity
  8
0
100
AcDbBlockEnd
  0
BLOCK
  5
C0
330
BF
100
AcDbEntity
  8
0
100
AcDbBlockBegin
  2
Dimension32
 70
     0
 10
0.0
 20
0.0
 30
0.0
  3
Dimension32
  1

  0
ENDBLK
  5
C1
330
BF
100
AcDbEntity
  8
0
100
AcDbBlockEnd
  0
BLOCK
  5
C4
330
C3
100
AcDbEntity
  8
0
100
AcDbBlockBegin
  2
Dimension33
 70
     0
 10
0.0
 20
0.0
 30
0.0
  3
Dimension33
  1

  0
ENDBLK
  5
C5
330
C3
100
AcDbEntity
  8
0
100
AcDbBlockEnd
  0
BLOCK
  5
CF
330
CE
100
AcDbEntity
  8
0
100
AcDbBlockBegin
  2
Dimension34
 70
     0
 10
0.0
 20
0.0
 30
0.0
  3
Dimension34
  1

  0
ENDBLK
  5
D0
330
CE
100
AcDbEntity
  8
0
100
AcDbBlockEnd
  0
BLOCK
  5
D3
330
D2
100
AcDbEntity
  8
0
100
AcDbBlockBegin
  2
Dimension35
 70
     0
 10
0.0
 20
0.0
 30
0.0
  3
Dimension35
  1

  0
ENDBLK
  5
D4
330
D2
100
AcDbEntity
  8
0
100
AcDbBlockEnd
  0
BLOCK
  5
D7
330
D6
100
AcDbEntity
  8
0
100
AcDbBlockBegin
  2
Dimension36
 70
     0
 10
0.0
 20
0.0
 30
0.0
  3
Dimension36
  1

  0
ENDBLK
  5
D8
330
D6
100
AcDbEntity
  8
0
100
AcDbBlockEnd
  0
BLOCK
  5
E7
330
DD
100
AcDbEntity
  8
0
100
AcDbBlockBegin
  2
*D37
 70
     1
 10
0.0
 20
0.0
 30
0.0
  3
*D37
  1

  0
LINE
  5
DE
330
DD
100
AcDbEntity
  8
FR-45
  6
Continuous
 62
    18
 48
50.00000038146973
370
    -2
100
AcDbLine
 10
36925.58477249597
 20
5521.121705578231
 30
0.0
 11
36965.58477158998
 21
5521.121705578231
 31
0.0
  0
LINE
  5
DF
330
DD
100
AcDbEntity
  8
FR-45
  6
Continuous
 62
    18
 48
50.00000038146973
370
    -2
100
AcDbLine
 10
36925.58477249597
 20
5672.913342618303
 30
0.0
 11
36965.58477158998
 21
5672.913342618303
 31
0.0
  0
LINE
  5
E0
330
DD
100
AcDbEntity
  8
FR-45
  6
Continuous
 62
    18
 48
50.00000038146973
370
    -2
100
AcDbLine
 10
36945.58477204297
 20
5521.121705578231
 30
0.0
 11
36945.58477204297
 21
5672.913342618303
 31
0.0
  0
LINE
  5
E1
330
DD
100
AcDbEntity
  8
FR-45
  6
Continuous
 62
    18
 48
50.00000038146973
370
    -2
100
AcDbLine
 10
36945.58477204297
 20
5512.121705220603
 30
0.0
 11
36945.58477204297
 21
5503.121704862975
 31
0.0
  0
LINE
  5
E2
330
DD
100
AcDbEntity
  8
FR-45
  6
Continuous
 62
    18
 48
50.00000038146973
370
    -2
100
AcDbLine
 10
36945.58477204297
 20
5681.91334297593
 30
0.0
 11
36945.58477204297
 21
5690.913343333558
 31
0.0
  0
INSERT
  5
E3
330
DD
100
AcDbEntity
  8
FR-45
 62
    18
370
    -2
100
AcDbBlockReference
  2
_OPEN30
 10
36945.58477204297
 20
5521.121705578231
 30
0.0
 41
9.000000357627869
 42
9.000000357627869
 43
9.000000357627869
 50
90.0
  0
INSERT
  5
E4
330
DD
100
AcDbEntity
  8
FR-45
 62
    18
370
    -2
100
AcDbBlockReference
  2
_OPEN30
 10
36945.58477204297
 20
5672.913342618303
 30
0.0
 41
9.000000357627869
 42
9.000000357627869
 43
9.000000357627869
 50
270.0
  0
MTEXT
  5
E5
330
DD
100
AcDbEntity
  8
FR-45
  6
Continuous
 62
    18
370
    25
100
AcDbMText
 10
36913.5847679541
 20
5597.017524098266
 30
0.0
 40
24.0
 41
0.0
 71
     5
 72
     1
  1
151.792
  7
ROMAN
 11
0.0
 21
1.0
 31
0.0
 73
     1
 44
1.0
  0
POINT
  5
E6
330
DD
100
AcDbEntity
  8
Defpoints
 62
     0
100
AcDbPoint
 10
36651.58477204288
 20
5521.121705578231
 30
0.0
  0
POINT
  5
EF
330
DD
100
AcDbEntity
  8
Defpoints
 62
     0
100
AcDbPoint
 10
36651.58477204297
 20
5672.913342618303
 30
0.0
  0
POINT
  5
F0
330
DD
100
AcDbEntity
  8
Defpoints
 62
     0
100
AcDbPoint
 10
36945.58477204297
 20
5672.913342618303
 30
0.0
  0
ENDBLK
  5
E8
330
DD
100
AcDbEntity
  8
0
100
AcDbBlockEnd
  0
BLOCK
  5
EA
330
E9
100
AcDbEntity
  8
0
100
AcDbBlockBegin
  2
_OPEN30
 70
     0
 10
0.0
 20
0.0
 30
0.0
  3
_OPEN30
  1

  0
LINE
  5
EC
330
E9
100
AcDbEntity
  8
0
  6
ByBlock
 62
     0
370
    -2
100
AcDbLine
 10
-1.0
 20
0.267949
 30
0.0
 11
0.0
 21
0.0
 31
0.0
  0
LINE
  5
ED
330
E9
100
AcDbEntity
  8
0
  6
ByBlock
 62
     0
370
    -2
100
AcDbLine
 10
0.0
 20
0.0
 30
0.0
 11
-1.0
 21
-0.267949
 31
0.0
  0
LINE
  5
EE
330
E9
100
AcDbEntity
  8
0
  6
ByBlock
 62
     0
370
    -2
100
AcDbLine
 10
0.0
 20
0.0
 30
0.0
 11
-1.0
 21
0.0
 31
0.0
  0
ENDBLK
  5
EB
330
E9
100
AcDbEntity
  8
0
100
AcDbBlockEnd
  0
BLOCK
  5
FD
330
F3
100
AcDbEntity
  8
0
100
AcDbBlockBegin
  2
*D39
 70
     1
 10
0.0
 20
0.0
 30
0.0
  3
*D39
  1

  0
LINE
  5
F4
330
F3
100
AcDbEntity
  8
FR-45
  6
Continuous
 62
    18
 48
50.00000038146973
370
    -2
100
AcDbLine
 10
36429.58477795575
 20
5833.913342165351
 30
0.0
 11
36429.58477795575
 21
5793.913343071343
 31
0.0
  0
LINE
  5
F5
330
F3
100
AcDbEntity
  8
FR-45
  6
Continuous
 62
    18
 48
50.00000038146973
370
    -2
100
AcDbLine
 10
36875.58477795576
 20
5813.913342618347
 30
0.0
 11
36875.58477795576
 21
5793.913343071343
 31
0.0
  0
LINE
  5
F6
330
F3
100
AcDbEntity
  8
FR-45
  6
Continuous
 62
    18
 48
50.00000038146973
370
    -2
100
AcDbLine
 10
36444.5847785518
 20
5813.913342618347
 30
0.0
 11
36860.58477735971
 21
5813.913342618347
 31
0.0
  0
INSERT
  5
F7
330
F3
100
AcDbEntity
  8
FR-45
 62
    18
370
    -2
100
AcDbBlockReference
  2
_OPEN30
 10
36429.58477795575
 20
5813.913342618347
 30
0.0
 41
15.00000059604645
 42
15.00000059604645
 43
15.00000059604645
 50
180.0
  0
INSERT
  5
F8
330
F3
100
AcDbEntity
  8
FR-45
 62
    18
370
    -2
100
AcDbBlockReference
  2
_OPEN30
 10
36875.58477795576
 20
5813.913342618347
 30
0.0
 41
15.00000059604645
 42
15.00000059604645
 43
15.00000059604645
  0
MTEXT
  5
F9
330
F3
100
AcDbEntity
  8
FR-45
  6
Continuous
 62
     0
370
    25
100
AcDbMText
 10
36652.58477795575
 20
5854.333346707226
 30
0.0
 40
40.0
 41
0.0
 71
     5
 72
     1
  1
446
  7
ARIAL
 73
     1
 44
1.0
  0
POINT
  5
FA
330
F3
100
AcDbEntity
  8
Defpoints
 62
     0
100
AcDbPoint
 10
36429.58477795575
 20
6110.913326024414
 30
0.0
  0
POINT
  5
FB
330
F3
100
AcDbEntity
  8
Defpoints
 62
     0
100
AcDbPoint
 10
36875.58477795576
 20
5813.913342618347
 30
0.0
  0
POINT
  5
FC
330
F3
100
AcDbEntity
  8
Defpoints
 62
     0
100
AcDbPoint
 10
36875.58477795576
 20
5813.913342618347
 30
0.0
  0
ENDBLK
  5
FE
330
F3
100
AcDbEntity
  8
0
100
AcDbBlockEnd
  0
BLOCK
  5
10A
330
100
100
AcDbEntity
  8
0
100
AcDbBlockBegin
  2
*D40
 70
     1
 10
0.0
 20
0.0
 30
0.0
  3
*D40
  1

  0
LINE
  5
101
330
100
100
AcDbEntity
  8
FR-45
  6
Continuous
 62
    18
 48
50.00000038146973
370
    -2
100
AcDbLine
 10
36416.58477204297
 20
5739.913343071343
 30
0.0
 11
36416.58477204297
 21
5779.913342165351
 31
0.0
  0
LINE
  5
102
330
100
100
AcDbEntity
  8
FR-45
  6
Continuous
 62
    18
 48
50.00000038146973
370
    -2
100
AcDbLine
 10
36888.58477204297
 20
5759.913342618347
 30
0.0
 11
36888.58477204297
 21
5779.913342165351
 31
0.0
  0
LINE
  5
103
330
100
100
AcDbEntity
  8
FR-45
  6
Continuous
 62
    18
 48
50.00000038146973
370
    -2
100
AcDbLine
 10
36425.5847724006
 20
5759.913342618347
 30
0.0
 11
36879.58477168535
 21
5759.913342618347
 31
0.0
  0
INSERT
  5
104
330
100
100
AcDbEntity
  8
FR-45
 62
    18
370
    -2
100
AcDbBlockReference
  2
_OPEN30
 10
36416.58477204297
 20
5759.913342618347
 30
0.0
 41
9.000000357627869
 42
9.000000357627869
 43
9.000000357627869
 50
180.0
  0
INSERT
  5
105
330
100
100
AcDbEntity
  8
FR-45
 62
    18
370
    -2
100
AcDbBlockReference
  2
_OPEN30
 10
36888.58477204297
 20
5759.913342618347
 30
0.0
 41
9.000000357627869
 42
9.000000357627869
 43
9.000000357627869
  0
MTEXT
  5
106
330
100
100
AcDbEntity
  8
FR-45
  6
Continuous
 62
    18
370
    25
100
AcDbMText
 10
36652.58477204297
 20
5791.913346707226
 30
0.0
 40
24.0
 41
0.0
 71
     5
 72
     1
  1
472
  7
ROMAN
 73
     1
 44
1.0
  0
POINT
  5
107
330
100
100
AcDbEntity
  8
Defpoints
 62
     0
100
AcDbPoint
 10
36416.58477204297
 20
5672.913342618348
 30
0.0
  0
POINT
  5
108
330
100
100
AcDbEntity
  8
Defpoints
 62
     0
100
AcDbPoint
 10
36888.58477204297
 20
5759.913342618347
 30
0.0
  0
POINT
  5
109
330
100
100
AcDbEntity
  8
Defpoints
 62
     0
100
AcDbPoint
 10
36888.58477204297
 20
5759.913342618347
 30
0.0
  0
ENDBLK
  5
10B
330
100
100
AcDbEntity
  8
0
100
AcDbBlockEnd
  0
BLOCK
  5
10D
330
10C
100
AcDbEntity
  8
0
100
AcDbBlockBegin
  2
Dimension37
 70
     0
 10
0.0
 20
0.0
 30
0.0
  3
Dimension37
  1

  0
ENDBLK
  5
10E
330
10C
100
AcDbEntity
  8
0
100
AcDbBlockEnd
  0
BLOCK
  5
142
330
138
100
AcDbEntity
  8
0
100
AcDbBlockBegin
  2
*D42
 70
     1
 10
0.0
 20
0.0
 30
0.0
  3
*D42
  1

  0
LINE
  5
139
330
138
100
AcDbEntity
  8
FR-45
  6
Continuous
 62
    18
 48
50.00000038146973
370
    -2
100
AcDbLine
 10
37092.46772912024
 20
6387.913519406963
 30
0.0
 11
37092.46772912024
 21
6427.913518500972
 31
0.0
  0
LINE
  5
13A
330
138
100
AcDbEntity
  8
FR-45
  6
Continuous
 62
    18
 48
50.00000038146973
370
    -2
100
AcDbLine
 10
37227.48946809625
 20
6387.913519406963
 30
0.0
 11
37227.48946809625
 21
6427.913518500972
 31
0.0
  0
LINE
  5
13B
330
138
100
AcDbEntity
  8
FR-45
  6
Continuous
 62
    18
 48
50.00000038146973
370
    -2
100
AcDbLine
 10
37092.46772912024
 20
6407.913518953967
 30
0.0
 11
37227.48946809625
 21
6407.913518953967
 31
0.0
  0
LINE
  5
13C
330
138
100
AcDbEntity
  8
FR-45
  6
Continuous
 62
    18
 48
50.00000038146973
370
    -2
100
AcDbLine
 10
37077.46772852419
 20
6407.913518953967
 30
0.0
 11
37062.46772792815
 21
6407.913518953967
 31
0.0
  0
LINE
  5
13D
330
138
100
AcDbEntity
  8
FR-45
  6
Continuous
 62
    18
 48
50.00000038146973
370
    -2
100
AcDbLine
 10
37242.4894686923
 20
6407.913518953967
 30
0.0
 11
37257.48946928835
 21
6407.913518953967
 31
0.0
  0
INSERT
  5
13E
330
138
100
AcDbEntity
  8
FR-45
 62
    18
370
    -2
100
AcDbBlockReference
  2
_OPEN30
 10
37092.46772912024
 20
6407.913518953967
 30
0.0
 41
15.00000059604645
 42
15.00000059604645
 43
15.00000059604645
  0
INSERT
  5
13F
330
138
100
AcDbEntity
  8
FR-45
 62
    18
370
    -2
100
AcDbBlockReference
  2
_OPEN30
 10
37227.48946809625
 20
6407.913518953967
 30
0.0
 41
15.00000059604645
 42
15.00000059604645
 43
15.00000059604645
 50
180.0
  0
MTEXT
  5
140
330
138
100
AcDbEntity
  8
FR-45
  6
Continuous
 62
     0
370
    25
100
AcDbMText
 10
37159.97859860824
 20
6448.333523042847
 30
0.0
 40
40.0
 41
0.0
 71
     5
 72
     1
  1
135.022
  7
ARIAL
 73
     1
 44
1.0
  0
POINT
  5
141
330
138
100
AcDbEntity
  8
Defpoints
 62
     0
100
AcDbPoint
 10
37092.46772912024
 20
6348.913518953951
 30
0.0
  0
POINT
  5
144
330
138
100
AcDbEntity
  8
Defpoints
 62
     0
100
AcDbPoint
 10
37227.48946809625
 20
6113.913518953935
 30
0.0
  0
POINT
  5
145
330
138
100
AcDbEntity
  8
Defpoints
 62
     0
100
AcDbPoint
 10
37227.48946809625
 20
6407.913518953967
 30
0.0
  0
ENDBLK
  5
143
330
138
100
AcDbEntity
  8
0
100
AcDbBlockEnd
  0
BLOCK
  5
147
330
146
100
AcDbEntity
  8
0
100
AcDbBlockBegin
  2
Dimension38
 70
     0
 10
0.0
 20
0.0
 30
0.0
  3
Dimension38
  1

  0
ENDBLK
  5
148
330
146
100
AcDbEntity
  8
0
100
AcDbBlockEnd
  0
BLOCK
  5
14B
330
14A
100
AcDbEntity
  8
0
100
AcDbBlockBegin
  2
Dimension39
 70
     0
 10
0.0
 20
0.0
 30
0.0
  3
Dimension39
  1

  0
ENDBLK
  5
14C
330
14A
100
AcDbEntity
  8
0
100
AcDbBlockEnd
  0
BLOCK
  5
1AB
330
1AA
100
AcDbEntity
  8
0
100
AcDbBlockBegin
  2
Dimension40
 70
     0
 10
0.0
 20
0.0
 30
0.0
  3
Dimension40
  1

  0
ENDBLK
  5
1AC
330
1AA
100
AcDbEntity
  8
0
100
AcDbBlockEnd
  0
BLOCK
  5
1AF
330
1AE
100
AcDbEntity
  8
0
100
AcDbBlockBegin
  2
Dimension41
 70
     0
 10
0.0
 20
0.0
 30
0.0
  3
Dimension41
  1

  0
ENDBLK
  5
1B0
330
1AE
100
AcDbEntity
  8
0
100
AcDbBlockEnd
  0
BLOCK
  5
1B3
330
1B2
100
AcDbEntity
  8
0
100
AcDbBlockBegin
  2
Dimension42
 70
     0
 10
0.0
 20
0.0
 30
0.0
  3
Dimension42
  1

  0
ENDBLK
  5
1B4
330
1B2
100
AcDbEntity
  8
0
100
AcDbBlockEnd
  0
BLOCK
  5
1B7
330
1B6
100
AcDbEntity
  8
0
100
AcDbBlockBegin
  2
Dimension43
 70
     0
 10
0.0
 20
0.0
 30
0.0
  3
Dimension43
  1

  0
ENDBLK
  5
1B8
330
1B6
100
AcDbEntity
  8
0
100
AcDbBlockEnd
  0
BLOCK
  5
1BB
330
1BA
100
AcDbEntity
  8
0
100
AcDbBlockBegin
  2
Dimension44
 70
     0
 10
0.0
 20
0.0
 30
0.0
  3
Dimension44
  1

  0
ENDBLK
  5
1BC
330
1BA
100
AcDbEntity
  8
0
100
AcDbBlockEnd
  0
BLOCK
  5
1BF
330
1BE
100
AcDbEntity
  8
0
100
AcDbBlockBegin
  2
Dimension45
 70
     0
 10
0.0
 20
0.0
 30
0.0
  3
Dimension45
  1

  0
ENDBLK
  5
1C0
330
1BE
100
AcDbEntity
  8
0
100
AcDbBlockEnd
  0
BLOCK
  5
1C3
330
1C2
100
AcDbEntity
  8
0
100
AcDbBlockBegin
  2
Dimension46
 70
     0
 10
0.0
 20
0.0
 30
0.0
  3
Dimension46
  1

  0
ENDBLK
  5
1C4
330
1C2
100
AcDbEntity
  8
0
100
AcDbBlockEnd
  0
BLOCK
  5
1C7
330
1C6
100
AcDbEntity
  8
0
100
AcDbBlockBegin
  2
Dimension47
 70
     0
 10
0.0
 20
0.0
 30
0.0
  3
Dimension47
  1

  0
ENDBLK
  5
1C8
330
1C6
100
AcDbEntity
  8
0
100
AcDbBlockEnd
  0
BLOCK
  5
1CB
330
1CA
100
AcDbEntity
  8
0
100
AcDbBlockBegin
  2
Dimension48
 70
     0
 10
0.0
 20
0.0
 30
0.0
  3
Dimension48
  1

  0
ENDBLK
  5
1CC
330
1CA
100
AcDbEntity
  8
0
100
AcDbBlockEnd
  0
BLOCK
  5
1CF
330
1CE
100
AcDbEntity
  8
0
100
AcDbBlockBegin
  2
Dimension49
 70
     0
 10
0.0
 20
0.0
 30
0.0
  3
Dimension49
  1

  0
ENDBLK
  5
1D0
330
1CE
100
AcDbEntity
  8
0
100
AcDbBlockEnd
  0
BLOCK
  5
1D3
330
1D2
100
AcDbEntity
  8
0
100
AcDbBlockBegin
  2
Dimension50
 70
     0
 10
0.0
 20
0.0
 30
0.0
  3
Dimension50
  1

  0
ENDBLK
  5
1D4
330
1D2
100
AcDbEntity
  8
0
100
AcDbBlockEnd
  0
BLOCK
  5
1D7
330
1D6
100
AcDbEntity
  8
0
100
AcDbBlockBegin
  2
Dimension51
 70
     0
 10
0.0
 20
0.0
 30
0.0
  3
Dimension51
  1

  0
ENDBLK
  5
1D8
330
1D6
100
AcDbEntity
  8
0
100
AcDbBlockEnd
  0
BLOCK
  5
1DB
330
1DA
100
AcDbEntity
  8
0
100
AcDbBlockBegin
  2
Dimension52
 70
     0
 10
0.0
 20
0.0
 30
0.0
  3
Dimension52
  1

  0
ENDBLK
  5
1DC
330
1DA
100
AcDbEntity
  8
0
100
AcDbBlockEnd
  0
BLOCK
  5
1DF
330
1DE
100
AcDbEntity
  8
0
100
AcDbBlockBegin
  2
Dimension53
 70
     0
 10
0.0
 20
0.0
 30
0.0
  3
Dimension53
  1

  0
ENDBLK
  5
1E0
330
1DE
100
AcDbEntity
  8
0
100
AcDbBlockEnd
  0
BLOCK
  5
1E3
330
1E2
100
AcDbEntity
  8
0
100
AcDbBlockBegin
  2
Dimension54
 70
     0
 10
0.0
 20
0.0
 30
0.0
  3
Dimension54
  1

  0
ENDBLK
  5
1E4
330
1E2
100
AcDbEntity
  8
0
100
AcDbBlockEnd
  0
BLOCK
  5
1E8
330
1E7
100
AcDbEntity
  8
0
100
AcDbBlockBegin
  2
Dimension55
 70
     0
 10
0.0
 20
0.0
 30
0.0
  3
Dimension55
  1

  0
ENDBLK
  5
1E9
330
1E7
100
AcDbEntity
  8
0
100
AcDbBlockEnd
  0
BLOCK
  5
1EC
330
1EB
100
AcDbEntity
  8
0
100
AcDbBlockBegin
  2
Dimension56
 70
     0
 10
0.0
 20
0.0
 30
0.0
  3
Dimension56
  1

  0
ENDBLK
  5
1ED
330
1EB
100
AcDbEntity
  8
0
100
AcDbBlockEnd
  0
BLOCK
  5
1F0
330
1EF
100
AcDbEntity
  8
0
100
AcDbBlockBegin
  2
Dimension57
 70
     0
 10
0.0
 20
0.0
 30
0.0
  3
Dimension57
  1

  0
ENDBLK
  5
1F1
330
1EF
100
AcDbEntity
  8
0
100
AcDbBlockEnd
  0
BLOCK
  5
1F4
330
1F3
100
AcDbEntity
  8
0
100
AcDbBlockBegin
  2
Dimension58
 70
     0
 10
0.0
 20
0.0
 30
0.0
  3
Dimension58
  1

  0
ENDBLK
  5
1F5
330
1F3
100
AcDbEntity
  8
0
100
AcDbBlockEnd
  0
BLOCK
  5
1F8
330
1F7
100
AcDbEntity
  8
0
100
AcDbBlockBegin
  2
Dimension59
 70
     0
 10
0.0
 20
0.0
 30
0.0
  3
Dimension59
  1

  0
ENDBLK
  5
1F9
330
1F7
100
AcDbEntity
  8
0
100
AcDbBlockEnd
  0
BLOCK
  5
1FC
330
1FB
100
AcDbEntity
  8
0
100
AcDbBlockBegin
  2
Dimension60
 70
     0
 10
0.0
 20
0.0
 30
0.0
  3
Dimension60
  1

  0
ENDBLK
  5
1FD
330
1FB
100
AcDbEntity
  8
0
100
AcDbBlockEnd
  0
BLOCK
  5
200
330
1FF
100
AcDbEntity
  8
0
100
AcDbBlockBegin
  2
Dimension61
 70
     0
 10
0.0
 20
0.0
 30
0.0
  3
Dimension61
  1

  0
ENDBLK
  5
201
330
1FF
100
AcDbEntity
  8
0
100
AcDbBlockEnd
  0
BLOCK
  5
204
330
203
100
AcDbEntity
  8
0
100
AcDbBlockBegin
  2
Dimension62
 70
     0
 10
0.0
 20
0.0
 30
0.0
  3
Dimension62
  1

  0
ENDBLK
  5
205
330
203
100
AcDbEntity
  8
0
100
AcDbBlockEnd
  0
BLOCK
  5
208
330
207
100
AcDbEntity
  8
0
100
AcDbBlockBegin
  2
Dimension63
 70
     0
 10
0.0
 20
0.0
 30
0.0
  3
Dimension63
  1

  0
ENDBLK
  5
209
330
207
100
AcDbEntity
  8
0
100
AcDbBlockEnd
  0
BLOCK
  5
20C
330
20B
100
AcDbEntity
  8
0
100
AcDbBlockBegin
  2
Dimension64
 70
     0
 10
0.0
 20
0.0
 30
0.0
  3
Dimension64
  1

  0
ENDBLK
  5
20D
330
20B
100
AcDbEntity
  8
0
100
AcDbBlockEnd
  0
BLOCK
  5
210
330
20F
100
AcDbEntity
  8
0
100
AcDbBlockBegin
  2
Dimension65
 70
     0
 10
0.0
 20
0.0
 30
0.0
  3
Dimension65
  1

  0
ENDBLK
  5
211
330
20F
100
AcDbEntity
  8
0
100
AcDbBlockEnd
  0
BLOCK
  5
214
330
213
100
AcDbEntity
  8
0
100
AcDbBlockBegin
  2
Dimension66
 70
     0
 10
0.0
 20
0.0
 30
0.0
  3
Dimension66
  1

  0
ENDBLK
  5
215
330
213
100
AcDbEntity
  8
0
100
AcDbBlockEnd
  0
BLOCK
  5
218
330
217
100
AcDbEntity
  8
0
100
AcDbBlockBegin
  2
Dimension67
 70
     0
 10
0.0
 20
0.0
 30
0.0
  3
Dimension67
  1

  0
ENDBLK
  5
219
330
217
100
AcDbEntity
  8
0
100
AcDbBlockEnd
  0
BLOCK
  5
21C
330
21B
100
AcDbEntity
  8
0
100
AcDbBlockBegin
  2
Dimension68
 70
     0
 10
0.0
 20
0.0
 30
0.0
  3
Dimension68
  1

  0
ENDBLK
  5
21D
330
21B
100
AcDbEntity
  8
0
100
AcDbBlockEnd
  0
BLOCK
  5
220
330
21F
100
AcDbEntity
  8
0
100
AcDbBlockBegin
  2
Dimension69
 70
     0
 10
0.0
 20
0.0
 30
0.0
  3
Dimension69
  1

  0
ENDBLK
  5
221
330
21F
100
AcDbEntity
  8
0
100
AcDbBlockEnd
  0
BLOCK
  5
224
330
223
100
AcDbEntity
  8
0
100
AcDbBlockBegin
  2
Dimension70
 70
     0
 10
0.0
 20
0.0
 30
0.0
  3
Dimension70
  1

  0
ENDBLK
  5
225
330
223
100
AcDbEntity
  8
0
100
AcDbBlockEnd
  0
BLOCK
  5
228
330
227
100
AcDbEntity
  8
0
100
AcDbBlockBegin
  2
Dimension71
 70
     0
 10
0.0
 20
0.0
 30
0.0
  3
Dimension71
  1

  0
ENDBLK
  5
229
330
227
100
AcDbEntity
  8
0
100
AcDbBlockEnd
  0
BLOCK
  5
22C
330
22B
100
AcDbEntity
  8
0
100
AcDbBlockBegin
  2
Dimension72
 70
     0
 10
0.0
 20
0.0
 30
0.0
  3
Dimension72
  1

  0
ENDBLK
  5
22D
330
22B
100
AcDbEntity
  8
0
100
AcDbBlockEnd
  0
BLOCK
  5
230
330
22F
100
AcDbEntity
  8
0
100
AcDbBlockBegin
  2
Dimension73
 70
     0
 10
0.0
 20
0.0
 30
0.0
  3
Dimension73
  1

  0
ENDBLK
  5
231
330
22F
100
AcDbEntity
  8
0
100
AcDbBlockEnd
  0
BLOCK
  5
234
330
233
100
AcDbEntity
  8
0
100
AcDbBlockBegin
  2
Dimension74
 70
     0
 10
0.0
 20
0.0
 30
0.0
  3
Dimension74
  1

  0
ENDBLK
  5
235
330
233
100
AcDbEntity
  8
0
100
AcDbBlockEnd
  0
BLOCK
  5
238
330
237
100
AcDbEntity
  8
0
100
AcDbBlockBegin
  2
Dimension75
 70
     0
 10
0.0
 20
0.0
 30
0.0
  3
Dimension75
  1

  0
ENDBLK
  5
239
330
237
100
AcDbEntity
  8
0
100
AcDbBlockEnd
  0
BLOCK
  5
23C
330
23B
100
AcDbEntity
  8
0
100
AcDbBlockBegin
  2
Dimension76
 70
     0
 10
0.0
 20
0.0
 30
0.0
  3
Dimension76
  1

  0
ENDBLK
  5
23D
330
23B
100
AcDbEntity
  8
0
100
AcDbBlockEnd
  0
BLOCK
  5
240
330
23F
100
AcDbEntity
  8
0
100
AcDbBlockBegin
  2
Dimension77
 70
     0
 10
0.0
 20
0.0
 30
0.0
  3
Dimension77
  1

  0
ENDBLK
  5
241
330
23F
100
AcDbEntity
  8
0
100
AcDbBlockEnd
  0
BLOCK
  5
245
330
244
100
AcDbEntity
  8
0
100
AcDbBlockBegin
  2
Dimension78
 70
     0
 10
0.0
 20
0.0
 30
0.0
  3
Dimension78
  1

  0
ENDBLK
  5
246
330
244
100
AcDbEntity
  8
0
100
AcDbBlockEnd
  0
BLOCK
  5
249
330
248
100
AcDbEntity
  8
0
100
AcDbBlockBegin
  2
Dimension79
 70
     0
 10
0.0
 20
0.0
 30
0.0
  3
Dimension79
  1

  0
ENDBLK
  5
24A
330
248
100
AcDbEntity
  8
0
100
AcDbBlockEnd
  0
BLOCK
  5
24D
330
24C
100
AcDbEntity
  8
0
100
AcDbBlockBegin
  2
Dimension80
 70
     0
 10
0.0
 20
0.0
 30
0.0
  3
Dimension80
  1

  0
ENDBLK
  5
24E
330
24C
100
AcDbEntity
  8
0
100
AcDbBlockEnd
  0
BLOCK
  5
251
330
250
100
AcDbEntity
  8
0
100
AcDbBlockBegin
  2
Dimension81
 70
     0
 10
0.0
 20
0.0
 30
0.0
  3
Dimension81
  1

  0
ENDBLK
  5
252
330
250
100
AcDbEntity
  8
0
100
AcDbBlockEnd
  0
BLOCK
  5
255
330
254
100
AcDbEntity
  8
0
100
AcDbBlockBegin
  2
Dimension82
 70
     0
 10
0.0
 20
0.0
 30
0.0
  3
Dimension82
  1

  0
ENDBLK
  5
256
330
254
100
AcDbEntity
  8
0
100
AcDbBlockEnd
  0
BLOCK
  5
259
330
258
100
AcDbEntity
  8
0
100
AcDbBlockBegin
  2
Dimension83
 70
     0
 10
0.0
 20
0.0
 30
0.0
  3
Dimension83
  1

  0
ENDBLK
  5
25A
330
258
100
AcDbEntity
  8
0
100
AcDbBlockEnd
  0
BLOCK
  5
25D
330
25C
100
AcDbEntity
  8
0
100
AcDbBlockBegin
  2
Dimension84
 70
     0
 10
0.0
 20
0.0
 30
0.0
  3
Dimension84
  1

  0
ENDBLK
  5
25E
330
25C
100
AcDbEntity
  8
0
100
AcDbBlockEnd
  0
BLOCK
  5
261
330
260
100
AcDbEntity
  8
0
100
AcDbBlockBegin
  2
Dimension85
 70
     0
 10
0.0
 20
0.0
 30
0.0
  3
Dimension85
  1

  0
ENDBLK
  5
262
330
260
100
AcDbEntity
  8
0
100
AcDbBlockEnd
  0
BLOCK
  5
265
330
264
100
AcDbEntity
  8
0
100
AcDbBlockBegin
  2
Dimension86
 70
     0
 10
0.0
 20
0.0
 30
0.0
  3
Dimension86
  1

  0
ENDBLK
  5
266
330
264
100
AcDbEntity
  8
0
100
AcDbBlockEnd
  0
BLOCK
  5
269
330
268
100
AcDbEntity
  8
0
100
AcDbBlockBegin
  2
Dimension87
 70
     0
 10
0.0
 20
0.0
 30
0.0
  3
Dimension87
  1

  0
ENDBLK
  5
26A
330
268
100
AcDbEntity
  8
0
100
AcDbBlockEnd
  0
BLOCK
  5
26D
330
26C
100
AcDbEntity
  8
0
100
AcDbBlockBegin
  2
Dimension88
 70
     0
 10
0.0
 20
0.0
 30
0.0
  3
Dimension88
  1

  0
ENDBLK
  5
26E
330
26C
100
AcDbEntity
  8
0
100
AcDbBlockEnd
  0
BLOCK
  5
271
330
270
100
AcDbEntity
  8
0
100
AcDbBlockBegin
  2
Dimension89
 70
     0
 10
0.0
 20
0.0
 30
0.0
  3
Dimension89
  1

  0
ENDBLK
  5
272
330
270
100
AcDbEntity
  8
0
100
AcDbBlockEnd
  0
BLOCK
  5
275
330
274
100
AcDbEntity
  8
0
100
AcDbBlockBegin
  2
Dimension90
 70
     0
 10
0.0
 20
0.0
 30
0.0
  3
Dimension90
  1

  0
ENDBLK
  5
276
330
274
100
AcDbEntity
  8
0
100
AcDbBlockEnd
  0
BLOCK
  5
279
330
278
100
AcDbEntity
  8
0
100
AcDbBlockBegin
  2
Dimension91
 70
     0
 10
0.0
 20
0.0
 30
0.0
  3
Dimension91
  1

  0
ENDBLK
  5
27A
330
278
100
AcDbEntity
  8
0
100
AcDbBlockEnd
  0
BLOCK
  5
27D
330
27C
100
AcDbEntity
  8
0
100
AcDbBlockBegin
  2
Dimension92
 70
     0
 10
0.0
 20
0.0
 30
0.0
  3
Dimension92
  1

  0
ENDBLK
  5
27E
330
27C
100
AcDbEntity
  8
0
100
AcDbBlockEnd
  0
BLOCK
  5
281
330
280
100
AcDbEntity
  8
0
100
AcDbBlockBegin
  2
Dimension93
 70
     0
 10
0.0
 20
0.0
 30
0.0
  3
Dimension93
  1

  0
ENDBLK
  5
282
330
280
100
AcDbEntity
  8
0
100
AcDbBlockEnd
  0
BLOCK
  5
285
330
284
100
AcDbEntity
  8
0
100
AcDbBlockBegin
  2
Dimension94
 70
     0
 10
0.0
 20
0.0
 30
0.0
  3
Dimension94
  1

  0
ENDBLK
  5
286
330
284
100
AcDbEntity
  8
0
100
AcDbBlockEnd
  0
BLOCK
  5
289
330
288
100
AcDbEntity
  8
0
100
AcDbBlockBegin
  2
Dimension95
 70
     0
 10
0.0
 20
0.0
 30
0.0
  3
Dimension95
  1

  0
ENDBLK
  5
28A
330
288
100
AcDbEntity
  8
0
100
AcDbBlockEnd
  0
BLOCK
  5
28D
330
28C
100
AcDbEntity
  8
0
100
AcDbBlockBegin
  2
Dimension96
 70
     0
 10
0.0
 20
0.0
 30
0.0
  3
Dimension96
  1

  0
ENDBLK
  5
28E
330
28C
100
AcDbEntity
  8
0
100
AcDbBlockEnd
  0
BLOCK
  5
291
330
290
100
AcDbEntity
  8
0
100
AcDbBlockBegin
  2
Dimension97
 70
     0
 10
0.0
 20
0.0
 30
0.0
  3
Dimension97
  1

  0
ENDBLK
  5
292
330
290
100
AcDbEntity
  8
0
100
AcDbBlockEnd
  0
BLOCK
  5
295
330
294
100
AcDbEntity
  8
0
100
AcDbBlockBegin
  2
Dimension98
 70
     0
 10
0.0
 20
0.0
 30
0.0
  3
Dimension98
  1

  0
ENDBLK
  5
296
330
294
100
AcDbEntity
  8
0
100
AcDbBlockEnd
  0
BLOCK
  5
299
330
298
100
AcDbEntity
  8
0
100
AcDbBlockBegin
  2
Dimension99
 70
     0
 10
0.0
 20
0.0
 30
0.0
  3
Dimension99
  1

  0
ENDBLK
  5
29A
330
298
100
AcDbEntity
  8
0
100
AcDbBlockEnd
  0
BLOCK
  5
29D
330
29C
100
AcDbEntity
  8
0
100
AcDbBlockBegin
  2
Dimension100
 70
     0
 10
0.0
 20
0.0
 30
0.0
  3
Dimension100
  1

  0
ENDBLK
  5
29E
330
29C
100
AcDbEntity
  8
0
100
AcDbBlockEnd
  0
BLOCK
  5
2A2
330
2A1
100
AcDbEntity
  8
0
100
AcDbBlockBegin
  2
Dimension101
 70
     0
 10
0.0
 20
0.0
 30
0.0
  3
Dimension101
  1

  0
ENDBLK
  5
2A3
330
2A1
100
AcDbEntity
  8
0
100
AcDbBlockEnd
  0
BLOCK
  5
2A6
330
2A5
100
AcDbEntity
  8
0
100
AcDbBlockBegin
  2
Dimension102
 70
     0
 10
0.0
 20
0.0
 30
0.0
  3
Dimension102
  1

  0
ENDBLK
  5
2A7
330
2A5
100
AcDbEntity
  8
0
100
AcDbBlockEnd
  0
BLOCK
  5
2AA
330
2A9
100
AcDbEntity
  8
0
100
AcDbBlockBegin
  2
Dimension103
 70
     0
 10
0.0
 20
0.0
 30
0.0
  3
Dimension103
  1

  0
ENDBLK
  5
2AB
330
2A9
100
AcDbEntity
  8
0
100
AcDbBlockEnd
  0
BLOCK
  5
2AE
330
2AD
100
AcDbEntity
  8
0
100
AcDbBlockBegin
  2
Dimension104
 70
     0
 10
0.0
 20
0.0
 30
0.0
  3
Dimension104
  1

  0
ENDBLK
  5
2AF
330
2AD
100
AcDbEntity
  8
0
100
AcDbBlockEnd
  0
BLOCK
  5
2B2
330
2B1
100
AcDbEntity
  8
0
100
AcDbBlockBegin
  2
Dimension105
 70
     0
 10
0.0
 20
0.0
 30
0.0
  3
Dimension105
  1

  0
ENDBLK
  5
2B3
330
2B1
100
AcDbEntity
  8
0
100
AcDbBlockEnd
  0
BLOCK
  5
2B6
330
2B5
100
AcDbEntity
  8
0
100
AcDbBlockBegin
  2
Dimension106
 70
     0
 10
0.0
 20
0.0
 30
0.0
  3
Dimension106
  1

  0
ENDBLK
  5
2B7
330
2B5
100
AcDbEntity
  8
0
100
AcDbBlockEnd
  0
BLOCK
  5
2BA
330
2B9
100
AcDbEntity
  8
0
100
AcDbBlockBegin
  2
Dimension107
 70
     0
 10
0.0
 20
0.0
 30
0.0
  3
Dimension107
  1

  0
ENDBLK
  5
2BB
330
2B9
100
AcDbEntity
  8
0
100
AcDbBlockEnd
  0
BLOCK
  5
2BE
330
2BD
100
AcDbEntity
  8
0
100
AcDbBlockBegin
  2
Dimension108
 70
     0
 10
0.0
 20
0.0
 30
0.0
  3
Dimension108
  1

  0
ENDBLK
  5
2BF
330
2BD
100
AcDbEntity
  8
0
100
AcDbBlockEnd
  0
BLOCK
  5
2C2
330
2C1
100
AcDbEntity
  8
0
100
AcDbBlockBegin
  2
Dimension109
 70
     0
 10
0.0
 20
0.0
 30
0.0
  3
Dimension109
  1

  0
ENDBLK
  5
2C3
330
2C1
100
AcDbEntity
  8
0
100
AcDbBlockEnd
  0
BLOCK
  5
2C6
330
2C5
100
AcDbEntity
  8
0
100
AcDbBlockBegin
  2
Dimension110
 70
     0
 10
0.0
 20
0.0
 30
0.0
  3
Dimension110
  1

  0
ENDBLK
  5
2C7
330
2C5
100
AcDbEntity
  8
0
100
AcDbBlockEnd
  0
BLOCK
  5
2CA
330
2C9
100
AcDbEntity
  8
0
100
AcDbBlockBegin
  2
Dimension111
 70
     0
 10
0.0
 20
0.0
 30
0.0
  3
Dimension111
  1

  0
ENDBLK
  5
2CB
330
2C9
100
AcDbEntity
  8
0
100
AcDbBlockEnd
  0
BLOCK
  5
2CE
330
2CD
100
AcDbEntity
  8
0
100
AcDbBlockBegin
  2
Dimension112
 70
     0
 10
0.0
 20
0.0
 30
0.0
  3
Dimension112
  1

  0
ENDBLK
  5
2CF
330
2CD
100
AcDbEntity
  8
0
100
AcDbBlockEnd
  0
BLOCK
  5
2D2
330
2D1
100
AcDbEntity
  8
0
100
AcDbBlockBegin
  2
Dimension113
 70
     0
 10
0.0
 20
0.0
 30
0.0
  3
Dimension113
  1

  0
ENDBLK
  5
2D3
330
2D1
100
AcDbEntity
  8
0
100
AcDbBlockEnd
  0
BLOCK
  5
2D6
330
2D5
100
AcDbEntity
  8
0
100
AcDbBlockBegin
  2
Dimension114
 70
     0
 10
0.0
 20
0.0
 30
0.0
  3
Dimension114
  1

  0
ENDBLK
  5
2D7
330
2D5
100
AcDbEntity
  8
0
100
AcDbBlockEnd
  0
BLOCK
  5
2DA
330
2D9
100
AcDbEntity
  8
0
100
AcDbBlockBegin
  2
Dimension115
 70
     0
 10
0.0
 20
0.0
 30
0.0
  3
Dimension115
  1

  0
ENDBLK
  5
2DB
330
2D9
100
AcDbEntity
  8
0
100
AcDbBlockEnd
  0
BLOCK
  5
2DE
330
2DD
100
AcDbEntity
  8
0
100
AcDbBlockBegin
  2
Dimension116
 70
     0
 10
0.0
 20
0.0
 30
0.0
  3
Dimension116
  1

  0
ENDBLK
  5
2DF
330
2DD
100
AcDbEntity
  8
0
100
AcDbBlockEnd
  0
BLOCK
  5
2E2
330
2E1
100
AcDbEntity
  8
0
100
AcDbBlockBegin
  2
Dimension117
 70
     0
 10
0.0
 20
0.0
 30
0.0
  3
Dimension117
  1

  0
ENDBLK
  5
2E3
330
2E1
100
AcDbEntity
  8
0
100
AcDbBlockEnd
  0
BLOCK
  5
2E6
330
2E5
100
AcDbEntity
  8
0
100
AcDbBlockBegin
  2
Dimension118
 70
     0
 10
0.0
 20
0.0
 30
0.0
  3
Dimension118
  1

  0
ENDBLK
  5
2E7
330
2E5
100
AcDbEntity
  8
0
100
AcDbBlockEnd
  0
BLOCK
  5
2EA
330
2E9
100
AcDbEntity
  8
0
100
AcDbBlockBegin
  2
Dimension119
 70
     0
 10
0.0
 20
0.0
 30
0.0
  3
Dimension119
  1

  0
ENDBLK
  5
2EB
330
2E9
100
AcDbEntity
  8
0
100
AcDbBlockEnd
  0
BLOCK
  5
2EE
330
2ED
100
AcDbEntity
  8
0
100
AcDbBlockBegin
  2
Dimension120
 70
     0
 10
0.0
 20
0.0
 30
0.0
  3
Dimension120
  1

  0
ENDBLK
  5
2EF
330
2ED
100
AcDbEntity
  8
0
100
AcDbBlockEnd
  0
BLOCK
  5
2F2
330
2F1
100
AcDbEntity
  8
0
100
AcDbBlockBegin
  2
Dimension121
 70
     0
 10
0.0
 20
0.0
 30
0.0
  3
Dimension121
  1

  0
ENDBLK
  5
2F3
330
2F1
100
AcDbEntity
  8
0
100
AcDbBlockEnd
  0
BLOCK
  5
2F7
330
2F6
100
AcDbEntity
  8
0
100
AcDbBlockBegin
  2
Dimension122
 70
     0
 10
0.0
 20
0.0
 30
0.0
  3
Dimension122
  1

  0
ENDBLK
  5
2F8
330
2F6
100
AcDbEntity
  8
0
100
AcDbBlockEnd
  0
BLOCK
  5
2FB
330
2FA
100
AcDbEntity
  8
0
100
AcDbBlockBegin
  2
Dimension123
 70
     0
 10
0.0
 20
0.0
 30
0.0
  3
Dimension123
  1

  0
ENDBLK
  5
2FC
330
2FA
100
AcDbEntity
  8
0
100
AcDbBlockEnd
  0
BLOCK
  5
2FF
330
2FE
100
AcDbEntity
  8
0
100
AcDbBlockBegin
  2
Dimension124
 70
     0
 10
0.0
 20
0.0
 30
0.0
  3
Dimension124
  1

  0
ENDBLK
  5
300
330
2FE
100
AcDbEntity
  8
0
100
AcDbBlockEnd
  0
BLOCK
  5
303
330
302
100
AcDbEntity
  8
0
100
AcDbBlockBegin
  2
Dimension125
 70
     0
 10
0.0
 20
0.0
 30
0.0
  3
Dimension125
  1

  0
ENDBLK
  5
304
330
302
100
AcDbEntity
  8
0
100
AcDbBlockEnd
  0
BLOCK
  5
307
330
306
100
AcDbEntity
  8
0
100
AcDbBlockBegin
  2
Dimension126
 70
     0
 10
0.0
 20
0.0
 30
0.0
  3
Dimension126
  1

  0
ENDBLK
  5
308
330
306
100
AcDbEntity
  8
0
100
AcDbBlockEnd
  0
BLOCK
  5
30B
330
30A
100
AcDbEntity
  8
0
100
AcDbBlockBegin
  2
Dimension127
 70
     0
 10
0.0
 20
0.0
 30
0.0
  3
Dimension127
  1

  0
ENDBLK
  5
30C
330
30A
100
AcDbEntity
  8
0
100
AcDbBlockEnd
  0
BLOCK
  5
30F
330
30E
100
AcDbEntity
  8
0
100
AcDbBlockBegin
  2
Dimension128
 70
     0
 10
0.0
 20
0.0
 30
0.0
  3
Dimension128
  1

  0
ENDBLK
  5
310
330
30E
100
AcDbEntity
  8
0
100
AcDbBlockEnd
  0
BLOCK
  5
313
330
312
100
AcDbEntity
  8
0
100
AcDbBlockBegin
  2
Dimension129
 70
     0
 10
0.0
 20
0.0
 30
0.0
  3
Dimension129
  1

  0
ENDBLK
  5
314
330
312
100
AcDbEntity
  8
0
100
AcDbBlockEnd
  0
BLOCK
  5
317
330
316
100
AcDbEntity
  8
0
100
AcDbBlockBegin
  2
Dimension130
 70
     0
 10
0.0
 20
0.0
 30
0.0
  3
Dimension130
  1

  0
ENDBLK
  5
318
330
316
100
AcDbEntity
  8
0
100
AcDbBlockEnd
  0
BLOCK
  5
31B
330
31A
100
AcDbEntity
  8
0
100
AcDbBlockBegin
  2
Dimension131
 70
     0
 10
0.0
 20
0.0
 30
0.0
  3
Dimension131
  1

  0
ENDBLK
  5
31C
330
31A
100
AcDbEntity
  8
0
100
AcDbBlockEnd
  0
BLOCK
  5
31F
330
31E
100
AcDbEntity
  8
0
100
AcDbBlockBegin
  2
Dimension132
 70
     0
 10
0.0
 20
0.0
 30
0.0
  3
Dimension132
  1

  0
ENDBLK
  5
320
330
31E
100
AcDbEntity
  8
0
100
AcDbBlockEnd
  0
BLOCK
  5
323
330
322
100
AcDbEntity
  8
0
100
AcDbBlockBegin
  2
Dimension133
 70
     0
 10
0.0
 20
0.0
 30
0.0
  3
Dimension133
  1

  0
ENDBLK
  5
324
330
322
100
AcDbEntity
  8
0
100
AcDbBlockEnd
  0
BLOCK
  5
327
330
326
100
AcDbEntity
  8
0
100
AcDbBlockBegin
  2
Dimension134
 70
     0
 10
0.0
 20
0.0
 30
0.0
  3
Dimension134
  1

  0
ENDBLK
  5
328
330
326
100
AcDbEntity
  8
0
100
AcDbBlockEnd
  0
ENDSEC
  0
SECTION
  2
ENTITIES
  0
INSERT
  5
43
330
1F
100
AcDbEntity
  8
MR-380
  6
Continuous
 62
    18
420
        0
 48
50.00000038146973
370
    25
100
AcDbBlockReference
  2
Dimension1
 10
0.0
 20
0.0
 30
0.0
  0
INSERT
  5
47
330
1F
100
AcDbEntity
  8
MR-380
  6
Continuous
 62
    18
420
        0
 48
50.00000038146973
370
    25
100
AcDbBlockReference
  2
Dimension2
 10
0.0
 20
0.0
 30
0.0
  0
INSERT
  5
4B
330
1F
100
AcDbEntity
  8
MR-380
  6
Continuous
 62
    18
420
        0
 48
50.00000038146973
370
    25
100
AcDbBlockReference
  2
Dimension3
 10
0.0
 20
0.0
 30
0.0
  0
INSERT
  5
4F
330
1F
100
AcDbEntity
  8
MR-380
  6
Continuous
 62
    18
420
        0
 48
50.00000038146973
370
    25
100
AcDbBlockReference
  2
Dimension4
 10
0.0
 20
0.0
 30
0.0
  0
INSERT
  5
53
330
1F
100
AcDbEntity
  8
MR-380
  6
Continuous
 62
    18
420
        0
 48
50.00000038146973
370
    25
100
AcDbBlockReference
  2
Dimension5
 10
0.0
 20
0.0
 30
0.0
  0
INSERT
  5
57
330
1F
100
AcDbEntity
  8
MR-380
  6
Continuous
 62
    18
420
        0
 48
50.00000038146973
370
    25
100
AcDbBlockReference
  2
Dimension6
 10
0.0
 20
0.0
 30
0.0
  0
INSERT
  5
5B
330
1F
100
AcDbEntity
  8
MR-380
  6
Continuous
 62
    18
420
        0
 48
50.00000038146973
370
    25
100
AcDbBlockReference
  2
Dimension7
 10
0.0
 20
0.0
 30
0.0
  0
INSERT
  5
5F
330
1F
100
AcDbEntity
  8
MR-380
  6
Continuous
 62
    18
420
        0
 48
50.00000038146973
370
    25
100
AcDbBlockReference
  2
Dimension8
 10
0.0
 20
0.0
 30
0.0
  0
INSERT
  5
63
330
1F
100
AcDbEntity
  8
MR-380
  6
Continuous
 62
    18
420
        0
 48
50.00000038146973
370
    25
100
AcDbBlockReference
  2
Dimension9
 10
0.0
 20
0.0
 30
0.0
  0
INSERT
  5
67
330
1F
100
AcDbEntity
  8
MR-380
  6
Continuous
 62
    18
420
        0
 48
50.00000038146973
370
    25
100
AcDbBlockReference
  2
Dimension10
 10
0.0
 20
0.0
 30
0.0
  0
INSERT
  5
6C
330
1F
100
AcDbEntity
  8
allgemein
  6
Continuous
 62
    18
420
        0
 48
50.00000038146973
370
    25
100
AcDbBlockReference
  2
Dimension11
 10
0.0
 20
0.0
 30
0.0
  0
INSERT
  5
70
330
1F
100
AcDbEntity
  8
allgemein
  6
Continuous
 62
    18
420
        0
 48
50.00000038146973
370
    25
100
AcDbBlockReference
  2
Dimension12
 10
0.0
 20
0.0
 30
0.0
  0
INSERT
  5
74
330
1F
100
AcDbEntity
  8
allgemein
  6
Continuous
 62
    18
420
        0
 48
50.00000038146973
370
    25
100
AcDbBlockReference
  2
Dimension13
 10
0.0
 20
0.0
 30
0.0
  0
INSERT
  5
78
330
1F
100
AcDbEntity
  8
allgemein
  6
Continuous
 62
    18
420
        0
 48
50.00000038146973
370
    25
100
AcDbBlockReference
  2
Dimension14
 10
0.0
 20
0.0
 30
0.0
  0
INSERT
  5
7C
330
1F
100
AcDbEntity
  8
allgemein
  6
Continuous
 62
    18
420
        0
 48
50.00000038146973
370
    25
100
AcDbBlockReference
  2
Dimension15
 10
0.0
 20
0.0
 30
0.0
  0
INSERT
  5
80
330
1F
100
AcDbEntity
  8
allgemein
  6
Continuous
 62
    18
420
        0
 48
50.00000038146973
370
    25
100
AcDbBlockReference
  2
Dimension16
 10
0.0
 20
0.0
 30
0.0
  0
INSERT
  5
84
330
1F
100
AcDbEntity
  8
allgemein
  6
Continuous
 62
    18
420
        0
 48
50.00000038146973
370
    25
100
AcDbBlockReference
  2
Dimension17
 10
0.0
 20
0.0
 30
0.0
  0
INSERT
  5
88
330
1F
100
AcDbEntity
  8
allgemein
  6
Continuous
 62
    18
420
        0
 48
50.00000038146973
370
    25
100
AcDbBlockReference
  2
Dimension18
 10
0.0
 20
0.0
 30
0.0
  0
INSERT
  5
8C
330
1F
100
AcDbEntity
  8
allgemein
  6
Continuous
 62
    18
420
        0
 48
50.00000038146973
370
    25
100
AcDbBlockReference
  2
Dimension19
 10
0.0
 20
0.0
 30
0.0
  0
INSERT
  5
90
330
1F
100
AcDbEntity
  8
allgemein
  6
Continuous
 62
    18
420
        0
 48
50.00000038146973
370
    25
100
AcDbBlockReference
  2
Dimension20
 10
0.0
 20
0.0
 30
0.0
  0
INSERT
  5
94
330
1F
100
AcDbEntity
  8
allgemein
  6
Continuous
 62
    18
420
        0
 48
50.00000038146973
370
    25
100
AcDbBlockReference
  2
Dimension21
 10
0.0
 20
0.0
 30
0.0
  0
INSERT
  5
98
330
1F
100
AcDbEntity
  8
allgemein
  6
Continuous
 62
    18
420
        0
 48
50.00000038146973
370
    25
100
AcDbBlockReference
  2
Dimension22
 10
0.0
 20
0.0
 30
0.0
  0
INSERT
  5
9C
330
1F
100
AcDbEntity
  8
allgemein
  6
Continuous
 62
    18
420
        0
 48
50.00000038146973
370
    25
100
AcDbBlockReference
  2
Dimension23
 10
0.0
 20
0.0
 30
0.0
  0
INSERT
  5
A2
330
1F
100
AcDbEntity
  8
MR-320
  6
Continuous
 62
    18
420
        0
 48
50.00000038146973
370
    25
100
AcDbBlockReference
  2
Dimension24
 10
0.0
 20
0.0
 30
0.0
  0
INSERT
  5
A6
330
1F
100
AcDbEntity
  8
MR-320
  6
Continuous
 62
    18
420
        0
 48
50.00000038146973
370
    25
100
AcDbBlockReference
  2
Dimension25
 10
0.0
 20
0.0
 30
0.0
  0
INSERT
  5
AA
330
1F
100
AcDbEntity
  8
MR-320
  6
Continuous
 62
    18
420
        0
 48
50.00000038146973
370
    25
100
AcDbBlockReference
  2
Dimension26
 10
0.0
 20
0.0
 30
0.0
  0
INSERT
  5
AE
330
1F
100
AcDbEntity
  8
MR-320
  6
Continuous
 62
    18
420
        0
 48
50.00000038146973
370
    25
100
AcDbBlockReference
  2
Dimension27
 10
0.0
 20
0.0
 30
0.0
  0
INSERT
  5
B2
330
1F
100
AcDbEntity
  8
MR-320
  6
Continuous
 62
    18
420
        0
 48
50.00000038146973
370
    25
100
AcDbBlockReference
  2
Dimension28
 10
0.0
 20
0.0
 30
0.0
  0
INSERT
  5
B6
330
1F
100
AcDbEntity
  8
MR-320
  6
Continuous
 62
    18
420
        0
 48
50.00000038146973
370
    25
100
AcDbBlockReference
  2
Dimension29
 10
0.0
 20
0.0
 30
0.0
  0
INSERT
  5
BA
330
1F
100
AcDbEntity
  8
MR-320
  6
Continuous
 62
    18
420
        0
 48
50.00000038146973
370
    25
100
AcDbBlockReference
  2
Dimension30
 10
0.0
 20
0.0
 30
0.0
  0
INSERT
  5
BE
330
1F
100
AcDbEntity
  8
MR-320
  6
Continuous
 62
    18
420
        0
 48
50.00000038146973
370
    25
100
AcDbBlockReference
  2
Dimension31
 10
0.0
 20
0.0
 30
0.0
  0
INSERT
  5
C2
330
1F
100
AcDbEntity
  8
MR-320
  6
Continuous
 62
    18
420
        0
 48
50.00000038146973
370
    25
100
AcDbBlockReference
  2
Dimension32
 10
0.0
 20
0.0
 30
0.0
  0
INSERT
  5
C6
330
1F
100
AcDbEntity
  8
MR-320
  6
Continuous
 62
    18
420
        0
 48
50.00000038146973
370
    25
100
AcDbBlockReference
  2
Dimension33
 10
0.0
 20
0.0
 30
0.0
  0
TEXT
  5
C9
330
1F
100
AcDbEntity
  8
FR-45
  6
Continuous
 62
    18
420
        0
 48
50.00000038146973
370
    25
100
AcDbText
 10
36637.01151650694
 20
6362.170131568152
 30
0.0
 40
32.00000000000001
  1
ü
 41
0.8125
  7
CENTURY GOTHIC
100
AcDbText
  0
CIRCLE
  5
CA
330
1F
100
AcDbEntity
  8
FR-45
  6
Continuous
 62
    18
420
        0
 48
50.00000038146973
370
    25
100
AcDbCircle
 10
36654.58475544904
 20
6110.913326024414
 30
0.0
 40
224.9999774932861
  0
CIRCLE
  5
CB
330
1F
100
AcDbEntity
  8
FR-45
  6
Continuous
 62
    18
420
        0
 48
50.00000038146973
370
    25
100
AcDbCircle
 10
36654.58475544904
 20
6110.913326024414
 30
0.0
 40
237.9999834060669
  0
CIRCLE
  5
CC
330
1F
100
AcDbEntity
  8
FR-45
  6
Continuous
 62
    18
420
        0
 48
50.00000038146973
370
    25
100
AcDbCircle
 10
36654.58475544904
 20
6110.913326024414
 30
0.0
 40
22.49999986886978
  0
CIRCLE
  5
CD
330
1F
100
AcDbEntity
  8
FR-45
  6
Continuous
 62
    18
420
        0
 48
50.00000038146973
370
    25
100
AcDbCircle
 10
36654.58475544904
 20
6110.913326024414
 30
0.0
 40
32.49999964237213
  0
INSERT
  5
D1
330
1F
100
AcDbEntity
  8
FR-45
  6
Continuous
 62
    18
420
        0
 48
50.00000038146973
370
    25
100
AcDbBlockReference
  2
Dimension34
 10
0.0
 20
0.0
 30
0.0
  0
INSERT
  5
D5
330
1F
100
AcDbEntity
  8
FR-45
  6
Continuous
 62
    18
420
        0
 48
50.00000038146973
370
    25
100
AcDbBlockReference
  2
Dimension35
 10
0.0
 20
0.0
 30
0.0
  0
INSERT
  5
D9
330
1F
100
AcDbEntity
  8
FR-45
  6
Continuous
 62
    18
420
        0
 48
50.00000038146973
370
    25
100
AcDbBlockReference
  2
Dimension36
 10
0.0
 20
0.0
 30
0.0
  0
DIMENSION
  5
DB
330
1F
100
AcDbEntity
  8
FR-45
  6
Continuous
 62
    18
420
        0
 48
50.00000038146973
370
    25
100
AcDbDimension
  2
*D37
 10
36945.58477204297
 20
5672.913342618303
 30
0.0
 11
36913.5847679541
 21
5597.017524098266
 31
0.0
 70
    32
 71
     5
 42
151.7916370400717
  3
ISO-25
100
AcDbAlignedDimension
 13
36651.58477204288
 23
5521.121705578231
 33
0.0
 14
36651.58477204297
 24
5672.913342618303
 34
0.0
 50
90.0
100
AcDbRotatedDimension
1001
ACAD
1000
DSTYLE
1002
{
1070
    69
1070
     0
1070
   271
1070
     3
1070
   177
1070
    18
1070
   176
1070
    18
1070
   140
1040
24.0
1070
    76
1070
     0
1070
    75
1070
     0
1070
   282
1070
     0
1070
   281
1070
     0
1070
   174
1070
     1
1070
    42
1040
0.0
1070
    49
1040
19.9999995470047
1070
   290
1070
     1
1070
    44
1040
19.9999995470047
1070
    46
1040
0.0
1070
    41
1040
9.000000357627869
1070
   173
1070
     1
1070
   342
1005
0
1070
   344
1005
E9
1070
   343
1005
E9
1070
   147
1040
20.00000408887863
1070
   178
1070
    18
1070
   340
1005
DA
1070
   278
1070
    46
1002
}
1001
ACAD_DSTYLE_DIMEXT_ENABLED
1070
   383
1070
     1
1001
ACAD_DSTYLE_DIMEXT_LENGTH
1070
   378
1040
19.9999995470047
  0
DIMENSION
  5
F2
330
1F
100
AcDbEntity
  8
FR-45
  6
Continuous
 62
    18
420
        0
 48
50.00000038146973
370
    25
100
AcDbDimension
  2
*D39
 10
36875.58477795576
 20
5813.913342618347
 30
0.0
 11
36652.58477795575
 21
5854.333346707226
 31
0.0
 70
    32
 71
     5
 42
446.0000000000073
  3
ISO-25
100
AcDbAlignedDimension
 13
36429.58477795575
 23
6110.913326024414
 33
0.0
 14
36875.58477795576
 24
5813.913342618347
 34
0.0
100
AcDbRotatedDimension
1001
ACAD
1000
DSTYLE
1002
{
1070
   271
1070
     3
1070
   177
1070
    18
1070
   176
1070
    18
1070
   140
1040
40.0
1070
    76
1070
     0
1070
    75
1070
     0
1070
   282
1070
     0
1070
   281
1070
     0
1070
   174
1070
     1
1070
    42
1040
0.0
1070
    49
1040
19.9999995470047
1070
   290
1070
     1
1070
    44
1040
19.9999995470047
1070
    46
1040
0.0
1070
    41
1040
15.00000059604645
1070
   173
1070
     1
1070
   342
1005
0
1070
   344
1005
E9
1070
   343
1005
E9
1070
   147
1040
20.00000408887863
1070
    70
1070
    18
1070
    69
1070
     0
1070
   340
1005
F1
1070
   278
1070
    46
1002
}
1001
ACAD_DSTYLE_DIMEXT_ENABLED
1070
   383
1070
     1
1001
ACAD_DSTYLE_DIMEXT_LENGTH
1070
   378
1040
19.9999995470047
  0
DIMENSION
  5
FF
330
1F
100
AcDbEntity
  8
FR-45
  6
Continuous
 62
    18
420
        0
 48
50.00000038146973
370
    25
100
AcDbDimension
  2
*D40
 10
36888.58477204297
 20
5759.913342618347
 30
0.0
 11
36652.58477204297
 21
5791.913346707226
 31
0.0
 70
    32
 71
     5
 42
472.0
  3
ISO-25
100
AcDbAlignedDimension
 13
36416.58477204297
 23
5672.913342618348
 33
0.0
 14
36888.58477204297
 24
5759.913342618347
 34
0.0
100
AcDbRotatedDimension
1001
ACAD
1000
DSTYLE
1002
{
1070
    69
1070
     0
1070
   271
1070
     3
1070
   177
1070
    18
1070
   176
1070
    18
1070
   140
1040
24.0
1070
    76
1070
     0
1070
    75
1070
     0
1070
   282
1070
     0
1070
   281
1070
     0
1070
   174
1070
     1
1070
    42
1040
0.0
1070
    49
1040
19.9999995470047
1070
   290
1070
     1
1070
    44
1040
19.9999995470047
1070
    46
1040
0.0
1070
    41
1040
9.000000357627869
1070
   173
1070
     1
1070
   342
1005
0
1070
   344
1005
E9
1070
   343
1005
E9
1070
   147
1040
20.00000408887863
1070
   178
1070
    18
1070
   340
1005
DA
1070
   278
1070
    46
1002
}
1001
ACAD_DSTYLE_DIMEXT_ENABLED
1070
   383
1070
     1
1001
ACAD_DSTYLE_DIMEXT_LENGTH
1070
   378
1040
19.9999995470047
  0
INSERT
  5
10F
330
1F
100
AcDbEntity
  8
FR-45
  6
Continuous
 62
    18
420
        0
 48
50.00000038146973
370
    25
100
AcDbBlockReference
  2
Dimension37
 10
0.0
 20
0.0
 30
0.0
  0
LINE
  5
110
330
1F
100
AcDbEntity
  8
FR-45
  6
Continuous
 62
    18
420
        0
 48
50.00000038146973
370
    25
100
AcDbLine
 10
36610.58475544904
 20
6110.913326024414
 30
0.0
 11
36698.58475544904
 21
6110.913326024414
 31
0.0
  0
LINE
  5
111
330
1F
100
AcDbEntity
  8
FR-45
  6
Continuous
 62
    18
420
        0
 48
50.00000038146973
370
    25
100
AcDbLine
 10
36654.58475544904
 20
6154.913326024416
 30
0.0
 11
36654.58475544904
 21
6066.913326024413
 31
0.0
  0
LINE
  5
112
330
1F
100
AcDbEntity
  8
FR-45
  6
Continuous
 62
    18
420
        0
 48
0.9999999962747097
370
    25
100
AcDbLine
 10
36617.40143870965
 20
5537.891603642298
 30
0.0
 11
36628.5847720429
 21
5525.691603642284
 31
0.0
  0
LINE
  5
113
330
1F
100
AcDbEntity
  8
FR-45
  6
Continuous
 62
    18
420
        0
 48
0.9999999962747097
370
    25
100
AcDbLine
 10
36628.5847720429
 20
5525.691603642284
 30
0.0
 11
36628.5847720429
 21
5521.121705578231
 31
0.0
  0
LINE
  5
114
330
1F
100
AcDbEntity
  8
FR-45
  6
Continuous
 62
    18
420
        0
 48
0.9999999962747097
370
    25
100
AcDbLine
 10
36628.5847720429
 20
5521.121705578231
 30
0.0
 11
36617.58477204304
 21
5521.121705578231
 31
0.0
  0
LINE
  5
115
330
1F
100
AcDbEntity
  8
FR-45
  6
Continuous
 62
    18
420
        0
 48
0.9999999962747097
370
    25
100
AcDbLine
 10
36614.58477204294
 20
5524.121705578236
 30
0.0
 11
36614.58477204294
 21
5526.165048406853
 31
0.0
  0
LINE
  5
116
330
1F
100
AcDbEntity
  8
FR-45
  6
Continuous
 62
    18
420
        0
 48
0.9999999962747097
370
    25
100
AcDbLine
 10
36416.58477204297
 20
5672.913342618348
 30
0.0
 11
36886.58477204297
 21
5672.913342618256
 31
0.0
  0
LINE
  5
117
330
1F
100
AcDbEntity
  8
FR-45
  6
Continuous
 62
    18
420
        0
 48
0.9999999962747097
370
    25
100
AcDbLine
 10
36688.584772043
 20
5526.165048406853
 30
0.0
 11
36688.584772043
 21
5524.121705578236
 31
0.0
  0
LINE
  5
118
330
1F
100
AcDbEntity
  8
FR-45
  6
Continuous
 62
    18
420
        0
 48
0.9999999962747097
370
    25
100
AcDbLine
 10
36685.58477204291
 20
5521.121705578231
 30
0.0
 11
36674.58477204304
 21
5521.121705578231
 31
0.0
  0
LINE
  5
119
330
1F
100
AcDbEntity
  8
FR-45
  6
Continuous
 62
    18
420
        0
 48
0.9999999962747097
370
    25
100
AcDbLine
 10
36674.58477204304
 20
5521.121705578231
 30
0.0
 11
36674.58477204304
 21
5525.691603642284
 31
0.0
  0
LINE
  5
11A
330
1F
100
AcDbEntity
  8
FR-45
  6
Continuous
 62
    18
420
        0
 48
0.9999999962747097
370
    25
100
AcDbLine
 10
36674.58477204304
 20
5525.691603642284
 30
0.0
 11
36685.76810537629
 21
5537.891603642298
 31
0.0
  0
LINE
  5
11B
330
1F
100
AcDbEntity
  8
FR-45
  6
Continuous
 62
    18
420
        0
 48
0.9999999962747097
370
    25
100
AcDbLine
 10
37227.48946809625
 20
6148.096852287259
 30
0.0
 11
37239.68946809627
 21
6136.91351895382
 31
0.0
  0
LINE
  5
11C
330
1F
100
AcDbEntity
  8
FR-45
  6
Continuous
 62
    18
420
        0
 48
0.9999999962747097
370
    25
100
AcDbLine
 10
37239.68946809627
 20
6136.91351895382
 30
0.0
 11
37244.25936616032
 21
6136.91351895382
 31
0.0
  0
LINE
  5
11D
330
1F
100
AcDbEntity
  8
FR-45
  6
Continuous
 62
    18
420
        0
 48
0.9999999962747097
370
    25
100
AcDbLine
 10
37244.25936616032
 20
6136.91351895382
 30
0.0
 11
37244.25936616032
 21
6147.913518953869
 31
0.0
  0
LINE
  5
11E
330
1F
100
AcDbEntity
  8
FR-45
  6
Continuous
 62
    18
420
        0
 48
0.9999999962747097
370
    25
100
AcDbLine
 10
37241.25936616032
 20
6150.913518953782
 30
0.0
 11
37239.2160233317
 21
6150.913518953782
 31
0.0
  0
LINE
  5
11F
330
1F
100
AcDbEntity
  8
FR-45
  6
Continuous
 62
    18
420
        0
 48
0.9999999962747097
370
    25
100
AcDbLine
 10
37092.4677291202
 20
6348.913518953933
 30
0.0
 11
37092.4677291202
 21
5878.913518953937
 31
0.0
  0
LINE
  5
120
330
1F
100
AcDbEntity
  8
FR-45
  6
Continuous
 62
    18
420
        0
 48
0.9999999962747097
370
    25
100
AcDbLine
 10
37239.2160233317
 20
6076.913518953903
 30
0.0
 11
37241.25936616032
 21
6076.913518953903
 31
0.0
  0
LINE
  5
121
330
1F
100
AcDbEntity
  8
FR-45
  6
Continuous
 62
    18
420
        0
 48
0.9999999962747097
370
    25
100
AcDbLine
 10
37244.25936616032
 20
6079.913518953816
 30
0.0
 11
37244.25936616032
 21
6090.913518953865
 31
0.0
  0
LINE
  5
122
330
1F
100
AcDbEntity
  8
FR-45
  6
Continuous
 62
    18
420
        0
 48
0.9999999962747097
370
    25
100
AcDbLine
 10
37244.25936616032
 20
6090.913518953865
 30
0.0
 11
37239.68946809627
 21
6090.913518953865
 31
0.0
  0
LINE
  5
123
330
1F
100
AcDbEntity
  8
FR-45
  6
Continuous
 62
    18
420
        0
 48
0.9999999962747097
370
    25
100
AcDbLine
 10
37239.68946809627
 20
6090.913518953865
 30
0.0
 11
37227.48946809625
 21
6079.73018562061
 31
0.0
  0
LINE
  5
124
330
1F
100
AcDbEntity
  8
FR-45
  6
Continuous
 62
    18
420
        0
 48
0.9999999962747097
370
    25
100
AcDbLine
 10
37107.46772912022
 20
6328.859938716309
 30
0.0
 11
37107.46772912022
 21
6341.528918307266
 31
0.0
  0
LINE
  5
125
330
1F
100
AcDbEntity
  8
FR-45
  6
Continuous
 62
    18
420
        0
 48
0.9999999962747097
370
    25
100
AcDbLine
 10
37117.46772912021
 20
6322.711366531698
 30
0.0
 11
37117.46772912021
 21
6335.893432016754
 31
0.0
  0
LWPOLYLINE
  5
126
330
1F
100
AcDbEntity
  8
FR-45
  6
Continuous
 62
    18
420
        0
 48
0.9999999962747097
370
    25
100
AcDbPolyline
 90
        2
 70
     0
 43
0.0
 10
36685.76810537629
 20
5537.891603642298
 10
36617.40143870965
 20
5537.891603642298
  0
LWPOLYLINE
  5
127
330
1F
100
AcDbEntity
  8
FR-45
  6
Continuous
 62
    18
420
        0
 48
0.9999999962747097
370
    25
100
AcDbPolyline
 90
        2
 70
     0
 43
0.0
 10
36628.5847720429
 20
5521.121705578231
 10
36674.58477204286
 20
5521.121705578231
  0
LWPOLYLINE
  5
128
330
1F
100
AcDbEntity
  8
FR-45
  6
Continuous
 62
    18
420
        0
 48
0.9999999962747097
370
    25
100
AcDbPolyline
 90
        2
 70
     0
 43
0.0
 10
37227.48946809625
 20
6079.73018562061
 10
37227.48946809625
 20
6148.096852287259
  0
LWPOLYLINE
  5
129
330
1F
100
AcDbEntity
  8
FR-45
  6
Continuous
 62
    18
420
        0
 48
0.9999999962747097
370
    25
100
AcDbPolyline
 90
        2
 70
     0
 43
0.0
 10
37244.25936616032
 20
6136.913518954005
 10
37244.25936616032
 20
6090.913518953865
  0
LWPOLYLINE
  5
12A
330
1F
100
AcDbEntity
  8
FR-45
  6
Continuous
 62
    18
420
        0
 48
0.9999999962747097
370
    25
100
AcDbPolyline
 90
       12
 70
     1
 43
0.0
 10
36630.08495360656
 20
5647.913342618337
 10
36673.0849536066
 20
5647.913342618337
 42
0.4142135623731031
 10
36678.08495360664
 20
5652.913342618283
 10
36678.08495360664
 20
5652.913342618283
 10
36678.08495360664
 20
5652.913342618283
 42
0.4142135623731031
 10
36673.0849536066
 20
5657.913342618323
 10
36673.0849536066
 20
5657.913342618323
 10
36630.08495360656
 20
5657.913342618323
 42
0.4142135623730978
 10
36625.0849536067
 20
5652.913342618283
 10
36625.0849536067
 20
5652.913342618283
 10
36625.0849536067
 20
5652.913342618283
 42
0.4142135623730978
 10
36630.08495360656
 20
5647.913342618337
  0
ARC
  5
12B
330
1F
100
AcDbEntity
  8
FR-45
  6
Continuous
 62
    18
420
        0
 48
0.9999999962747097
370
    25
100
AcDbCircle
 10
36648.97773945912
 20
5781.581500590372
 30
0.0
 40
245.7271426676153
100
AcDbArc
 50
206.2463140442274
 51
262.6169930234702
  0
ARC
  5
12C
330
1F
100
AcDbEntity
  8
FR-45
  6
Continuous
 62
    18
420
        0
 48
0.9999999962747097
370
    25
100
AcDbCircle
 10
36617.58477204304
 20
5524.121705578235
 30
0.0
 40
2.99999999999962
100
AcDbArc
 50
180.0000000000276
 51
270.0
  0
ARC
  5
12D
330
1F
100
AcDbEntity
  8
FR-45
  6
Continuous
 62
    18
420
        0
 48
0.9999999962747097
370
    25
100
AcDbCircle
 10
36685.58477204291
 20
5524.121705578237
 30
0.0
 40
2.999999999999999
100
AcDbArc
 50
270.0
 51
0.0
  0
ARC
  5
12E
330
1F
100
AcDbEntity
  8
FR-45
  6
Continuous
 62
    18
420
        0
 48
0.9999999962747097
370
    25
100
AcDbCircle
 10
36651.2735717072
 20
5785.662406499104
 30
0.0
 40
250.1604357235298
100
AcDbArc
 50
277.9257474437466
 51
333.2109454885914
  0
ARC
  5
12F
330
1F
100
AcDbEntity
  8
FR-45
  6
Continuous
 62
    18
420
        0
 48
0.9999999962747097
370
    25
100
AcDbCircle
 10
36653.17868777625
 20
5780.886480179939
 30
0.0
 40
257.1703688367428
100
AcDbArc
 50
277.9133653497575
 51
335.1748434376287
  0
ARC
  5
130
330
1F
100
AcDbEntity
  8
FR-45
  6
Continuous
 62
    18
420
        0
 48
0.9999999962747097
370
    25
100
AcDbCircle
 10
36647.19623003264
 20
5777.115833264878
 30
0.0
 40
253.0608693833427
100
AcDbArc
 50
204.3159767389993
 51
262.5958144736415
  0
ARC
  5
131
330
1F
100
AcDbEntity
  8
FR-45
  6
Continuous
 62
    18
420
        0
 48
0.9999999962747097
370
    25
100
AcDbCircle
 10
36983.79957114818
 20
6116.520551537599
 30
0.0
 40
245.7271426676127
100
AcDbArc
 50
7.383006976504105
 51
63.75368595577302
  0
ARC
  5
132
330
1F
100
AcDbEntity
  8
FR-45
  6
Continuous
 62
    18
420
        0
 48
0.9999999962747097
370
    25
100
AcDbCircle
 10
36988.26523847367
 20
6118.302060964261
 30
0.0
 40
253.0608693833923
100
AcDbArc
 50
7.404185526332509
 51
65.6840232609985
  0
ARC
  5
133
330
1F
100
AcDbEntity
  8
FR-45
  6
Continuous
 62
    18
420
        0
 48
0.9999999962747097
370
    25
100
AcDbCircle
 10
37241.25936616032
 20
6147.913518953869
 30
0.0
 40
2.999999999999679
100
AcDbArc
 50
0.0
 51
90.0
  0
ARC
  5
134
330
1F
100
AcDbEntity
  8
FR-45
  6
Continuous
 62
    18
420
        0
 48
0.9999999962747097
370
    25
100
AcDbCircle
 10
37241.25936616032
 20
6079.913518953816
 30
0.0
 40
2.999999999999318
100
AcDbArc
 50
270.0
 51
0.0
  0
ARC
  5
135
330
1F
100
AcDbEntity
  8
FR-45
  6
Continuous
 62
    18
420
        0
 48
0.9999999962747097
370
    25
100
AcDbCircle
 10
36979.71866523944
 20
6114.224719289704
 30
0.0
 40
250.1604357235334
100
AcDbArc
 50
296.7890545114384
 51
352.0742525562277
  0
ARC
  5
136
330
1F
100
AcDbEntity
  8
FR-45
  6
Continuous
 62
    18
420
        0
 48
0.9999999962747097
370
    25
100
AcDbCircle
 10
36984.49459155861
 20
6112.319603220653
 30
0.0
 40
257.1703688367417
100
AcDbArc
 50
294.8251565623702
 51
352.0866346502685
  0
DIMENSION
  5
137
330
1F
100
AcDbEntity
  8
FR-45
  6
Continuous
 62
    18
420
        0
 48
50.00000038146973
370
    25
100
AcDbDimension
  2
*D42
 10
37227.48946809625
 20
6407.913518953967
 30
0.0
 11
37159.97859860824
 21
6448.333523042847
 31
0.0
 70
    32
 71
     5
 42
135.0217389760146
  3
ISO-25
100
AcDbAlignedDimension
 13
37092.46772912024
 23
6348.913518953951
 33
0.0
 14
37227.48946809625
 24
6113.913518953935
 34
0.0
100
AcDbRotatedDimension
1001
ACAD
1000
DSTYLE
1002
{
1070
   271
1070
     3
1070
   177
1070
    18
1070
   176
1070
    18
1070
   140
1040
40.0
1070
    76
1070
     0
1070
    75
1070
     0
1070
   282
1070
     0
1070
   281
1070
     0
1070
   174
1070
     1
1070
    42
1040
0.0
1070
    49
1040
19.9999995470047
1070
   290
1070
     1
1070
    44
1040
19.9999995470047
1070
    46
1040
0.0
1070
    41
1040
15.00000059604645
1070
   173
1070
     1
1070
   342
1005
0
1070
   344
1005
E9
1070
   343
1005
E9
1070
   147
1040
20.00000408887863
1070
    70
1070
    18
1070
    69
1070
     0
1070
   340
1005
F1
1070
   278
1070
    46
1002
}
1001
ACAD_DSTYLE_DIMEXT_ENABLED
1070
   383
1070
     1
1001
ACAD_DSTYLE_DIMEXT_LENGTH
1070
   378
1040
19.9999995470047
  0
INSERT
  5
149
330
1F
100
AcDbEntity
  8
FR-45
  6
Continuous
 62
    18
420
        0
 48
50.00000038146973
370
    25
100
AcDbBlockReference
  2
Dimension38
 10
0.0
 20
0.0
 30
0.0
  0
INSERT
  5
14D
330
1F
100
AcDbEntity
  8
FR-45
  6
Continuous
 62
    18
420
        0
 48
50.00000038146973
370
    25
100
AcDbBlockReference
  2
Dimension39
 10
0.0
 20
0.0
 30
0.0
  0
LINE
  5
14E
330
1F
100
AcDbEntity
  8
FR-45
  6
Continuous
 62
    18
420
        0
 48
120.0000033378601
370
    25
100
AcDbLine
 10
35843.34294547208
 20
5167.090313590294
 30
0.0
 11
37893.34300955899
 21
5167.090313590294
 31
0.0
  0
LINE
  5
14F
330
1F
100
AcDbEntity
  8
FR-45
  6
Continuous
 62
    18
420
        0
 48
60.00000166893005
370
    25
100
AcDbLine
 10
35928.34298972257
 20
5199.090404308564
 30
0.0
 11
37873.34267996914
 21
5199.090404308564
 31
0.0
  0
LINE
  5
150
330
1F
100
AcDbEntity
  8
FR-45
  6
Continuous
 62
    18
420
        0
 48
60.00000166893005
370
    25
100
AcDbLine
 10
35843.34294547208
 20
6602.090319693811
 30
0.0
 11
35843.34294547208
 21
5167.090313590294
 31
0.0
  0
LINE
  5
151
330
1F
100
AcDbEntity
  8
FR-45
  6
Continuous
 62
    18
420
        0
 48
60.00000166893005
370
    25
100
AcDbLine
 10
35928.34298972257
 20
6590.090276969201
 30
0.0
 11
35928.34298972257
 21
5199.090404308564
 31
0.0
  0
LINE
  5
152
330
1F
100
AcDbEntity
  8
FR-45
  6
Continuous
 62
    18
420
        0
 48
60.00000166893005
370
    25
100
AcDbLine
 10
37893.34300955899
 20
6602.090319693811
 30
0.0
 11
35843.34294547208
 21
6602.090319693811
 31
0.0
  0
LINE
  5
153
330
1F
100
AcDbEntity
  8
FR-45
  6
Continuous
 62
    18
420
        0
 48
60.00000166893005
370
    25
100
AcDbLine
 10
37873.34267996914
 20
6590.090276969201
 30
0.0
 11
35928.34298972257
 21
6590.090276969201
 31
0.0
  0
LINE
  5
154
330
1F
100
AcDbEntity
  8
FR-45
  6
Continuous
 62
    18
420
        0
 48
60.00000166893005
370
    25
100
AcDbLine
 10
37018.34294547208
 20
6590.090276969201
 30
0.0
 11
37018.34294547208
 21
6602.090319693811
 31
0.0
  0
LINE
  5
155
330
1F
100
AcDbEntity
  8
FR-45
  6
Continuous
 62
    18
420
        0
 48
60.00000166893005
370
    25
100
AcDbLine
 10
36493.34294547207
 20
6590.090276969201
 30
0.0
 11
36493.34294547207
 21
6602.090319693811
 31
0.0
  0
LINE
  5
156
330
1F
100
AcDbEntity
  8
FR-45
  6
Continuous
 62
    18
420
        0
 48
60.00000166893005
370
    25
100
AcDbLine
 10
35843.34294547208
 20
5884.590316642052
 30
0.0
 11
35903.34294547208
 21
5884.590316642052
 31
0.0
  0
LINE
  5
157
330
1F
100
AcDbEntity
  8
FR-45
  6
Continuous
 62
    18
420
        0
 48
60.00000166893005
370
    25
100
AcDbLine
 10
37893.34300955899
 20
5167.090313590294
 30
0.0
 11
37893.34300955899
 21
6602.090319693811
 31
0.0
  0
LINE
  5
158
330
1F
100
AcDbEntity
  8
FR-45
  6
Continuous
 62
    18
420
        0
 48
60.00000166893005
370
    25
100
AcDbLine
 10
37873.34267996914
 20
5199.090404308564
 30
0.0
 11
37873.34267996914
 21
6590.090276969201
 31
0.0
  0
LINE
  5
159
330
1F
100
AcDbEntity
  8
FR-45
  6
Continuous
 62
    18
420
        0
 48
907.2000518798828
370
    25
100
AcDbLine
 10
37873.34267996914
 20
5199.090404308564
 30
0.0
 11
37873.34267996914
 21
5421.840404308549
 31
0.0
  0
LINE
  5
15A
330
1F
100
AcDbEntity
  8
FR-45
  6
Continuous
 62
    18
420
        0
 48
162.0000075340271
370
    25
100
AcDbLine
 10
37626.49323061624
 20
5277.113448107044
 30
0.0
 11
37626.49443206144
 21
5281.916914969951
 31
0.0
  0
LINE
  5
15B
330
1F
100
AcDbEntity
  8
FR-45
  6
Continuous
 62
    18
420
        0
 48
162.0000075340271
370
    25
100
AcDbLine
 10
37639.76351752832
 20
5258.83525728017
 30
0.0
 11
37654.78634138632
 21
5258.834449697385
 31
0.0
  0
LINE
  5
15C
330
1F
100
AcDbEntity
  8
FR-45
  6
Continuous
 62
    18
420
        0
 48
162.0000075340271
370
    25
100
AcDbLine
 10
37654.78634138632
 20
5258.834449697385
 30
0.0
 11
37654.78647675207
 21
5263.639088739253
 31
0.0
  0
LINE
  5
15D
330
1F
100
AcDbEntity
  8
FR-45
  6
Continuous
 62
    18
420
        0
 48
162.0000075340271
370
    25
100
AcDbLine
 10
37654.78647675207
 20
5263.639088739253
 30
0.0
 11
37639.7624807381
 21
5263.638723659938
 31
0.0
  0
LINE
  5
15E
330
1F
100
AcDbEntity
  8
FR-45
  6
Continuous
 62
    18
420
        0
 48
162.0000075340271
370
    25
100
AcDbLine
 10
37634.19823726085
 20
5268.036401548681
 30
0.0
 11
37654.78669981295
 21
5268.037434760826
 31
0.0
  0
LINE
  5
15F
330
1F
100
AcDbEntity
  8
FR-45
  6
Continuous
 62
    18
420
        0
 48
162.0000075340271
370
    25
100
AcDbLine
 10
37654.78669981295
 20
5268.037434760826
 30
0.0
 11
37654.78566327578
 21
5272.839728731639
 31
0.0
  0
LINE
  5
160
330
1F
100
AcDbEntity
  8
FR-45
  6
Continuous
 62
    18
420
        0
 48
162.0000075340271
370
    25
100
AcDbLine
 10
37654.78566327578
 20
5272.839728731639
 30
0.0
 11
37634.19837310971
 21
5272.838802355131
 31
0.0
  0
LINE
  5
161
330
1F
100
AcDbEntity
  8
FR-45
  6
Continuous
 62
    18
420
        0
 48
162.0000075340271
370
    25
100
AcDbLine
 10
37639.76061107798
 20
5277.238881806841
 30
0.0
 11
37654.78705837762
 21
5277.239780328472
 31
0.0
  0
LINE
  5
162
330
1F
100
AcDbEntity
  8
FR-45
  6
Continuous
 62
    18
420
        0
 48
162.0000075340271
370
    25
100
AcDbLine
 10
37654.78705837762
 20
5277.239780328472
 30
0.0
 11
37654.78708752881
 21
5282.042714025121
 31
0.0
  0
LINE
  5
163
330
1F
100
AcDbEntity
  8
FR-45
  6
Continuous
 62
    18
420
        0
 48
162.0000075340271
370
    25
100
AcDbLine
 10
37654.78708752881
 20
5282.042714025121
 30
0.0
 11
37639.76298479418
 21
5282.042988418639
 31
0.0
  0
LINE
  5
164
330
1F
100
AcDbEntity
  8
FR-45
  6
Continuous
 62
    18
420
        0
 48
162.0000075340271
370
    25
100
AcDbLine
 10
37658.24654106006
 20
5258.861629049826
 30
0.0
 11
37663.3516364236
 21
5258.862198031068
 31
0.0
  0
LINE
  5
165
330
1F
100
AcDbEntity
  8
FR-45
  6
Continuous
 62
    18
420
        0
 48
162.0000075340271
370
    25
100
AcDbLine
 10
37663.3516364236
 20
5258.862198031068
 30
0.0
 11
37663.35227701486
 21
5277.127692216618
 31
0.0
  0
LINE
  5
166
330
1F
100
AcDbEntity
  8
FR-45
  6
Continuous
 62
    18
420
        0
 48
162.0000075340271
370
    25
100
AcDbLine
 10
37663.35227701486
 20
5277.127692216618
 30
0.0
 11
37675.80262215705
 21
5277.12696888055
 31
0.0
  0
LINE
  5
167
330
1F
100
AcDbEntity
  8
FR-45
  6
Continuous
 62
    18
420
        0
 48
162.0000075340271
370
    25
100
AcDbLine
 10
37675.90715542927
 20
5272.795366205001
 30
0.0
 11
37664.82085563869
 21
5272.792973314858
 31
0.0
  0
LINE
  5
168
330
1F
100
AcDbEntity
  8
FR-45
  6
Continuous
 62
    18
420
        0
 48
162.0000075340271
370
    25
100
AcDbLine
 10
37664.82085563869
 20
5272.792973314858
 30
0.0
 11
37664.82083131854
 21
5267.967657263981
 31
0.0
  0
LINE
  5
169
330
1F
100
AcDbEntity
  8
FR-45
  6
Continuous
 62
    18
420
        0
 48
162.0000075340271
370
    25
100
AcDbLine
 10
37664.82083131854
 20
5267.967657263981
 30
0.0
 11
37670.96073766331
 21
5267.967810105126
 31
0.0
  0
LINE
  5
16A
330
1F
100
AcDbEntity
  8
FR-45
  6
Continuous
 62
    18
420
        0
 48
162.0000075340271
370
    25
100
AcDbLine
 10
37670.96073766331
 20
5267.967810105126
 30
0.0
 11
37677.21430813976
 21
5258.861672951835
 31
0.0
  0
LINE
  5
16B
330
1F
100
AcDbEntity
  8
FR-45
  6
Continuous
 62
    18
420
        0
 48
162.0000075340271
370
    25
100
AcDbLine
 10
37677.21430813976
 20
5258.861672951835
 30
0.0
 11
37683.46815093466
 21
5258.863662290215
 31
0.0
  0
LINE
  5
16C
330
1F
100
AcDbEntity
  8
FR-45
  6
Continuous
 62
    18
420
        0
 48
162.0000075340271
370
    25
100
AcDbLine
 10
37683.46815093466
 20
5258.863662290215
 30
0.0
 11
37677.05693208221
 21
5268.028385870588
 31
0.0
  0
LINE
  5
16D
330
1F
100
AcDbEntity
  8
FR-45
  6
Continuous
 62
    18
420
        0
 48
162.0000075340271
370
    25
100
AcDbLine
 10
37675.90624926538
 20
5281.931630260321
 30
0.0
 11
37658.2473171321
 21
5281.931229364082
 31
0.0
  0
LINE
  5
16E
330
1F
100
AcDbEntity
  8
FR-45
  6
Continuous
 62
    18
420
        0
 48
162.0000075340271
370
    25
100
AcDbLine
 10
37658.2473171321
 20
5281.931229364082
 30
0.0
 11
37658.24654106006
 21
5258.861629049826
 31
0.0
  0
LINE
  5
16F
330
1F
100
AcDbEntity
  8
FR-45
  6
Continuous
 62
    18
420
        0
 48
907.2000518798828
370
    25
100
AcDbLine
 10
37499.34267996914
 20
5199.090404308564
 30
0.0
 11
37499.34267996914
 21
5311.840404308563
 31
0.0
  0
LINE
  5
170
330
1F
100
AcDbEntity
  8
FR-45
  6
Continuous
 62
    18
420
        0
 48
60.00000166893005
370
    25
100
AcDbLine
 10
37499.34267996914
 20
5311.840404308563
 30
0.0
 11
37873.34267996914
 21
5311.840404308563
 31
0.0
  0
LINE
  5
171
330
1F
100
AcDbEntity
  8
FR-45
  6
Continuous
 62
    18
420
        0
 48
162.0000075340271
370
    25
100
AcDbLine
 10
37564.85352531295
 20
5281.949121056844
 30
0.0
 11
37594.47902348336
 21
5281.95103901521
 31
0.0
  0
LINE
  5
172
330
1F
100
AcDbEntity
  8
FR-45
  6
Continuous
 62
    18
420
        0
 48
162.0000075340271
370
    25
100
AcDbLine
 10
37561.02579586407
 20
5272.69180539825
 30
0.0
 11
37598.30499387872
 21
5272.692923946423
 31
0.0
  0
LINE
  5
173
330
1F
100
AcDbEntity
  8
FR-45
  6
Continuous
 62
    18
420
        0
 48
162.0000075340271
370
    25
100
AcDbLine
 10
37597.12647009581
 20
5277.320061646959
 30
0.0
 11
37562.2057323515
 21
5277.321157476106
 31
0.0
  0
LINE
  5
174
330
1F
100
AcDbEntity
  8
FR-45
  6
Continuous
 62
    18
420
        0
 48
162.0000075340271
370
    25
100
AcDbLine
 10
37562.20765046019
 20
5263.496536291221
 30
0.0
 11
37597.12604251224
 21
5263.499490096235
 31
0.0
  0
LINE
  5
175
330
1F
100
AcDbEntity
  8
FR-45
  6
Continuous
 62
    18
420
        0
 48
162.0000075340271
370
    25
100
AcDbLine
 10
37598.30597874661
 20
5268.130014583093
 30
0.0
 11
37561.02678098502
 21
5268.127723625917
 31
0.0
  0
LINE
  5
176
330
1F
100
AcDbEntity
  8
FR-45
  6
Continuous
 62
    18
420
        0
 48
162.0000075340271
370
    25
100
AcDbLine
 10
37594.48059475993
 20
5258.869715116754
 30
0.0
 11
37564.85264477474
 21
5258.869715116754
 31
0.0
  0
LINE
  5
177
330
1F
100
AcDbEntity
  8
FR-45
  6
Continuous
 62
    18
420
        0
 48
162.0000075340271
370
    25
100
AcDbLine
 10
37601.24444516813
 20
5258.826943243086
 30
0.0
 11
37619.62046557348
 21
5258.82621992536
 31
0.0
  0
LINE
  5
178
330
1F
100
AcDbEntity
  8
FR-45
  6
Continuous
 62
    18
420
        0
 48
162.0000075340271
370
    25
100
AcDbLine
 10
37619.61862657943
 20
5272.778100804378
 30
0.0
 11
37608.11921160543
 21
5272.779668887092
 31
0.0
  0
LINE
  5
179
330
1F
100
AcDbEntity
  8
FR-45
  6
Continuous
 62
    18
420
        0
 48
162.0000075340271
370
    25
100
AcDbLine
 10
37608.01467810316
 20
5277.11233738901
 30
0.0
 11
37626.49323061624
 21
5277.113448107044
 31
0.0
  0
LINE
  5
17A
330
1F
100
AcDbEntity
  8
FR-45
  6
Continuous
 62
    18
420
        0
 48
162.0000075340271
370
    25
100
AcDbLine
 10
37626.49443206144
 20
5281.916914969951
 30
0.0
 11
37608.01481358393
 21
5281.916443517717
 31
0.0
  0
LINE
  5
17B
330
1F
100
AcDbEntity
  8
FR-45
  6
Continuous
 62
    18
420
        0
 48
162.0000075340271
370
    25
100
AcDbLine
 10
37608.01665057654
 20
5267.973835328361
 30
0.0
 11
37619.51606704586
 21
5267.965339374081
 31
0.0
  0
LINE
  5
17C
330
1F
100
AcDbEntity
  8
FR-45
  6
Continuous
 62
    18
420
        0
 48
162.0000075340271
370
    25
100
AcDbLine
 10
37619.61942850719
 20
5263.630965296856
 30
0.0
 11
37601.24458090197
 21
5263.629876962744
 31
0.0
  0
LINE
  5
17D
330
1F
100
AcDbEntity
  8
FR-45
  6
Continuous
 62
    18
420
        0
 48
162.0000075340271
370
    25
100
AcDbLine
 10
37601.24458090197
 20
5263.629876962744
 30
0.0
 11
37601.24444516813
 21
5258.826943243086
 31
0.0
  0
LINE
  5
17E
330
1F
100
AcDbEntity
  8
FR-45
  6
Continuous
 62
    18
420
        0
 48
162.0000075340271
370
    25
100
AcDbLine
 10
37528.78092980648
 20
5258.830274277101
 30
0.0
 11
37528.7788475612
 21
5278.847133882579
 31
0.0
  0
LINE
  5
17F
330
1F
100
AcDbEntity
  8
FR-45
  6
Continuous
 62
    18
420
        0
 48
162.0000075340271
370
    25
100
AcDbLine
 10
37534.89306360325
 20
5280.346685815657
 30
0.0
 11
37543.08955973944
 21
5266.6543971046
 31
0.0
  0
LINE
  5
180
330
1F
100
AcDbEntity
  8
FR-45
  6
Continuous
 62
    18
420
        0
 48
162.0000075340271
370
    25
100
AcDbLine
 10
37543.08955973944
 20
5266.6543971046
 30
0.0
 11
37551.28462159778
 21
5280.346706576536
 31
0.0
  0
LINE
  5
181
330
1F
100
AcDbEntity
  8
FR-45
  6
Continuous
 62
    18
420
        0
 48
162.0000075340271
370
    25
100
AcDbLine
 10
37557.39724651261
 20
5278.848194970715
 30
0.0
 11
37557.39932878089
 21
5258.831228782605
 31
0.0
  0
LINE
  5
182
330
1F
100
AcDbEntity
  8
FR-45
  6
Continuous
 62
    18
420
        0
 48
162.0000075340271
370
    25
100
AcDbLine
 10
37557.39932878089
 20
5258.831228782605
 30
0.0
 11
37552.39090373301
 21
5258.831320162776
 31
0.0
  0
LINE
  5
183
330
1F
100
AcDbEntity
  8
FR-45
  6
Continuous
 62
    18
420
        0
 48
162.0000075340271
370
    25
100
AcDbLine
 10
37552.39090373301
 20
5258.831320162776
 30
0.0
 11
37552.39033505736
 21
5272.329585582732
 31
0.0
  0
LINE
  5
184
330
1F
100
AcDbEntity
  8
FR-45
  6
Continuous
 62
    18
420
        0
 48
162.0000075340271
370
    25
100
AcDbLine
 10
37552.39033505736
 20
5272.329585582732
 30
0.0
 11
37545.70021084028
 21
5261.149327530167
 31
0.0
  0
LINE
  5
185
330
1F
100
AcDbEntity
  8
FR-45
  6
Continuous
 62
    18
420
        0
 48
162.0000075340271
370
    25
100
AcDbLine
 10
37540.47894063016
 20
5261.147667647072
 30
0.0
 11
37533.78867984915
 21
5272.327275884875
 31
0.0
  0
LINE
  5
186
330
1F
100
AcDbEntity
  8
FR-45
  6
Continuous
 62
    18
420
        0
 48
162.0000075340271
370
    25
100
AcDbLine
 10
37533.78867984915
 20
5272.327275884875
 30
0.0
 11
37533.78818256037
 21
5258.829649730718
 31
0.0
  0
LINE
  5
187
330
1F
100
AcDbEntity
  8
FR-45
  6
Continuous
 62
    18
420
        0
 48
162.0000075340271
370
    25
100
AcDbLine
 10
37533.78818256037
 20
5258.829649730718
 30
0.0
 11
37528.78092980648
 21
5258.830274277101
 31
0.0
  0
LINE
  5
188
330
1F
100
AcDbEntity
  8
FR-45
  6
Continuous
 62
    18
420
        0
 48
60.00000166893005
370
    25
100
AcDbLine
 10
37499.34267996914
 20
5199.090404308564
 30
0.0
 11
37873.34267996914
 21
5199.090404308564
 31
0.0
  0
LINE
  5
189
330
1F
100
AcDbEntity
  8
FR-45
  6
Continuous
 62
    18
420
        0
 48
60.00000166893005
370
    25
100
AcDbLine
 10
37018.34294547208
 20
5199.090404308564
 30
0.0
 11
37018.34294547208
 21
5189.566794404792
 31
0.0
  0
LINE
  5
18A
330
1F
100
AcDbEntity
  8
FR-45
  6
Continuous
 62
    18
420
        0
 48
60.00000166893005
370
    25
100
AcDbLine
 10
36493.34294547207
 20
5199.090404308564
 30
0.0
 11
36493.34294547207
 21
5189.566794404792
 31
0.0
  0
TEXT
  5
18C
330
1F
100
AcDbEntity
  8
FR-45
  6
Continuous
 62
    18
420
        0
 48
907.2000518798828
370
    25
100
AcDbText
 10
37731.05548345045
 20
5271.51857398336
 30
0.0
 40
19.2
  1
Moser GmbH
 41
0.8125
  7
HLV-L
100
AcDbText
  0
TEXT
  5
18D
330
1F
100
AcDbEntity
  8
FR-45
  6
Continuous
 62
    18
420
        0
 48
907.2000518798828
370
    25
100
AcDbText
 10
37731.05548345045
 20
5250.893594608357
 30
0.0
 40
19.2
  1
Im Mühlegrün 13
 41
0.8125
  7
HLV-L
100
AcDbText
  0
TEXT
  5
18E
330
1F
100
AcDbEntity
  8
FR-45
  6
Continuous
 62
    18
420
        0
 48
907.2000518798828
370
    25
100
AcDbText
 10
37731.05548345045
 20
5230.268615233354
 30
0.0
 40
19.2
  1
77716 Haslach
 41
0.8125
  7
HLV-L
100
AcDbText
  0
TEXT
  5
18F
330
1F
100
AcDbEntity
  8
FR-45
  6
Continuous
 62
    18
420
        0
 48
907.2000518798828
370
    25
100
AcDbText
 10
37731.05548345045
 20
5209.643635858351
 30
0.0
 40
19.2
  1
www.moser.gmbh
 41
0.8125
  7
HLV-L
100
AcDbText
  0
TEXT
  5
190
330
1F
100
AcDbEntity
  8
FR-45
  6
Continuous
 62
    18
420
        0
 48
41.66666698455811
370
    25
100
AcDbText
 10
37500.64788680336
 20
5352.56618077585
 30
0.0
 40
40.0
  1
FR-45
 41
0.8125
  7
ARIAL
100
AcDbText
  0
TEXT
  5
192
330
1F
100
AcDbEntity
  8
FR-45
  6
Continuous
 62
    18
420
        0
 48
16.94687619209289
370
    25
100
AcDbText
 10
37527.57851645712
 20
5219.953132542435
 30
0.0
 40
10.86419914340973
  1
Mineralwerkstoffe
 41
0.8125
  7
HELV-HFT
100
AcDbText
  0
ARC
  5
193
330
1F
100
AcDbEntity
  8
FR-45
  6
Continuous
 62
    18
420
        0
 48
162.0000075340271
370
    25
100
AcDbCircle
 10
37640.10356660373
 20
5269.789258926743
 30
0.0
 40
6.159985684698854
100
AcDbArc
 50
196.5322763668595
 51
266.8258399252684
  0
ARC
  5
194
330
1F
100
AcDbEntity
  8
FR-45
  6
Continuous
 62
    18
420
        0
 48
162.0000075340271
370
    25
100
AcDbCircle
 10
37640.10440347734
 20
5271.088572333459
 30
0.0
 40
6.159910700022881
100
AcDbArc
 50
93.19941229080888
 51
163.4930068869733
  0
ARC
  5
195
330
1F
100
AcDbEntity
  8
FR-45
  6
Continuous
 62
    18
420
        0
 48
162.0000075340271
370
    25
100
AcDbCircle
 10
37639.5960156711
 20
5271.235756942488
 30
0.0
 40
10.80852121557775
100
AcDbArc
 50
89.11486442915214
 51
136.5283713875412
  0
ARC
  5
196
330
1F
100
AcDbEntity
  8
FR-45
  6
Continuous
 62
    18
420
        0
 48
162.0000075340271
370
    25
100
AcDbCircle
 10
37640.46842356569
 20
5271.137501467199
 30
0.0
 40
11.52138668666262
100
AcDbArc
 50
139.1595473476376
 51
183.4766818662686
  0
ARC
  5
197
330
1F
100
AcDbEntity
  8
FR-45
  6
Continuous
 62
    18
420
        0
 48
162.0000075340271
370
    25
100
AcDbCircle
 10
37640.46863080376
 20
5269.740285667564
 30
0.0
 40
11.52158436746095
100
AcDbArc
 50
176.524131797716
 51
220.8411051562426
  0
ARC
  5
198
330
1F
100
AcDbEntity
  8
FR-45
  6
Continuous
 62
    18
420
        0
 48
162.0000075340271
370
    25
100
AcDbCircle
 10
37639.59558390026
 20
5269.642618128667
 30
0.0
 40
10.80866551491736
100
AcDbArc
 50
223.4768675460051
 51
270.890237122227
  0
ARC
  5
199
330
1F
100
AcDbEntity
  8
FR-45
  6
Continuous
 62
    18
420
        0
 48
162.0000075340271
370
    25
100
AcDbCircle
 10
37675.56178776135
 20
5274.954094223223
 30
0.0
 40
2.1861805695457
100
AcDbArc
 50
279.0895312176578
 51
83.67533595583697
  0
ARC
  5
19A
330
1F
100
AcDbEntity
  8
FR-45
  6
Continuous
 62
    18
420
        0
 48
162.0000075340271
370
    25
100
AcDbCircle
 10
37676.16963072577
 20
5274.336025406727
 30
0.0
 40
6.369742554848708
100
AcDbArc
 50
278.0073079506266
 51
5.5724659307728
  0
ARC
  5
19B
330
1F
100
AcDbEntity
  8
FR-45
  6
Continuous
 62
    18
420
        0
 48
162.0000075340271
370
    25
100
AcDbCircle
 10
37676.1712043875
 20
5275.56933223187
 30
0.0
 40
6.367812608690389
100
AcDbArc
 50
354.4597953776651
 51
92.38467978670954
  0
ARC
  5
19C
330
1F
100
AcDbEntity
  8
FR-45
  6
Continuous
 62
    18
420
        0
 48
162.0000075340271
370
    25
100
AcDbCircle
 10
37579.66702146074
 20
5270.410673690583
 30
0.0
 40
18.77699219107415
100
AcDbArc
 50
37.92296160428956
 51
142.0844570673053
  0
ARC
  5
19D
330
1F
100
AcDbEntity
  8
FR-45
  6
Continuous
 62
    18
420
        0
 48
162.0000075340271
370
    25
100
AcDbCircle
 10
37579.66424084998
 20
5270.406257498165
 30
0.0
 40
18.77805529591665
100
AcDbArc
 50
158.3926594911939
 51
173.0089805633546
  0
ARC
  5
19E
330
1F
100
AcDbEntity
  8
FR-45
  6
Continuous
 62
    18
420
        0
 48
162.0000075340271
370
    25
100
AcDbCircle
 10
37579.67592239826
 20
5270.411785222374
 30
0.0
 40
18.76821510166431
100
AcDbArc
 50
6.981142041195775
 51
21.59749032313828
  0
ARC
  5
19F
330
1F
100
AcDbEntity
  8
FR-45
  6
Continuous
 62
    18
420
        0
 48
162.0000075340271
370
    25
100
AcDbCircle
 10
37579.67294952931
 20
5270.41601733412
 30
0.0
 40
18.78605571899046
100
AcDbArc
 50
186.9964645332866
 51
201.6127039760919
  0
ARC
  5
1A0
330
1F
100
AcDbEntity
  8
FR-45
  6
Continuous
 62
    18
420
        0
 48
162.0000075340271
370
    25
100
AcDbCircle
 10
37579.66296301062
 20
5270.414975292115
 30
0.0
 40
18.78252062887421
100
AcDbArc
 50
338.3961344461489
 51
353.0124555183089
  0
ARC
  5
1A1
330
1F
100
AcDbEntity
  8
FR-45
  6
Continuous
 62
    18
420
        0
 48
162.0000075340271
370
    25
100
AcDbCircle
 10
37579.66661976733
 20
5270.409984835822
 30
0.0
 40
18.77848982931697
100
AcDbArc
 50
217.9190317150156
 51
322.080968284981
  0
ARC
  5
1A2
330
1F
100
AcDbEntity
  8
FR-45
  6
Continuous
 62
    18
420
        0
 48
162.0000075340271
370
    25
100
AcDbCircle
 10
37619.81098860539
 20
5265.802185598873
 30
0.0
 40
6.978566908999228
100
AcDbArc
 50
268.4355638780455
 51
91.57954040753705
  0
ARC
  5
1A3
330
1F
100
AcDbEntity
  8
FR-45
  6
Continuous
 62
    18
420
        0
 48
162.0000075340271
370
    25
100
AcDbCircle
 10
37608.36003971846
 20
5274.953074584354
 30
0.0
 40
2.18670768621505
100
AcDbArc
 50
99.08716097409976
 51
263.6770323931472
  0
ARC
  5
1A4
330
1F
100
AcDbEntity
  8
FR-45
  6
Continuous
 62
    18
420
        0
 48
162.0000075340271
370
    25
100
AcDbCircle
 10
37607.82443458252
 20
5274.945114218859
 30
0.0
 40
6.973928330402003
100
AcDbArc
 50
88.4357068181466
 51
271.5793910633276
  0
ARC
  5
1A5
330
1F
100
AcDbEntity
  8
FR-45
  6
Continuous
 62
    18
420
        0
 48
162.0000075340271
370
    25
100
AcDbCircle
 10
37619.27451187596
 20
5265.791159563142
 30
0.0
 40
2.187557256506918
100
AcDbArc
 50
279.0717992648641
 51
83.660338375626
  0
ARC
  5
1A6
330
1F
100
AcDbEntity
  8
FR-45
  6
Continuous
 62
    18
420
        0
 48
162.0000075340271
370
    25
100
AcDbCircle
 10
37532.00229808917
 20
5278.918671235308
 30
0.0
 40
3.224244236886124
100
AcDbArc
 50
26.28899618675848
 51
181.2713443682091
  0
ARC
  5
1A7
330
1F
100
AcDbEntity
  8
FR-45
  6
Continuous
 62
    18
420
        0
 48
162.0000075340271
370
    25
100
AcDbCircle
 10
37554.17467952929
 20
5278.919276808704
 30
0.0
 40
3.223350832532582
100
AcDbArc
 50
358.7364020576941
 51
153.7147532945831
  0
ARC
  5
1A8
330
1F
100
AcDbEntity
  8
FR-45
  6
Continuous
 62
    18
420
        0
 48
162.0000075340271
370
    25
100
AcDbCircle
 10
37543.08919831823
 20
5262.335687256701
 30
0.0
 40
2.867897451272214
100
AcDbArc
 50
204.4719426219853
 51
335.5644869397248
  0
INSERT
  5
1AD
330
1F
100
AcDbEntity
  8
SPICY 9910
  6
Continuous
 62
    18
420
        0
 48
50.00000038146973
370
    25
100
AcDbBlockReference
  2
Dimension40
 10
0.0
 20
0.0
 30
0.0
  0
INSERT
  5
1B1
330
1F
100
AcDbEntity
  8
SPICY 9910
  6
Continuous
 62
    18
420
        0
 48
50.00000038146973
370
    25
100
AcDbBlockReference
  2
Dimension41
 10
0.0
 20
0.0
 30
0.0
  0
INSERT
  5
1B5
330
1F
100
AcDbEntity
  8
SPICY 9910
  6
Continuous
 62
    18
420
        0
 48
50.00000038146973
370
    25
100
AcDbBlockReference
  2
Dimension42
 10
0.0
 20
0.0
 30
0.0
  0
INSERT
  5
1B9
330
1F
100
AcDbEntity
  8
SPICY 9910
  6
Continuous
 62
    18
420
        0
 48
50.00000038146973
370
    25
100
AcDbBlockReference
  2
Dimension43
 10
0.0
 20
0.0
 30
0.0
  0
INSERT
  5
1BD
330
1F
100
AcDbEntity
  8
SPICY 9910
  6
Continuous
 62
    18
420
        0
 48
50.00000038146973
370
    25
100
AcDbBlockReference
  2
Dimension44
 10
0.0
 20
0.0
 30
0.0
  0
INSERT
  5
1C1
330
1F
100
AcDbEntity
  8
SPICY 9910
  6
Continuous
 62
    18
420
        0
 48
50.00000038146973
370
    25
100
AcDbBlockReference
  2
Dimension45
 10
0.0
 20
0.0
 30
0.0
  0
INSERT
  5
1C5
330
1F
100
AcDbEntity
  8
SPICY 9910
  6
Continuous
 62
    18
420
        0
 48
50.00000038146973
370
    25
100
AcDbBlockReference
  2
Dimension46
 10
0.0
 20
0.0
 30
0.0
  0
INSERT
  5
1C9
330
1F
100
AcDbEntity
  8
SPICY 9910
  6
Continuous
 62
    18
420
        0
 48
50.00000038146973
370
    25
100
AcDbBlockReference
  2
Dimension47
 10
0.0
 20
0.0
 30
0.0
  0
INSERT
  5
1CD
330
1F
100
AcDbEntity
  8
SPICY 9910
  6
Continuous
 62
    18
420
        0
 48
50.00000038146973
370
    25
100
AcDbBlockReference
  2
Dimension48
 10
0.0
 20
0.0
 30
0.0
  0
INSERT
  5
1D1
330
1F
100
AcDbEntity
  8
SPICY 9910
  6
Continuous
 62
    18
420
        0
 48
50.00000038146973
370
    25
100
AcDbBlockReference
  2
Dimension49
 10
0.0
 20
0.0
 30
0.0
  0
INSERT
  5
1D5
330
1F
100
AcDbEntity
  8
SPICY 9910
  6
Continuous
 62
    18
420
        0
 48
50.00000038146973
370
    25
100
AcDbBlockReference
  2
Dimension50
 10
0.0
 20
0.0
 30
0.0
  0
INSERT
  5
1D9
330
1F
100
AcDbEntity
  8
SPICY 9910
  6
Continuous
 62
    18
420
        0
 48
50.00000038146973
370
    25
100
AcDbBlockReference
  2
Dimension51
 10
0.0
 20
0.0
 30
0.0
  0
INSERT
  5
1DD
330
1F
100
AcDbEntity
  8
SPICY 9910
  6
Continuous
 62
    18
420
        0
 48
50.00000038146973
370
    25
100
AcDbBlockReference
  2
Dimension52
 10
0.0
 20
0.0
 30
0.0
  0
INSERT
  5
1E1
330
1F
100
AcDbEntity
  8
SPICY 9910
  6
Continuous
 62
    18
420
        0
 48
50.00000038146973
370
    25
100
AcDbBlockReference
  2
Dimension53
 10
0.0
 20
0.0
 30
0.0
  0
INSERT
  5
1E5
330
1F
100
AcDbEntity
  8
SPICY 9910
  6
Continuous
 62
    18
420
        0
 48
50.00000038146973
370
    25
100
AcDbBlockReference
  2
Dimension54
 10
0.0
 20
0.0
 30
0.0
  0
INSERT
  5
1EA
330
1F
100
AcDbEntity
  8
SPICY 9920
  6
Continuous
 62
    18
420
        0
 48
50.00000038146973
370
    25
100
AcDbBlockReference
  2
Dimension55
 10
0.0
 20
0.0
 30
0.0
  0
INSERT
  5
1EE
330
1F
100
AcDbEntity
  8
SPICY 9920
  6
Continuous
 62
    18
420
        0
 48
50.00000038146973
370
    25
100
AcDbBlockReference
  2
Dimension56
 10
0.0
 20
0.0
 30
0.0
  0
INSERT
  5
1F2
330
1F
100
AcDbEntity
  8
SPICY 9920
  6
Continuous
 62
    18
420
        0
 48
50.00000038146973
370
    25
100
AcDbBlockReference
  2
Dimension57
 10
0.0
 20
0.0
 30
0.0
  0
INSERT
  5
1F6
330
1F
100
AcDbEntity
  8
SPICY 9920
  6
Continuous
 62
    18
420
        0
 48
50.00000038146973
370
    25
100
AcDbBlockReference
  2
Dimension58
 10
0.0
 20
0.0
 30
0.0
  0
INSERT
  5
1FA
330
1F
100
AcDbEntity
  8
SPICY 9920
  6
Continuous
 62
    18
420
        0
 48
50.00000038146973
370
    25
100
AcDbBlockReference
  2
Dimension59
 10
0.0
 20
0.0
 30
0.0
  0
INSERT
  5
1FE
330
1F
100
AcDbEntity
  8
SPICY 9920
  6
Continuous
 62
    18
420
        0
 48
50.00000038146973
370
    25
100
AcDbBlockReference
  2
Dimension60
 10
0.0
 20
0.0
 30
0.0
  0
INSERT
  5
202
330
1F
100
AcDbEntity
  8
SPICY 9920
  6
Continuous
 62
    18
420
        0
 48
50.00000038146973
370
    25
100
AcDbBlockReference
  2
Dimension61
 10
0.0
 20
0.0
 30
0.0
  0
INSERT
  5
206
330
1F
100
AcDbEntity
  8
SPICY 9920
  6
Continuous
 62
    18
420
        0
 48
50.00000038146973
370
    25
100
AcDbBlockReference
  2
Dimension62
 10
0.0
 20
0.0
 30
0.0
  0
INSERT
  5
20A
330
1F
100
AcDbEntity
  8
SPICY 9920
  6
Continuous
 62
    18
420
        0
 48
50.00000038146973
370
    25
100
AcDbBlockReference
  2
Dimension63
 10
0.0
 20
0.0
 30
0.0
  0
INSERT
  5
20E
330
1F
100
AcDbEntity
  8
SPICY 9920
  6
Continuous
 62
    18
420
        0
 48
50.00000038146973
370
    25
100
AcDbBlockReference
  2
Dimension64
 10
0.0
 20
0.0
 30
0.0
  0
INSERT
  5
212
330
1F
100
AcDbEntity
  8
SPICY 9920
  6
Continuous
 62
    18
420
        0
 48
50.00000038146973
370
    25
100
AcDbBlockReference
  2
Dimension65
 10
0.0
 20
0.0
 30
0.0
  0
INSERT
  5
216
330
1F
100
AcDbEntity
  8
SPICY 9920
  6
Continuous
 62
    18
420
        0
 48
50.00000038146973
370
    25
100
AcDbBlockReference
  2
Dimension66
 10
0.0
 20
0.0
 30
0.0
  0
INSERT
  5
21A
330
1F
100
AcDbEntity
  8
SPICY 9920
  6
Continuous
 62
    18
420
        0
 48
50.00000038146973
370
    25
100
AcDbBlockReference
  2
Dimension67
 10
0.0
 20
0.0
 30
0.0
  0
INSERT
  5
21E
330
1F
100
AcDbEntity
  8
SPICY 9920
  6
Continuous
 62
    18
420
        0
 48
50.00000038146973
370
    25
100
AcDbBlockReference
  2
Dimension68
 10
0.0
 20
0.0
 30
0.0
  0
INSERT
  5
222
330
1F
100
AcDbEntity
  8
SPICY 9920
  6
Continuous
 62
    18
420
        0
 48
50.00000038146973
370
    25
100
AcDbBlockReference
  2
Dimension69
 10
0.0
 20
0.0
 30
0.0
  0
INSERT
  5
226
330
1F
100
AcDbEntity
  8
SPICY 9920
  6
Continuous
 62
    18
420
        0
 48
50.00000038146973
370
    25
100
AcDbBlockReference
  2
Dimension70
 10
0.0
 20
0.0
 30
0.0
  0
INSERT
  5
22A
330
1F
100
AcDbEntity
  8
SPICY 9920
  6
Continuous
 62
    18
420
        0
 48
50.00000038146973
370
    25
100
AcDbBlockReference
  2
Dimension71
 10
0.0
 20
0.0
 30
0.0
  0
INSERT
  5
22E
330
1F
100
AcDbEntity
  8
SPICY 9920
  6
Continuous
 62
    18
420
        0
 48
50.00000038146973
370
    25
100
AcDbBlockReference
  2
Dimension72
 10
0.0
 20
0.0
 30
0.0
  0
INSERT
  5
232
330
1F
100
AcDbEntity
  8
SPICY 9920
  6
Continuous
 62
    18
420
        0
 48
50.00000038146973
370
    25
100
AcDbBlockReference
  2
Dimension73
 10
0.0
 20
0.0
 30
0.0
  0
INSERT
  5
236
330
1F
100
AcDbEntity
  8
SPICY 9920
  6
Continuous
 62
    18
420
        0
 48
50.00000038146973
370
    25
100
AcDbBlockReference
  2
Dimension74
 10
0.0
 20
0.0
 30
0.0
  0
INSERT
  5
23A
330
1F
100
AcDbEntity
  8
SPICY 9920
  6
Continuous
 62
    18
420
        0
 48
50.00000038146973
370
    25
100
AcDbBlockReference
  2
Dimension75
 10
0.0
 20
0.0
 30
0.0
  0
INSERT
  5
23E
330
1F
100
AcDbEntity
  8
SPICY 9920
  6
Continuous
 62
    18
420
        0
 48
50.00000038146973
370
    25
100
AcDbBlockReference
  2
Dimension76
 10
0.0
 20
0.0
 30
0.0
  0
INSERT
  5
242
330
1F
100
AcDbEntity
  8
SPICY 9920
  6
Continuous
 62
    18
420
        0
 48
50.00000038146973
370
    25
100
AcDbBlockReference
  2
Dimension77
 10
0.0
 20
0.0
 30
0.0
  0
INSERT
  5
247
330
1F
100
AcDbEntity
  8
SALTY 9410
  6
Continuous
 62
    18
420
        0
 48
50.00000038146973
370
    25
100
AcDbBlockReference
  2
Dimension78
 10
0.0
 20
0.0
 30
0.0
  0
INSERT
  5
24B
330
1F
100
AcDbEntity
  8
SALTY 9410
  6
Continuous
 62
    18
420
        0
 48
50.00000038146973
370
    25
100
AcDbBlockReference
  2
Dimension79
 10
0.0
 20
0.0
 30
0.0
  0
INSERT
  5
24F
330
1F
100
AcDbEntity
  8
SALTY 9410
  6
Continuous
 62
    18
420
        0
 48
50.00000038146973
370
    25
100
AcDbBlockReference
  2
Dimension80
 10
0.0
 20
0.0
 30
0.0
  0
INSERT
  5
253
330
1F
100
AcDbEntity
  8
SALTY 9410
  6
Continuous
 62
    18
420
        0
 48
50.00000038146973
370
    25
100
AcDbBlockReference
  2
Dimension81
 10
0.0
 20
0.0
 30
0.0
  0
INSERT
  5
257
330
1F
100
AcDbEntity
  8
SALTY 9410
  6
Continuous
 62
    18
420
        0
 48
50.00000038146973
370
    25
100
AcDbBlockReference
  2
Dimension82
 10
0.0
 20
0.0
 30
0.0
  0
INSERT
  5
25B
330
1F
100
AcDbEntity
  8
SALTY 9410
  6
Continuous
 62
    18
420
        0
 48
50.00000038146973
370
    25
100
AcDbBlockReference
  2
Dimension83
 10
0.0
 20
0.0
 30
0.0
  0
INSERT
  5
25F
330
1F
100
AcDbEntity
  8
SALTY 9410
  6
Continuous
 62
    18
420
        0
 48
50.00000038146973
370
    25
100
AcDbBlockReference
  2
Dimension84
 10
0.0
 20
0.0
 30
0.0
  0
INSERT
  5
263
330
1F
100
AcDbEntity
  8
SALTY 9410
  6
Continuous
 62
    18
420
        0
 48
50.00000038146973
370
    25
100
AcDbBlockReference
  2
Dimension85
 10
0.0
 20
0.0
 30
0.0
  0
INSERT
  5
267
330
1F
100
AcDbEntity
  8
SALTY 9410
  6
Continuous
 62
    18
420
        0
 48
50.00000038146973
370
    25
100
AcDbBlockReference
  2
Dimension86
 10
0.0
 20
0.0
 30
0.0
  0
INSERT
  5
26B
330
1F
100
AcDbEntity
  8
SALTY 9410
  6
Continuous
 62
    18
420
        0
 48
50.00000038146973
370
    25
100
AcDbBlockReference
  2
Dimension87
 10
0.0
 20
0.0
 30
0.0
  0
INSERT
  5
26F
330
1F
100
AcDbEntity
  8
SALTY 9410
  6
Continuous
 62
    18
420
        0
 48
50.00000038146973
370
    25
100
AcDbBlockReference
  2
Dimension88
 10
0.0
 20
0.0
 30
0.0
  0
INSERT
  5
273
330
1F
100
AcDbEntity
  8
SALTY 9410
  6
Continuous
 62
    18
420
        0
 48
50.00000038146973
370
    25
100
AcDbBlockReference
  2
Dimension89
 10
0.0
 20
0.0
 30
0.0
  0
INSERT
  5
277
330
1F
100
AcDbEntity
  8
SALTY 9410
  6
Continuous
 62
    18
420
        0
 48
50.00000038146973
370
    25
100
AcDbBlockReference
  2
Dimension90
 10
0.0
 20
0.0
 30
0.0
  0
INSERT
  5
27B
330
1F
100
AcDbEntity
  8
SALTY 9410
  6
Continuous
 62
    18
420
        0
 48
50.00000038146973
370
    25
100
AcDbBlockReference
  2
Dimension91
 10
0.0
 20
0.0
 30
0.0
  0
INSERT
  5
27F
330
1F
100
AcDbEntity
  8
SALTY 9410
  6
Continuous
 62
    18
420
        0
 48
50.00000038146973
370
    25
100
AcDbBlockReference
  2
Dimension92
 10
0.0
 20
0.0
 30
0.0
  0
INSERT
  5
283
330
1F
100
AcDbEntity
  8
SALTY 9410
  6
Continuous
 62
    18
420
        0
 48
50.00000038146973
370
    25
100
AcDbBlockReference
  2
Dimension93
 10
0.0
 20
0.0
 30
0.0
  0
INSERT
  5
287
330
1F
100
AcDbEntity
  8
SALTY 9410
  6
Continuous
 62
    18
420
        0
 48
50.00000038146973
370
    25
100
AcDbBlockReference
  2
Dimension94
 10
0.0
 20
0.0
 30
0.0
  0
INSERT
  5
28B
330
1F
100
AcDbEntity
  8
SALTY 9410
  6
Continuous
 62
    18
420
        0
 48
50.00000038146973
370
    25
100
AcDbBlockReference
  2
Dimension95
 10
0.0
 20
0.0
 30
0.0
  0
INSERT
  5
28F
330
1F
100
AcDbEntity
  8
SALTY 9410
  6
Continuous
 62
    18
420
        0
 48
50.00000038146973
370
    25
100
AcDbBlockReference
  2
Dimension96
 10
0.0
 20
0.0
 30
0.0
  0
INSERT
  5
293
330
1F
100
AcDbEntity
  8
SALTY 9410
  6
Continuous
 62
    18
420
        0
 48
50.00000038146973
370
    25
100
AcDbBlockReference
  2
Dimension97
 10
0.0
 20
0.0
 30
0.0
  0
INSERT
  5
297
330
1F
100
AcDbEntity
  8
SALTY 9410
  6
Continuous
 62
    18
420
        0
 48
50.00000038146973
370
    25
100
AcDbBlockReference
  2
Dimension98
 10
0.0
 20
0.0
 30
0.0
  0
INSERT
  5
29B
330
1F
100
AcDbEntity
  8
SALTY 9410
  6
Continuous
 62
    18
420
        0
 48
50.00000038146973
370
    25
100
AcDbBlockReference
  2
Dimension99
 10
0.0
 20
0.0
 30
0.0
  0
INSERT
  5
29F
330
1F
100
AcDbEntity
  8
SALTY 9410
  6
Continuous
 62
    18
420
        0
 48
50.00000038146973
370
    25
100
AcDbBlockReference
  2
Dimension100
 10
0.0
 20
0.0
 30
0.0
  0
INSERT
  5
2A4
330
1F
100
AcDbEntity
  8
TASTY 9610
  6
Continuous
 62
    18
420
        0
 48
50.00000038146973
370
    25
100
AcDbBlockReference
  2
Dimension101
 10
0.0
 20
0.0
 30
0.0
  0
INSERT
  5
2A8
330
1F
100
AcDbEntity
  8
TASTY 9610
  6
Continuous
 62
    18
420
        0
 48
50.00000038146973
370
    25
100
AcDbBlockReference
  2
Dimension102
 10
0.0
 20
0.0
 30
0.0
  0
INSERT
  5
2AC
330
1F
100
AcDbEntity
  8
TASTY 9610
  6
Continuous
 62
    18
420
        0
 48
50.00000038146973
370
    25
100
AcDbBlockReference
  2
Dimension103
 10
0.0
 20
0.0
 30
0.0
  0
INSERT
  5
2B0
330
1F
100
AcDbEntity
  8
TASTY 9610
  6
Continuous
 62
    18
420
        0
 48
50.00000038146973
370
    25
100
AcDbBlockReference
  2
Dimension104
 10
0.0
 20
0.0
 30
0.0
  0
INSERT
  5
2B4
330
1F
100
AcDbEntity
  8
TASTY 9610
  6
Continuous
 62
    18
420
        0
 48
50.00000038146973
370
    25
100
AcDbBlockReference
  2
Dimension105
 10
0.0
 20
0.0
 30
0.0
  0
INSERT
  5
2B8
330
1F
100
AcDbEntity
  8
TASTY 9610
  6
Continuous
 62
    18
420
        0
 48
50.00000038146973
370
    25
100
AcDbBlockReference
  2
Dimension106
 10
0.0
 20
0.0
 30
0.0
  0
INSERT
  5
2BC
330
1F
100
AcDbEntity
  8
TASTY 9610
  6
Continuous
 62
    18
420
        0
 48
50.00000038146973
370
    25
100
AcDbBlockReference
  2
Dimension107
 10
0.0
 20
0.0
 30
0.0
  0
INSERT
  5
2C0
330
1F
100
AcDbEntity
  8
TASTY 9610
  6
Continuous
 62
    18
420
        0
 48
50.00000038146973
370
    25
100
AcDbBlockReference
  2
Dimension108
 10
0.0
 20
0.0
 30
0.0
  0
INSERT
  5
2C4
330
1F
100
AcDbEntity
  8
TASTY 9610
  6
Continuous
 62
    18
420
        0
 48
50.00000038146973
370
    25
100
AcDbBlockReference
  2
Dimension109
 10
0.0
 20
0.0
 30
0.0
  0
INSERT
  5
2C8
330
1F
100
AcDbEntity
  8
TASTY 9610
  6
Continuous
 62
    18
420
        0
 48
50.00000038146973
370
    25
100
AcDbBlockReference
  2
Dimension110
 10
0.0
 20
0.0
 30
0.0
  0
INSERT
  5
2CC
330
1F
100
AcDbEntity
  8
TASTY 9610
  6
Continuous
 62
    18
420
        0
 48
50.00000038146973
370
    25
100
AcDbBlockReference
  2
Dimension111
 10
0.0
 20
0.0
 30
0.0
  0
INSERT
  5
2D0
330
1F
100
AcDbEntity
  8
TASTY 9610
  6
Continuous
 62
    18
420
        0
 48
50.00000038146973
370
    25
100
AcDbBlockReference
  2
Dimension112
 10
0.0
 20
0.0
 30
0.0
  0
INSERT
  5
2D4
330
1F
100
AcDbEntity
  8
TASTY 9610
  6
Continuous
 62
    18
420
        0
 48
50.00000038146973
370
    25
100
AcDbBlockReference
  2
Dimension113
 10
0.0
 20
0.0
 30
0.0
  0
INSERT
  5
2D8
330
1F
100
AcDbEntity
  8
TASTY 9610
  6
Continuous
 62
    18
420
        0
 48
50.00000038146973
370
    25
100
AcDbBlockReference
  2
Dimension114
 10
0.0
 20
0.0
 30
0.0
  0
INSERT
  5
2DC
330
1F
100
AcDbEntity
  8
TASTY 9610
  6
Continuous
 62
    18
420
        0
 48
50.00000038146973
370
    25
100
AcDbBlockReference
  2
Dimension115
 10
0.0
 20
0.0
 30
0.0
  0
INSERT
  5
2E0
330
1F
100
AcDbEntity
  8
TASTY 9610
  6
Continuous
 62
    18
420
        0
 48
50.00000038146973
370
    25
100
AcDbBlockReference
  2
Dimension116
 10
0.0
 20
0.0
 30
0.0
  0
INSERT
  5
2E4
330
1F
100
AcDbEntity
  8
TASTY 9610
  6
Continuous
 62
    18
420
        0
 48
50.00000038146973
370
    25
100
AcDbBlockReference
  2
Dimension117
 10
0.0
 20
0.0
 30
0.0
  0
INSERT
  5
2E8
330
1F
100
AcDbEntity
  8
TASTY 9610
  6
Continuous
 62
    18
420
        0
 48
50.00000038146973
370
    25
100
AcDbBlockReference
  2
Dimension118
 10
0.0
 20
0.0
 30
0.0
  0
INSERT
  5
2EC
330
1F
100
AcDbEntity
  8
TASTY 9610
  6
Continuous
 62
    18
420
        0
 48
50.00000038146973
370
    25
100
AcDbBlockReference
  2
Dimension119
 10
0.0
 20
0.0
 30
0.0
  0
INSERT
  5
2F0
330
1F
100
AcDbEntity
  8
TASTY 9610
  6
Continuous
 62
    18
420
        0
 48
50.00000038146973
370
    25
100
AcDbBlockReference
  2
Dimension120
 10
0.0
 20
0.0
 30
0.0
  0
INSERT
  5
2F4
330
1F
100
AcDbEntity
  8
TASTY 9610
  6
Continuous
 62
    18
420
        0
 48
50.00000038146973
370
    25
100
AcDbBlockReference
  2
Dimension121
 10
0.0
 20
0.0
 30
0.0
  0
INSERT
  5
2F9
330
1F
100
AcDbEntity
  8
ROUNDED 9310
  6
Continuous
 62
    18
420
        0
 48
50.00000038146973
370
    25
100
AcDbBlockReference
  2
Dimension122
 10
0.0
 20
0.0
 30
0.0
  0
INSERT
  5
2FD
330
1F
100
AcDbEntity
  8
ROUNDED 9310
  6
Continuous
 62
    18
420
        0
 48
50.00000038146973
370
    25
100
AcDbBlockReference
  2
Dimension123
 10
0.0
 20
0.0
 30
0.0
  0
INSERT
  5
301
330
1F
100
AcDbEntity
  8
ROUNDED 9310
  6
Continuous
 62
    18
420
        0
 48
50.00000038146973
370
    25
100
AcDbBlockReference
  2
Dimension124
 10
0.0
 20
0.0
 30
0.0
  0
INSERT
  5
305
330
1F
100
AcDbEntity
  8
ROUNDED 9310
  6
Continuous
 62
    18
420
        0
 48
50.00000038146973
370
    25
100
AcDbBlockReference
  2
Dimension125
 10
0.0
 20
0.0
 30
0.0
  0
INSERT
  5
309
330
1F
100
AcDbEntity
  8
ROUNDED 9310
  6
Continuous
 62
    18
420
        0
 48
50.00000038146973
370
    25
100
AcDbBlockReference
  2
Dimension126
 10
0.0
 20
0.0
 30
0.0
  0
INSERT
  5
30D
330
1F
100
AcDbEntity
  8
ROUNDED 9310
  6
Continuous
 62
    18
420
        0
 48
50.00000038146973
370
    25
100
AcDbBlockReference
  2
Dimension127
 10
0.0
 20
0.0
 30
0.0
  0
INSERT
  5
311
330
1F
100
AcDbEntity
  8
ROUNDED 9310
  6
Continuous
 62
    18
420
        0
 48
50.00000038146973
370
    25
100
AcDbBlockReference
  2
Dimension128
 10
0.0
 20
0.0
 30
0.0
  0
INSERT
  5
315
330
1F
100
AcDbEntity
  8
ROUNDED 9310
  6
Continuous
 62
    18
420
        0
 48
50.00000038146973
370
    25
100
AcDbBlockReference
  2
Dimension129
 10
0.0
 20
0.0
 30
0.0
  0
INSERT
  5
319
330
1F
100
AcDbEntity
  8
ROUNDED 9310
  6
Continuous
 62
    18
420
        0
 48
50.00000038146973
370
    25
100
AcDbBlockReference
  2
Dimension130
 10
0.0
 20
0.0
 30
0.0
  0
INSERT
  5
31D
330
1F
100
AcDbEntity
  8
ROUNDED 9310
  6
Continuous
 62
    18
420
        0
 48
50.00000038146973
370
    25
100
AcDbBlockReference
  2
Dimension131
 10
0.0
 20
0.0
 30
0.0
  0
INSERT
  5
321
330
1F
100
AcDbEntity
  8
ROUNDED 9310
  6
Continuous
 62
    18
420
        0
 48
50.00000038146973
370
    25
100
AcDbBlockReference
  2
Dimension132
 10
0.0
 20
0.0
 30
0.0
  0
INSERT
  5
325
330
1F
100
AcDbEntity
  8
ROUNDED 9310
  6
Continuous
 62
    18
420
        0
 48
50.00000038146973
370
    25
100
AcDbBlockReference
  2
Dimension133
 10
0.0
 20
0.0
 30
0.0
  0
INSERT
  5
329
330
1F
100
AcDbEntity
  8
ROUNDED 9310
  6
Continuous
 62
    18
420
        0
 48
50.00000038146973
370
    25
100
AcDbBlockReference
  2
Dimension134
 10
0.0
 20
0.0
 30
0.0
  0
ENDSEC
  0
SECTION
  2
OBJECTS
  0
DICTIONARY
  5
C
330
0
100
AcDbDictionary
281
     1
  3
ACAD_GROUP
350
D
  3
ACAD_LAYOUT
350
1A
  3
ACAD_MATERIAL
350
3B
  3
ACAD_MLEADERSTYLE
350
353
  3
ACAD_MLINESTYLE
350
17
  3
ACAD_PLOTSETTINGS
350
19
  3
ACAD_PLOTSTYLENAME
350
E
  3
ACAD_TABLESTYLE
350
352
  3
ACAD_VISUALSTYLE
350
2A
  0
DICTIONARY
  5
D
102
{ACAD_REACTORS
330
C
102
}
330
C
100
AcDbDictionary
281
     1
  0
DICTIONARY
  5
1A
102
{ACAD_REACTORS
330
C
102
}
330
C
100
AcDbDictionary
281
     1
  3
Layout1
350
1E
  3
Layout2
350
26
  3
Model
350
22
  0
DICTIONARY
  5
3B
102
{ACAD_REACTORS
330
C
102
}
330
C
100
AcDbDictionary
281
     1
  3
ByBlock
350
3D
  3
ByLayer
350
3C
  3
Global
350
3E
  0
DICTIONARY
  5
353
102
{ACAD_REACTORS
330
C
102
}
330
C
100
AcDbDictionary
281
     1
  0
DICTIONARY
  5
17
102
{ACAD_REACTORS
330
C
102
}
330
C
100
AcDbDictionary
281
     1
  3
Standard
350
18
  0
DICTIONARY
  5
19
102
{ACAD_REACTORS
330
C
102
}
330
C
100
AcDbDictionary
281
     1
  0
ACDBDICTIONARYWDFLT
  5
E
102
{ACAD_REACTORS
330
C
102
}
330
C
100
AcDbDictionary
281
     1
  3
Normal
350
F
100
AcDbDictionaryWithDefault
340
F
  0
DICTIONARY
  5
352
102
{ACAD_REACTORS
330
C
102
}
330
C
100
AcDbDictionary
281
     1
  0
DICTIONARY
  5
2A
102
{ACAD_REACTORS
330
C
102
}
330
C
100
AcDbDictionary
281
     1
  3
2dWireframe
350
2F
  3
3D Hidden
350
31
  3
3dWireframe
350
30
  3
Basic
350
32
  3
Brighten
350
36
  3
ColorChange
350
3A
  3
Conceptual
350
34
  3
Dim
350
35
  3
Facepattern
350
39
  3
Flat
350
2B
  3
FlatWithEdges
350
2C
  3
Gouraud
350
2D
  3
GouraudWithEdges
350
2E
  3
Linepattern
350
38
  3
Realistic
350
33
  3
Thicken
350
37
  0
LAYOUT
  5
1E
102
{ACAD_REACTORS
330
1A
102
}
330
1A
100
AcDbPlotSettings
  1

  2
none_device
  4

  6

 40
0.0
 41
0.0
 42
0.0
 43
0.0
 44
0.0
 45
0.0
 46
0.0
 47
0.0
 48
0.0
 49
0.0
140
0.0
141
0.0
142
1.0
143
1.0
 70
   688
 72
     0
 73
     0
 74
     5
  7

 75
    16
 76
     0
 77
     2
 78
   300
147
1.0
148
0.0
149
0.0
100
AcDbLayout
  1
Layout1
 70
     1
 71
     1
 10
0.0
 20
0.0
 11
420.0
 21
297.0
 12
0.0
 22
0.0
 32
0.0
 14
1.000000000000000E+20
 24
1.000000000000000E+20
 34
1.000000000000000E+20
 15
-1.000000000000000E+20
 25
-1.000000000000000E+20
 35
-1.000000000000000E+20
146
0.0
 13
0.0
 23
0.0
 33
0.0
 16
1.0
 26
0.0
 36
0.0
 17
0.0
 27
1.0
 37
0.0
 76
     0
330
1B
  0
LAYOUT
  5
26
102
{ACAD_REACTORS
330
1A
102
}
330
1A
100
AcDbPlotSettings
  1

  2
none_device
  4

  6

 40
0.0
 41
0.0
 42
0.0
 43
0.0
 44
0.0
 45
0.0
 46
0.0
 47
0.0
 48
0.0
 49
0.0
140
0.0
141
0.0
142
1.0
143
1.0
 70
   688
 72
     0
 73
     0
 74
     5
  7

 75
    16
 76
     0
 77
     2
 78
   300
147
1.0
148
0.0
149
0.0
100
AcDbLayout
  1
Layout2
 70
     1
 71
     2
 10
0.0
 20
0.0
 11
0.0
 21
0.0
 12
0.0
 22
0.0
 32
0.0
 14
0.0
 24
0.0
 34
0.0
 15
0.0
 25
0.0
 35
0.0
146
0.0
 13
0.0
 23
0.0
 33
0.0
 16
1.0
 26
0.0
 36
0.0
 17
0.0
 27
1.0
 37
0.0
 76
     0
330
23
  0
LAYOUT
  5
22
102
{ACAD_REACTORS
330
1A
102
}
330
1A
100
AcDbPlotSettings
  1

  2
none_device
  4

  6

 40
0.0
 41
0.0
 42
0.0
 43
0.0
 44
0.0
 45
0.0
 46
0.0
 47
0.0
 48
0.0
 49
0.0
140
0.0
141
0.0
142
1.0
143
1.0
 70
  1712
 72
     0
 73
     0
 74
     0
  7

 75
     0
 76
     0
 77
     2
 78
   300
147
1.0
148
0.0
149
0.0
100
AcDbLayout
  1
Model
 70
     1
 71
     0
 10
0.0
 20
0.0
 11
420.0
 21
297.0
 12
0.0
 22
0.0
 32
0.0
 14
72387.75524404547
 24
10903.18063023235
 34
0.0
 15
74478.26778202386
 25
12338.18063633586
 35
0.0
146
0.0
 13
0.0
 23
0.0
 33
0.0
 16
1.0
 26
0.0
 36
0.0
 17
0.0
 27
1.0
 37
0.0
 76
     0
330
1F
331
29
  0
MATERIAL
  5
3D
102
{ACAD_REACTORS
330
3B
102
}
102
{ACAD_XDICTIONARY
360
34E
102
}
330
3B
100
AcDbMaterial
  1
ByBlock
  0
MATERIAL
  5
3C
102
{ACAD_REACTORS
330
3B
102
}
102
{ACAD_XDICTIONARY
360
34C
102
}
330
3B
100
AcDbMaterial
  1
ByLayer
  0
MATERIAL
  5
3E
102
{ACAD_REACTORS
330
3B
102
}
102
{ACAD_XDICTIONARY
360
350
102
}
330
3B
100
AcDbMaterial
  1
Global
  0
MLINESTYLE
  5
18
102
{ACAD_REACTORS
330
17
102
}
330
17
100
AcDbMlineStyle
  2
Standard
 70
     0
  3

 62
   256
 51
90.0
 52
90.0
 71
     2
 49
0.5
 62
   256
  6
BYLAYER
 49
-0.5
 62
   256
  6
BYLAYER
  0
ACDBPLACEHOLDER
  5
F
102
{ACAD_REACTORS
330
E
102
}
330
E
  0
VISUALSTYLE
  5
2F
102
{ACAD_REACTORS
330
2A
102
}
102
{ACAD_XDICTIONARY
360
334
102
}
330
2A
100
AcDbVisualStyle
  2
2dWireframe
 70
     4
 71
     0
 72
     2
 73
     0
 90
        0
 40
-0.6
 41
-30.0
 62
     5
 63
     7
421
 16777215
 74
     1
 91
        4
 64
     7
 65
   257
 75
     1
175
     1
 42
1.0
 92
        0
 66
   257
 43
1.0
 76
     1
 77
     6
 78
     2
 67
     7
 79
     5
170
     0
171
     0
290
     0
174
     0
 93
        1
 44
0.0
173
     0
291
     0
 45
0.0
1001
ACAD
1000
AcDbSavedByObjectVersion
1070
     0
  0
VISUALSTYLE
  5
31
102
{ACAD_REACTORS
330
2A
102
}
102
{ACAD_XDICTIONARY
360
338
102
}
330
2A
100
AcDbVisualStyle
  2
3D Hidden
 70
     6
 71
     1
 72
     2
 73
     2
 90
        0
 40
-0.6
 41
-30.0
 62
     5
 63
     7
421
 16777215
 74
     2
 91
        2
 64
     7
 65
   257
 75
     2
175
     1
 42
40.0
 92
        0
 66
   257
 43
1.0
 76
     1
 77
     6
 78
     2
 67
     7
 79
     3
170
     0
171
     0
290
     0
174
     0
 93
        1
 44
0.0
173
     0
291
     0
 45
0.0
1001
ACAD
1000
AcDbSavedByObjectVersion
1070
     0
  0
VISUALSTYLE
  5
30
102
{ACAD_REACTORS
330
2A
102
}
102
{ACAD_XDICTIONARY
360
336
102
}
330
2A
100
AcDbVisualStyle
  2
3dWireframe
 70
     5
 71
     0
 72
     2
 73
     0
 90
        0
 40
-0.6
 41
-30.0
 62
     5
 63
     7
421
 16777215
 74
     1
 91
        4
 64
     7
 65
   257
 75
     1
175
     1
 42
1.0
 92
        0
 66
   257
 43
1.0
 76
     1
 77
     6
 78
     2
 67
     7
 79
     5
170
     0
171
     0
290
     0
174
     0
 93
        1
 44
0.0
173
     0
291
     0
 45
0.0
1001
ACAD
1000
AcDbSavedByObjectVersion
1070
     0
  0
VISUALSTYLE
  5
32
102
{ACAD_REACTORS
330
2A
102
}
102
{ACAD_XDICTIONARY
360
33A
102
}
330
2A
100
AcDbVisualStyle
  2
Basic
 70
     7
 71
     1
 72
     0
 73
     1
 90
        0
 40
-0.6
 41
-30.0
 62
     5
 63
     7
421
 16777215
 74
     0
 91
        4
 64
     7
 65
   257
 75
     1
175
     1
 42
1.0
 92
        8
 66
     7
 43
1.0
 76
     1
 77
     6
 78
     2
 67
     7
 79
     5
170
     0
171
     0
290
     0
174
     0
 93
        1
 44
0.0
173
     0
291
     1
 45
0.0
1001
ACAD
1000
AcDbSavedByObjectVersion
1070
     0
  0
VISUALSTYLE
  5
36
102
{ACAD_REACTORS
330
2A
102
}
102
{ACAD_XDICTIONARY
360
342
102
}
330
2A
100
AcDbVisualStyle
  2
Brighten
 70
    12
 71
     2
 72
     2
 73
     0
 90
        0
 40
-0.6
 41
-30.0
 62
     5
 63
     7
421
 16777215
 74
     1
 91
        4
 64
     7
 65
   257
 75
     1
175
     1
 42
1.0
 92
        8
 66
     7
 43
1.0
 76
     1
 77
     6
 78
     2
 67
     7
 79
     5
170
     0
171
     0
290
     0
174
     0
 93
        1
 44
50.0
173
     0
291
     1
 45
0.0
1001
ACAD
1000
AcDbSavedByObjectVersion
1070
     0
  0
VISUALSTYLE
  5
3A
102
{ACAD_REACTORS
330
2A
102
}
102
{ACAD_XDICTIONARY
360
34A
102
}
330
2A
100
AcDbVisualStyle
  2
ColorChange
 70
    16
 71
     2
 72
     2
 73
     3
 90
        0
 40
-0.6
 41
-30.0
 62
     5
 63
     8
421
  8421504
 74
     1
 91
        4
 64
     7
 65
   257
 75
     1
175
     1
 42
1.0
 92
        8
 66
     8
424
  8421504
 43
1.0
 76
     1
 77
     6
 78
     2
 67
     7
 79
     5
170
     0
171
     0
290
     0
174
     0
 93
        1
 44
0.0
173
     0
291
     1
 45
0.0
1001
ACAD
1000
AcDbSavedByObjectVersion
1070
     0
  0
VISUALSTYLE
  5
34
102
{ACAD_REACTORS
330
2A
102
}
102
{ACAD_XDICTIONARY
360
33E
102
}
330
2A
100
AcDbVisualStyle
  2
Conceptual
 70
     9
 71
     3
 72
     2
 73
     0
 90
        0
 40
-0.6
 41
-30.0
 62
     5
 63
     7
421
 16777215
 74
     2
 91
        2
 64
     7
 65
   257
 75
     1
175
     1
 42
40.0
 92
        8
 66
     7
 43
1.0
 76
     1
 77
     6
 78
     2
 67
     7
 79
     3
170
     0
171
     0
290
     0
174
     0
 93
        1
 44
0.0
173
     0
291
     0
 45
0.0
1001
ACAD
1000
AcDbSavedByObjectVersion
1070
     0
  0
VISUALSTYLE
  5
35
102
{ACAD_REACTORS
330
2A
102
}
102
{ACAD_XDICTIONARY
360
340
102
}
330
2A
100
AcDbVisualStyle
  2
Dim
 70
    11
 71
     2
 72
     2
 73
     0
 90
        0
 40
-0.6
 41
-30.0
 62
     5
 63
     7
421
 16777215
 74
     1
 91
        4
 64
     7
 65
   257
 75
     1
175
     1
 42
1.0
 92
        8
 66
     7
 43
1.0
 76
     1
 77
     6
 78
     2
 67
     7
 79
     5
170
     0
171
     0
290
     0
174
     0
 93
        1
 44
-50.0
173
     0
291
     1
 45
0.0
1001
ACAD
1000
AcDbSavedByObjectVersion
1070
     0
  0
VISUALSTYLE
  5
39
102
{ACAD_REACTORS
330
2A
102
}
102
{ACAD_XDICTIONARY
360
348
102
}
330
2A
100
AcDbVisualStyle
  2
Facepattern
 70
    15
 71
     2
 72
     2
 73
     0
 90
        0
 40
-0.6
 41
-30.0
 62
     5
 63
     7
421
 16777215
 74
     1
 91
        4
 64
     7
 65
   257
 75
     1
175
     1
 42
1.0
 92
        8
 66
     7
 43
1.0
 76
     1
 77
     6
 78
     2
 67
     7
 79
     5
170
     0
171
     0
290
     0
174
     0
 93
        1
 44
0.0
173
     0
291
     1
 45
0.0
1001
ACAD
1000
AcDbSavedByObjectVersion
1070
     0
  0
VISUALSTYLE
  5
2B
102
{ACAD_REACTORS
330
2A
102
}
102
{ACAD_XDICTIONARY
360
32C
102
}
330
2A
100
AcDbVisualStyle
  2
Flat
 70
     0
 71
     2
 72
     1
 73
     1
 90
        2
 40
-0.6
 41
30.0
 62
     5
 63
     7
421
 16777215
 74
     0
 91
        4
 64
     7
 65
   257
 75
     1
175
     1
 42
1.0
 92
        8
 66
     7
 43
1.0
 76
     1
 77
     6
 78
     2
 67
     7
 79
     5
170
     0
171
     0
290
     0
174
     0
 93
       13
 44
0.0
173
     0
291
     1
 45
0.0
1001
ACAD
1000
AcDbSavedByObjectVersion
1070
     0
  0
VISUALSTYLE
  5
2C
102
{ACAD_REACTORS
330
2A
102
}
102
{ACAD_XDICTIONARY
360
32E
102
}
330
2A
100
AcDbVisualStyle
  2
FlatWithEdges
 70
     1
 71
     2
 72
     1
 73
     1
 90
        2
 40
-0.6
 41
30.0
 62
     5
 63
     7
421
 16777215
 74
     1
 91
        4
 64
     7
 65
   257
 75
     1
175
     1
 42
1.0
 92
        0
 66
   257
 43
1.0
 76
     1
 77
     6
 78
     2
 67
     7
 79
     5
170
     0
171
     0
290
     0
174
     0
 93
       13
 44
0.0
173
     0
291
     1
 45
0.0
1001
ACAD
1000
AcDbSavedByObjectVersion
1070
     0
  0
VISUALSTYLE
  5
2D
102
{ACAD_REACTORS
330
2A
102
}
102
{ACAD_XDICTIONARY
360
330
102
}
330
2A
100
AcDbVisualStyle
  2
Gouraud
 70
     2
 71
     2
 72
     2
 73
     1
 90
        2
 40
-0.6
 41
30.0
 62
     5
 63
     7
421
 16777215
 74
     0
 91
        4
 64
     7
 65
   257
 75
     1
175
     1
 42
1.0
 92
        0
 66
     7
 43
1.0
 76
     1
 77
     6
 78
     2
 67
     7
 79
     5
170
     0
171
     0
290
     0
174
     0
 93
       13
 44
0.0
173
     0
291
     1
 45
0.0
1001
ACAD
1000
AcDbSavedByObjectVersion
1070
     0
  0
VISUALSTYLE
  5
2E
102
{ACAD_REACTORS
330
2A
102
}
102
{ACAD_XDICTIONARY
360
332
102
}
330
2A
100
AcDbVisualStyle
  2
GouraudWithEdges
 70
     3
 71
     2
 72
     2
 73
     1
 90
        2
 40
-0.6
 41
30.0
 62
     5
 63
     7
421
 16777215
 74
     1
 91
        4
 64
     7
 65
   257
 75
     1
175
     1
 42
1.0
 92
        0
 66
   257
 43
1.0
 76
     1
 77
     6
 78
     2
 67
     7
 79
     5
170
     0
171
     0
290
     0
174
     0
 93
       13
 44
0.0
173
     0
291
     1
 45
0.0
1001
ACAD
1000
AcDbSavedByObjectVersion
1070
     0
  0
VISUALSTYLE
  5
38
102
{ACAD_REACTORS
330
2A
102
}
102
{ACAD_XDICTIONARY
360
346
102
}
330
2A
100
AcDbVisualStyle
  2
Linepattern
 70
    14
 71
     2
 72
     2
 73
     0
 90
        0
 40
-0.6
 41
-30.0
 62
     5
 63
     7
421
 16777215
 74
     1
 91
        4
 64
     7
 65
   257
 75
     7
175
     7
 42
1.0
 92
        8
 66
     7
 43
1.0
 76
     1
 77
     6
 78
     2
 67
     7
 79
     5
170
     0
171
     0
290
     0
174
     0
 93
        1
 44
0.0
173
     0
291
     1
 45
0.0
1001
ACAD
1000
AcDbSavedByObjectVersion
1070
     0
  0
VISUALSTYLE
  5
33
102
{ACAD_REACTORS
330
2A
102
}
102
{ACAD_XDICTIONARY
360
33C
102
}
330
2A
100
AcDbVisualStyle
  2
Realistic
 70
     8
 71
     2
 72
     2
 73
     0
 90
        0
 40
-0.6
 41
-30.0
 62
     5
 63
     7
421
 16777215
 74
     1
 91
        0
 64
     7
 65
   257
 75
     1
175
     1
 42
1.0
 92
        8
 66
     8
424
  7895160
 43
1.0
 76
     1
 77
     6
 78
     2
 67
     7
 79
     5
170
     0
171
     0
290
     0
174
     0
 93
       13
 44
0.0
173
     0
291
     0
 45
0.0
1001
ACAD
1000
AcDbSavedByObjectVersion
1070
     0
  0
VISUALSTYLE
  5
37
102
{ACAD_REACTORS
330
2A
102
}
102
{ACAD_XDICTIONARY
360
344
102
}
330
2A
100
AcDbVisualStyle
  2
Thicken
 70
    13
 71
     2
 72
     2
 73
     0
 90
        0
 40
-0.6
 41
-30.0
 62
     5
 63
     7
421
 16777215
 74
     1
 91
        4
 64
     7
 65
   257
 75
     1
175
     1
 42
1.0
 92
       12
 66
     7
 43
1.0
 76
     1
 77
     6
 78
     2
 67
     7
 79
     5
170
     0
171
     0
290
     0
174
     0
 93
        1
 44
0.0
173
     0
291
     1
 45
0.0
1001
ACAD
1000
AcDbSavedByObjectVersion
1070
     0
  0
DICTIONARY
  5
34E
330
3D
100
AcDbDictionary
280
     1
281
     1
  3
ACAD_XREC_ROUNDTRIP
360
34F
  0
DICTIONARY
  5
34C
330
3C
100
AcDbDictionary
280
     1
281
     1
  3
ACAD_XREC_ROUNDTRIP
360
34D
  0
DICTIONARY
  5
350
330
3E
100
AcDbDictionary
280
     1
281
     1
  3
ACAD_XREC_ROUNDTRIP
360
351
  0
DICTIONARY
  5
334
330
2F
100
AcDbDictionary
280
     1
281
     1
  3
ACAD_XREC_ROUNDTRIP
360
335
  0
DICTIONARY
  5
338
330
31
100
AcDbDictionary
280
     1
281
     1
  3
ACAD_XREC_ROUNDTRIP
360
339
  0
DICTIONARY
  5
336
330
30
100
AcDbDictionary
280
     1
281
     1
  3
ACAD_XREC_ROUNDTRIP
360
337
  0
DICTIONARY
  5
33A
330
32
100
AcDbDictionary
280
     1
281
     1
  3
ACAD_XREC_ROUNDTRIP
360
33B
  0
DICTIONARY
  5
342
330
36
100
AcDbDictionary
280
     1
281
     1
  3
ACAD_XREC_ROUNDTRIP
360
343
  0
DICTIONARY
  5
34A
330
3A
100
AcDbDictionary
280
     1
281
     1
  3
ACAD_XREC_ROUNDTRIP
360
34B
  0
DICTIONARY
  5
33E
330
34
100
AcDbDictionary
280
     1
281
     1
  3
ACAD_XREC_ROUNDTRIP
360
33F
  0
DICTIONARY
  5
340
330
35
100
AcDbDictionary
280
     1
281
     1
  3
ACAD_XREC_ROUNDTRIP
360
341
  0
DICTIONARY
  5
348
330
39
100
AcDbDictionary
280
     1
281
     1
  3
ACAD_XREC_ROUNDTRIP
360
349
  0
DICTIONARY
  5
32C
330
2B
100
AcDbDictionary
280
     1
281
     1
  3
ACAD_XREC_ROUNDTRIP
360
32D
  0
DICTIONARY
  5
32E
330
2C
100
AcDbDictionary
280
     1
281
     1
  3
ACAD_XREC_ROUNDTRIP
360
32F
  0
DICTIONARY
  5
330
330
2D
100
AcDbDictionary
280
     1
281
     1
  3
ACAD_XREC_ROUNDTRIP
360
331
  0
DICTIONARY
  5
332
330
2E
100
AcDbDictionary
280
     1
281
     1
  3
ACAD_XREC_ROUNDTRIP
360
333
  0
DICTIONARY
  5
346
330
38
100
AcDbDictionary
280
     1
281
     1
  3
ACAD_XREC_ROUNDTRIP
360
347
  0
DICTIONARY
  5
33C
330
33
100
AcDbDictionary
280
     1
281
     1
  3
ACAD_XREC_ROUNDTRIP
360
33D
  0
DICTIONARY
  5
344
330
37
100
AcDbDictionary
280
     1
281
     1
  3
ACAD_XREC_ROUNDTRIP
360
345
  0
XRECORD
  5
34F
102
{ACAD_REACTORS
330
34E
102
}
330
34E
100
AcDbXrecord
280
     1
102
MATERIAL
148
0.0
149
0.0
149
0.0
 93
        0
 94
      127
282
     0
 72
     1
 77
     1
171
     1
175
     1
179
     1
273
     0
  0
XRECORD
  5
34D
102
{ACAD_REACTORS
330
34C
102
}
330
34C
100
AcDbXrecord
280
     1
102
MATERIAL
148
0.0
149
0.0
149
0.0
 93
        0
 94
      127
282
     0
 72
     1
 77
     1
171
     1
175
     1
179
     1
273
     0
  0
XRECORD
  5
351
102
{ACAD_REACTORS
330
350
102
}
330
350
100
AcDbXrecord
280
     1
102
MATERIAL
148
0.0
149
0.0
149
0.0
 93
        0
 94
      127
282
     0
 72
     1
 77
     1
171
     1
175
     1
179
     1
273
     0
  0
XRECORD
  5
335
102
{ACAD_REACTORS
330
334
102
}
330
334
100
AcDbXrecord
280
     1
102
RTVSPropertyOp0
 70
     1
102
RTVSPropertyOp1
 70
     1
102
RTVSPropertyOp2
 70
     1
102
RTVSPropertyOp3
 70
     1
102
RTVSPropertyOp4
 70
     1
102
RTVSPropertyOp5
 70
     1
102
RTVSPropertyOp6
 70
     1
102
RTVSPropertyOp7
 70
     1
102
RTVSPropertyOp8
 70
     1
102
RTVSPropertyOp9
 70
     1
102
RTVSPropertyOp10
 70
     1
102
RTVSPropertyOp11
 70
     1
102
RTVSPropertyOp12
 70
     1
102
RTVSPropertyOp13
 70
     1
102
RTVSPropertyOp14
 70
     1
102
RTVSPropertyOp15
 70
     1
102
RTVSPropertyOp16
 70
     1
102
RTVSPropertyOp17
 70
     1
102
RTVSPropertyOp18
 70
     1
102
RTVSPropertyOp19
 70
     1
102
RTVSPropertyOp20
 70
     1
102
RTVSPropertyOp21
 70
     1
102
RTVSPropertyOp22
 70
     1
102
RTVSPropertyOp23
 70
     1
102
RTVSPropertyOp24
 70
     1
102
RTVSPropertyOp25
 70
     1
102
RTVSPropertyOp26
 70
     1
102
RTVSPropertyOp27
 70
     1
  0
XRECORD
  5
339
102
{ACAD_REACTORS
330
338
102
}
330
338
100
AcDbXrecord
280
     1
102
RTVSPropertyOp0
 70
     1
102
RTVSPropertyOp1
 70
     1
102
RTVSPropertyOp2
 70
     1
102
RTVSPropertyOp3
 70
     1
102
RTVSPropertyOp4
 70
     1
102
RTVSPropertyOp5
 70
     1
102
RTVSPropertyOp6
 70
     1
102
RTVSPropertyOp7
 70
     1
102
RTVSPropertyOp8
 70
     1
102
RTVSPropertyOp9
 70
     1
102
RTVSPropertyOp10
 70
     1
102
RTVSPropertyOp11
 70
     1
102
RTVSPropertyOp12
 70
     1
102
RTVSPropertyOp13
 70
     1
102
RTVSPropertyOp14
 70
     1
102
RTVSPropertyOp15
 70
     1
102
RTVSPropertyOp16
 70
     1
102
RTVSPropertyOp17
 70
     1
102
RTVSPropertyOp18
 70
     1
102
RTVSPropertyOp19
 70
     1
102
RTVSPropertyOp20
 70
     1
102
RTVSPropertyOp21
 70
     1
102
RTVSPropertyOp22
 70
     1
102
RTVSPropertyOp23
 70
     1
102
RTVSPropertyOp24
 70
     1
102
RTVSPropertyOp25
 70
     1
102
RTVSPropertyOp26
 70
     1
102
RTVSPropertyOp27
 70
     1
  0
XRECORD
  5
337
102
{ACAD_REACTORS
330
336
102
}
330
336
100
AcDbXrecord
280
     1
102
RTVSPropertyOp0
 70
     1
102
RTVSPropertyOp1
 70
     1
102
RTVSPropertyOp2
 70
     1
102
RTVSPropertyOp3
 70
     1
102
RTVSPropertyOp4
 70
     1
102
RTVSPropertyOp5
 70
     1
102
RTVSPropertyOp6
 70
     1
102
RTVSPropertyOp7
 70
     1
102
RTVSPropertyOp8
 70
     1
102
RTVSPropertyOp9
 70
     1
102
RTVSPropertyOp10
 70
     1
102
RTVSPropertyOp11
 70
     1
102
RTVSPropertyOp12
 70
     1
102
RTVSPropertyOp13
 70
     1
102
RTVSPropertyOp14
 70
     1
102
RTVSPropertyOp15
 70
     1
102
RTVSPropertyOp16
 70
     1
102
RTVSPropertyOp17
 70
     1
102
RTVSPropertyOp18
 70
     1
102
RTVSPropertyOp19
 70
     1
102
RTVSPropertyOp20
 70
     1
102
RTVSPropertyOp21
 70
     1
102
RTVSPropertyOp22
 70
     1
102
RTVSPropertyOp23
 70
     1
102
RTVSPropertyOp24
 70
     1
102
RTVSPropertyOp25
 70
     1
102
RTVSPropertyOp26
 70
     1
102
RTVSPropertyOp27
 70
     1
  0
XRECORD
  5
33B
102
{ACAD_REACTORS
330
33A
102
}
330
33A
100
AcDbXrecord
280
     1
102
RTVSPropertyOp0
 70
     1
102
RTVSPropertyOp1
 70
     1
102
RTVSPropertyOp2
 70
     1
102
RTVSPropertyOp3
 70
     1
102
RTVSPropertyOp4
 70
     1
102
RTVSPropertyOp5
 70
     1
102
RTVSPropertyOp6
 70
     1
102
RTVSPropertyOp7
 70
     1
102
RTVSPropertyOp8
 70
     1
102
RTVSPropertyOp9
 70
     1
102
RTVSPropertyOp10
 70
     1
102
RTVSPropertyOp11
 70
     1
102
RTVSPropertyOp12
 70
     1
102
RTVSPropertyOp13
 70
     1
102
RTVSPropertyOp14
 70
     1
102
RTVSPropertyOp15
 70
     1
102
RTVSPropertyOp16
 70
     1
102
RTVSPropertyOp17
 70
     1
102
RTVSPropertyOp18
 70
     1
102
RTVSPropertyOp19
 70
     1
102
RTVSPropertyOp20
 70
     1
102
RTVSPropertyOp21
 70
     1
102
RTVSPropertyOp22
 70
     1
102
RTVSPropertyOp23
 70
     1
102
RTVSPropertyOp24
 70
     1
102
RTVSPropertyOp25
 70
     1
102
RTVSPropertyOp26
 70
     1
102
RTVSPropertyOp27
 70
     1
  0
XRECORD
  5
343
102
{ACAD_REACTORS
330
342
102
}
330
342
100
AcDbXrecord
280
     1
102
RTVSPropertyOp0
 70
     1
102
RTVSPropertyOp1
 70
     1
102
RTVSPropertyOp2
 70
     1
102
RTVSPropertyOp3
 70
     1
102
RTVSPropertyOp4
 70
     1
102
RTVSPropertyOp5
 70
     1
102
RTVSPropertyOp6
 70
     1
102
RTVSPropertyOp7
 70
     1
102
RTVSPropertyOp8
 70
     1
102
RTVSPropertyOp9
 70
     1
102
RTVSPropertyOp10
 70
     1
102
RTVSPropertyOp11
 70
     1
102
RTVSPropertyOp12
 70
     1
102
RTVSPropertyOp13
 70
     1
102
RTVSPropertyOp14
 70
     1
102
RTVSPropertyOp15
 70
     1
102
RTVSPropertyOp16
 70
     1
102
RTVSPropertyOp17
 70
     1
102
RTVSPropertyOp18
 70
     1
102
RTVSPropertyOp19
 70
     1
102
RTVSPropertyOp20
 70
     1
102
RTVSPropertyOp21
 70
     1
102
RTVSPropertyOp22
 70
     1
102
RTVSPropertyOp23
 70
     1
102
RTVSPropertyOp24
 70
     1
102
RTVSPropertyOp25
 70
     1
102
RTVSPropertyOp26
 70
     1
102
RTVSPropertyOp27
 70
     1
  0
XRECORD
  5
34B
102
{ACAD_REACTORS
330
34A
102
}
330
34A
100
AcDbXrecord
280
     1
102
RTVSPropertyOp0
 70
     1
102
RTVSPropertyOp1
 70
     1
102
RTVSPropertyOp2
 70
     1
102
RTVSPropertyOp3
 70
     1
102
RTVSPropertyOp4
 70
     1
102
RTVSPropertyOp5
 70
     1
102
RTVSPropertyOp6
 70
     1
102
RTVSPropertyOp7
 70
     1
102
RTVSPropertyOp8
 70
     1
102
RTVSPropertyOp9
 70
     1
102
RTVSPropertyOp10
 70
     1
102
RTVSPropertyOp11
 70
     1
102
RTVSPropertyOp12
 70
     1
102
RTVSPropertyOp13
 70
     1
102
RTVSPropertyOp14
 70
     1
102
RTVSPropertyOp15
 70
     1
102
RTVSPropertyOp16
 70
     1
102
RTVSPropertyOp17
 70
     1
102
RTVSPropertyOp18
 70
     1
102
RTVSPropertyOp19
 70
     1
102
RTVSPropertyOp20
 70
     1
102
RTVSPropertyOp21
 70
     1
102
RTVSPropertyOp22
 70
     1
102
RTVSPropertyOp23
 70
     1
102
RTVSPropertyOp24
 70
     1
102
RTVSPropertyOp25
 70
     1
102
RTVSPropertyOp26
 70
     1
102
RTVSPropertyOp27
 70
     1
  0
XRECORD
  5
33F
102
{ACAD_REACTORS
330
33E
102
}
330
33E
100
AcDbXrecord
280
     1
102
RTVSPropertyOp0
 70
     1
102
RTVSPropertyOp1
 70
     1
102
RTVSPropertyOp2
 70
     1
102
RTVSPropertyOp3
 70
     1
102
RTVSPropertyOp4
 70
     1
102
RTVSPropertyOp5
 70
     1
102
RTVSPropertyOp6
 70
     1
102
RTVSPropertyOp7
 70
     1
102
RTVSPropertyOp8
 70
     1
102
RTVSPropertyOp9
 70
     1
102
RTVSPropertyOp10
 70
     1
102
RTVSPropertyOp11
 70
     1
102
RTVSPropertyOp12
 70
     1
102
RTVSPropertyOp13
 70
     1
102
RTVSPropertyOp14
 70
     1
102
RTVSPropertyOp15
 70
     1
102
RTVSPropertyOp16
 70
     1
102
RTVSPropertyOp17
 70
     1
102
RTVSPropertyOp18
 70
     1
102
RTVSPropertyOp19
 70
     1
102
RTVSPropertyOp20
 70
     1
102
RTVSPropertyOp21
 70
     1
102
RTVSPropertyOp22
 70
     1
102
RTVSPropertyOp23
 70
     1
102
RTVSPropertyOp24
 70
     1
102
RTVSPropertyOp25
 70
     1
102
RTVSPropertyOp26
 70
     1
102
RTVSPropertyOp27
 70
     1
  0
XRECORD
  5
341
102
{ACAD_REACTORS
330
340
102
}
330
340
100
AcDbXrecord
280
     1
102
RTVSPropertyOp0
 70
     1
102
RTVSPropertyOp1
 70
     1
102
RTVSPropertyOp2
 70
     1
102
RTVSPropertyOp3
 70
     1
102
RTVSPropertyOp4
 70
     1
102
RTVSPropertyOp5
 70
     1
102
RTVSPropertyOp6
 70
     1
102
RTVSPropertyOp7
 70
     1
102
RTVSPropertyOp8
 70
     1
102
RTVSPropertyOp9
 70
     1
102
RTVSPropertyOp10
 70
     1
102
RTVSPropertyOp11
 70
     1
102
RTVSPropertyOp12
 70
     1
102
RTVSPropertyOp13
 70
     1
102
RTVSPropertyOp14
 70
     1
102
RTVSPropertyOp15
 70
     1
102
RTVSPropertyOp16
 70
     1
102
RTVSPropertyOp17
 70
     1
102
RTVSPropertyOp18
 70
     1
102
RTVSPropertyOp19
 70
     1
102
RTVSPropertyOp20
 70
     1
102
RTVSPropertyOp21
 70
     1
102
RTVSPropertyOp22
 70
     1
102
RTVSPropertyOp23
 70
     1
102
RTVSPropertyOp24
 70
     1
102
RTVSPropertyOp25
 70
     1
102
RTVSPropertyOp26
 70
     1
102
RTVSPropertyOp27
 70
     1
  0
XRECORD
  5
349
102
{ACAD_REACTORS
330
348
102
}
330
348
100
AcDbXrecord
280
     1
102
RTVSPropertyOp0
 70
     1
102
RTVSPropertyOp1
 70
     1
102
RTVSPropertyOp2
 70
     1
102
RTVSPropertyOp3
 70
     1
102
RTVSPropertyOp4
 70
     1
102
RTVSPropertyOp5
 70
     1
102
RTVSPropertyOp6
 70
     1
102
RTVSPropertyOp7
 70
     1
102
RTVSPropertyOp8
 70
     1
102
RTVSPropertyOp9
 70
     1
102
RTVSPropertyOp10
 70
     1
102
RTVSPropertyOp11
 70
     1
102
RTVSPropertyOp12
 70
     1
102
RTVSPropertyOp13
 70
     1
102
RTVSPropertyOp14
 70
     1
102
RTVSPropertyOp15
 70
     1
102
RTVSPropertyOp16
 70
     1
102
RTVSPropertyOp17
 70
     1
102
RTVSPropertyOp18
 70
     1
102
RTVSPropertyOp19
 70
     1
102
RTVSPropertyOp20
 70
     1
102
RTVSPropertyOp21
 70
     1
102
RTVSPropertyOp22
 70
     1
102
RTVSPropertyOp23
 70
     1
102
RTVSPropertyOp24
 70
     1
102
RTVSPropertyOp25
 70
     1
102
RTVSPropertyOp26
 70
     1
102
RTVSPropertyOp27
 70
     1
  0
XRECORD
  5
32D
102
{ACAD_REACTORS
330
32C
102
}
330
32C
100
AcDbXrecord
280
     1
102
RTVSPropertyOp0
 70
     1
102
RTVSPropertyOp1
 70
     1
102
RTVSPropertyOp2
 70
     1
102
RTVSPropertyOp3
 70
     1
102
RTVSPropertyOp4
 70
     1
102
RTVSPropertyOp5
 70
     1
102
RTVSPropertyOp6
 70
     1
102
RTVSPropertyOp7
 70
     1
102
RTVSPropertyOp8
 70
     1
102
RTVSPropertyOp9
 70
     1
102
RTVSPropertyOp10
 70
     1
102
RTVSPropertyOp11
 70
     1
102
RTVSPropertyOp12
 70
     1
102
RTVSPropertyOp13
 70
     1
102
RTVSPropertyOp14
 70
     1
102
RTVSPropertyOp15
 70
     1
102
RTVSPropertyOp16
 70
     1
102
RTVSPropertyOp17
 70
     1
102
RTVSPropertyOp18
 70
     1
102
RTVSPropertyOp19
 70
     1
102
RTVSPropertyOp20
 70
     1
102
RTVSPropertyOp21
 70
     1
102
RTVSPropertyOp22
 70
     1
102
RTVSPropertyOp23
 70
     1
102
RTVSPropertyOp24
 70
     1
102
RTVSPropertyOp25
 70
     1
102
RTVSPropertyOp26
 70
     1
102
RTVSPropertyOp27
 70
     1
  0
XRECORD
  5
32F
102
{ACAD_REACTORS
330
32E
102
}
330
32E
100
AcDbXrecord
280
     1
102
RTVSPropertyOp0
 70
     1
102
RTVSPropertyOp1
 70
     1
102
RTVSPropertyOp2
 70
     1
102
RTVSPropertyOp3
 70
     1
102
RTVSPropertyOp4
 70
     1
102
RTVSPropertyOp5
 70
     1
102
RTVSPropertyOp6
 70
     1
102
RTVSPropertyOp7
 70
     1
102
RTVSPropertyOp8
 70
     1
102
RTVSPropertyOp9
 70
     1
102
RTVSPropertyOp10
 70
     1
102
RTVSPropertyOp11
 70
     1
102
RTVSPropertyOp12
 70
     1
102
RTVSPropertyOp13
 70
     1
102
RTVSPropertyOp14
 70
     1
102
RTVSPropertyOp15
 70
     1
102
RTVSPropertyOp16
 70
     1
102
RTVSPropertyOp17
 70
     1
102
RTVSPropertyOp18
 70
     1
102
RTVSPropertyOp19
 70
     1
102
RTVSPropertyOp20
 70
     1
102
RTVSPropertyOp21
 70
     1
102
RTVSPropertyOp22
 70
     1
102
RTVSPropertyOp23
 70
     1
102
RTVSPropertyOp24
 70
     1
102
RTVSPropertyOp25
 70
     1
102
RTVSPropertyOp26
 70
     1
102
RTVSPropertyOp27
 70
     1
  0
XRECORD
  5
331
102
{ACAD_REACTORS
330
330
102
}
330
330
100
AcDbXrecord
280
     1
102
RTVSPropertyOp0
 70
     1
102
RTVSPropertyOp1
 70
     1
102
RTVSPropertyOp2
 70
     1
102
RTVSPropertyOp3
 70
     1
102
RTVSPropertyOp4
 70
     1
102
RTVSPropertyOp5
 70
     1
102
RTVSPropertyOp6
 70
     1
102
RTVSPropertyOp7
 70
     1
102
RTVSPropertyOp8
 70
     1
102
RTVSPropertyOp9
 70
     1
102
RTVSPropertyOp10
 70
     1
102
RTVSPropertyOp11
 70
     1
102
RTVSPropertyOp12
 70
     1
102
RTVSPropertyOp13
 70
     1
102
RTVSPropertyOp14
 70
     1
102
RTVSPropertyOp15
 70
     1
102
RTVSPropertyOp16
 70
     1
102
RTVSPropertyOp17
 70
     1
102
RTVSPropertyOp18
 70
     1
102
RTVSPropertyOp19
 70
     1
102
RTVSPropertyOp20
 70
     1
102
RTVSPropertyOp21
 70
     1
102
RTVSPropertyOp22
 70
     1
102
RTVSPropertyOp23
 70
     1
102
RTVSPropertyOp24
 70
     1
102
RTVSPropertyOp25
 70
     1
102
RTVSPropertyOp26
 70
     1
102
RTVSPropertyOp27
 70
     1
  0
XRECORD
  5
333
102
{ACAD_REACTORS
330
332
102
}
330
332
100
AcDbXrecord
280
     1
102
RTVSPropertyOp0
 70
     1
102
RTVSPropertyOp1
 70
     1
102
RTVSPropertyOp2
 70
     1
102
RTVSPropertyOp3
 70
     1
102
RTVSPropertyOp4
 70
     1
102
RTVSPropertyOp5
 70
     1
102
RTVSPropertyOp6
 70
     1
102
RTVSPropertyOp7
 70
     1
102
RTVSPropertyOp8
 70
     1
102
RTVSPropertyOp9
 70
     1
102
RTVSPropertyOp10
 70
     1
102
RTVSPropertyOp11
 70
     1
102
RTVSPropertyOp12
 70
     1
102
RTVSPropertyOp13
 70
     1
102
RTVSPropertyOp14
 70
     1
102
RTVSPropertyOp15
 70
     1
102
RTVSPropertyOp16
 70
     1
102
RTVSPropertyOp17
 70
     1
102
RTVSPropertyOp18
 70
     1
102
RTVSPropertyOp19
 70
     1
102
RTVSPropertyOp20
 70
     1
102
RTVSPropertyOp21
 70
     1
102
RTVSPropertyOp22
 70
     1
102
RTVSPropertyOp23
 70
     1
102
RTVSPropertyOp24
 70
     1
102
RTVSPropertyOp25
 70
     1
102
RTVSPropertyOp26
 70
     1
102
RTVSPropertyOp27
 70
     1
  0
XRECORD
  5
347
102
{ACAD_REACTORS
330
346
102
}
330
346
100
AcDbXrecord
280
     1
102
RTVSPropertyOp0
 70
     1
102
RTVSPropertyOp1
 70
     1
102
RTVSPropertyOp2
 70
     1
102
RTVSPropertyOp3
 70
     1
102
RTVSPropertyOp4
 70
     1
102
RTVSPropertyOp5
 70
     1
102
RTVSPropertyOp6
 70
     1
102
RTVSPropertyOp7
 70
     1
102
RTVSPropertyOp8
 70
     1
102
RTVSPropertyOp9
 70
     1
102
RTVSPropertyOp10
 70
     1
102
RTVSPropertyOp11
 70
     1
102
RTVSPropertyOp12
 70
     1
102
RTVSPropertyOp13
 70
     1
102
RTVSPropertyOp14
 70
     1
102
RTVSPropertyOp15
 70
     1
102
RTVSPropertyOp16
 70
     1
102
RTVSPropertyOp17
 70
     1
102
RTVSPropertyOp18
 70
     1
102
RTVSPropertyOp19
 70
     1
102
RTVSPropertyOp20
 70
     1
102
RTVSPropertyOp21
 70
     1
102
RTVSPropertyOp22
 70
     1
102
RTVSPropertyOp23
 70
     1
102
RTVSPropertyOp24
 70
     1
102
RTVSPropertyOp25
 70
     1
102
RTVSPropertyOp26
 70
     1
102
RTVSPropertyOp27
 70
     1
  0
XRECORD
  5
33D
102
{ACAD_REACTORS
330
33C
102
}
330
33C
100
AcDbXrecord
280
     1
102
RTVSPropertyOp0
 70
     1
102
RTVSPropertyOp1
 70
     1
102
RTVSPropertyOp2
 70
     1
102
RTVSPropertyOp3
 70
     1
102
RTVSPropertyOp4
 70
     1
102
RTVSPropertyOp5
 70
     1
102
RTVSPropertyOp6
 70
     1
102
RTVSPropertyOp7
 70
     1
102
RTVSPropertyOp8
 70
     1
102
RTVSPropertyOp9
 70
     1
102
RTVSPropertyOp10
 70
     1
102
RTVSPropertyOp11
 70
     1
102
RTVSPropertyOp12
 70
     1
102
RTVSPropertyOp13
 70
     1
102
RTVSPropertyOp14
 70
     1
102
RTVSPropertyOp15
 70
     1
102
RTVSPropertyOp16
 70
     1
102
RTVSPropertyOp17
 70
     1
102
RTVSPropertyOp18
 70
     1
102
RTVSPropertyOp19
 70
     1
102
RTVSPropertyOp20
 70
     1
102
RTVSPropertyOp21
 70
     1
102
RTVSPropertyOp22
 70
     1
102
RTVSPropertyOp23
 70
     1
102
RTVSPropertyOp24
 70
     1
102
RTVSPropertyOp25
 70
     1
102
RTVSPropertyOp26
 70
     1
102
RTVSPropertyOp27
 70
     1
  0
XRECORD
  5
345
102
{ACAD_REACTORS
330
344
102
}
330
344
100
AcDbXrecord
280
     1
102
RTVSPropertyOp0
 70
     1
102
RTVSPropertyOp1
 70
     1
102
RTVSPropertyOp2
 70
     1
102
RTVSPropertyOp3
 70
     1
102
RTVSPropertyOp4
 70
     1
102
RTVSPropertyOp5
 70
     1
102
RTVSPropertyOp6
 70
     1
102
RTVSPropertyOp7
 70
     1
102
RTVSPropertyOp8
 70
     1
102
RTVSPropertyOp9
 70
     1
102
RTVSPropertyOp10
 70
     1
102
RTVSPropertyOp11
 70
     1
102
RTVSPropertyOp12
 70
     1
102
RTVSPropertyOp13
 70
     1
102
RTVSPropertyOp14
 70
     1
102
RTVSPropertyOp15
 70
     1
102
RTVSPropertyOp16
 70
     1
102
RTVSPropertyOp17
 70
     1
102
RTVSPropertyOp18
 70
     1
102
RTVSPropertyOp19
 70
     1
102
RTVSPropertyOp20
 70
     1
102
RTVSPropertyOp21
 70
     1
102
RTVSPropertyOp22
 70
     1
102
RTVSPropertyOp23
 70
     1
102
RTVSPropertyOp24
 70
     1
102
RTVSPropertyOp25
 70
     1
102
RTVSPropertyOp26
 70
     1
102
RTVSPropertyOp27
 70
     1
  0
ENDSEC
  0
EOF
