  0
SECTION
  2
HEADER
  9
$ACADVER
  1
AC1018
  9
$ACADMAINTVER
 70
     0
  9
$DWGCODEPAGE
  3
ANSI_1252
  9
$INSBASE
 10
0.0
 20
0.0
 30
0.0
  9
$EXTMIN
 10
72699.25541646981
 20
16593.12309068373
 30
0.0
  9
$EXTMAX
 10
74182.76818333003
 20
17593.12309831312
 30
3.174999952316284
  9
$LIMMIN
 10
0.0
 20
0.0
  9
$LIMMAX
 10
420.0
 20
297.0
  9
$ORTHOMODE
 70
     0
  9
$REGENMODE
 70
     1
  9
$FILLMODE
 70
     1
  9
$QTEXTMODE
 70
     0
  9
$MIRRTEXT
 70
     1
  9
$LTSCALE
 40
1.0
  9
$ATTMODE
 70
     1
  9
$TEXTSIZE
 40
0.2
  9
$TRACEWID
 40
1.0
  9
$TEXTSTYLE
  7
ARIAL
  9
$CLAYER
  8
FR-45
  9
$CELTYPE
  6
Continuous
  9
$CECOLOR
 62
   256
  9
$CELTSCALE
 40
1.0
  9
$DISPSILH
 70
     0
  9
$DIMSCALE
 40
1.0
  9
$DIMASZ
 40
2.5
  9
$DIMEXO
 40
0.625
  9
$DIMDLI
 40
3.75
  9
$DIMRND
 40
0.0
  9
$DIMDLE
 40
0.0
  9
$DIMEXE
 40
1.25
  9
$DIMTP
 40
0.0
  9
$DIMTM
 40
0.0
  9
$DIMTXT
 40
2.5
  9
$DIMCEN
 40
2.5
  9
$DIMTSZ
 40
0.0
  9
$DIMTOL
 70
     0
  9
$DIMLIM
 70
     0
  9
$DIMTIH
 70
     0
  9
$DIMTOH
 70
     0
  9
$DIMSE1
 70
     0
  9
$DIMSE2
 70
     0
  9
$DIMTAD
 70
     1
  9
$DIMZIN
 70
     8
  9
$DIMBLK
  1

  9
$DIMASO
 70
     1
  9
$DIMSHO
 70
     1
  9
$DIMPOST
  1

  9
$DIMAPOST
  1

  9
$DIMALT
 70
     0
  9
$DIMALTD
 70
     3
  9
$DIMALTF
 40
0.03937007874016
  9
$DIMLFAC
 40
1.0
  9
$DIMTOFL
 70
     1
  9
$DIMTVP
 40
0.0
  9
$DIMTIX
 70
     0
  9
$DIMSOXD
 70
     0
  9
$DIMSAH
 70
     0
  9
$DIMBLK1
  1

  9
$DIMBLK2
  1

  9
$DIMSTYLE
  2
ISO-25
  9
$DIMCLRD
 70
     0
  9
$DIMCLRE
 70
     0
  9
$DIMCLRT
 70
     0
  9
$DIMTFAC
 40
1.0
  9
$DIMGAP
 40
0.625
  9
$DIMJUST
 70
     0
  9
$DIMSD1
 70
     0
  9
$DIMSD2
 70
     0
  9
$DIMTOLJ
 70
     0
  9
$DIMTZIN
 70
     8
  9
$DIMALTZ
 70
     0
  9
$DIMALTTZ
 70
     0
  9
$DIMUPT
 70
     0
  9
$DIMDEC
 70
     2
  9
$DIMTDEC
 70
     2
  9
$DIMALTU
 70
     2
  9
$DIMALTTD
 70
     3
  9
$DIMTXSTY
  7
Standard
  9
$DIMAUNIT
 70
     0
  9
$DIMADEC
 70
     0
  9
$DIMALTRND
 40
0.0
  9
$DIMAZIN
 70
     0
  9
$DIMDSEP
 70
    44
  9
$DIMATFIT
 70
     3
  9
$DIMFRAC
 70
     0
  9
$DIMLDRBLK
  1

  9
$DIMLUNIT
 70
     2
  9
$DIMLWD
 70
    -2
  9
$DIMLWE
 70
    -2
  9
$DIMTMOVE
 70
     0
  9
$LUNITS
 70
     2
  9
$LUPREC
 70
     4
  9
$SKETCHINC
 40
1.0
  9
$FILLETRAD
 40
10.0
  9
$AUNITS
 70
     0
  9
$AUPREC
 70
     0
  9
$MENU
  1
.
  9
$ELEVATION
 40
0.0
  9
$PELEVATION
 40
0.0
  9
$THICKNESS
 40
0.0
  9
$LIMCHECK
 70
     0
  9
$CHAMFERA
 40
10.0
  9
$CHAMFERB
 40
10.0
  9
$CHAMFERC
 40
20.0
  9
$CHAMFERD
 40
0.0
  9
$SKPOLY
 70
     0
  9
$TDCREATE
 40
2457970.42121184
  9
$TDUCREATE
 40
2457970.337878507
  9
$TDUPDATE
 40
2457970.421223495
  9
$TDUUPDATE
 40
2457970.337890162
  9
$TDINDWG
 40
0.0000000116
  9
$TDUSRTIMER
 40
0.0000000116
  9
$USRTIMER
 70
     1
  9
$ANGBASE
 50
0.0
  9
$ANGDIR
 70
     0
  9
$PDMODE
 70
     0
  9
$PDSIZE
 40
0.0
  9
$PLINEWID
 40
0.0
  9
$SPLFRAME
 70
     0
  9
$SPLINETYPE
 70
     6
  9
$SPLINESEGS
 70
     8
  9
$HANDSEED
  5
176
  9
$SURFTAB1
 70
     6
  9
$SURFTAB2
 70
     6
  9
$SURFTYPE
 70
     6
  9
$SURFU
 70
     6
  9
$SURFV
 70
     6
  9
$UCSBASE
  2

  9
$UCSNAME
  2

  9
$UCSORG
 10
0.0
 20
0.0
 30
0.0
  9
$UCSXDIR
 10
1.0
 20
0.0
 30
0.0
  9
$UCSYDIR
 10
0.0
 20
1.0
 30
0.0
  9
$UCSORTHOREF
  2

  9
$UCSORTHOVIEW
 70
     0
  9
$UCSORGTOP
 10
0.0
 20
0.0
 30
0.0
  9
$UCSORGBOTTOM
 10
0.0
 20
0.0
 30
0.0
  9
$UCSORGLEFT
 10
0.0
 20
0.0
 30
0.0
  9
$UCSORGRIGHT
 10
0.0
 20
0.0
 30
0.0
  9
$UCSORGFRONT
 10
0.0
 20
0.0
 30
0.0
  9
$UCSORGBACK
 10
0.0
 20
0.0
 30
0.0
  9
$PUCSBASE
  2

  9
$PUCSNAME
  2

  9
$PUCSORG
 10
0.0
 20
0.0
 30
0.0
  9
$PUCSXDIR
 10
1.0
 20
0.0
 30
0.0
  9
$PUCSYDIR
 10
0.0
 20
1.0
 30
0.0
  9
$PUCSORTHOREF
  2

  9
$PUCSORTHOVIEW
 70
     0
  9
$PUCSORGTOP
 10
0.0
 20
0.0
 30
0.0
  9
$PUCSORGBOTTOM
 10
0.0
 20
0.0
 30
0.0
  9
$PUCSORGLEFT
 10
0.0
 20
0.0
 30
0.0
  9
$PUCSORGRIGHT
 10
0.0
 20
0.0
 30
0.0
  9
$PUCSORGFRONT
 10
0.0
 20
0.0
 30
0.0
  9
$PUCSORGBACK
 10
0.0
 20
0.0
 30
0.0
  9
$USERI1
 70
     0
  9
$USERI2
 70
     0
  9
$USERI3
 70
     0
  9
$USERI4
 70
     0
  9
$USERI5
 70
     0
  9
$USERR1
 40
0.0
  9
$USERR2
 40
0.0
  9
$USERR3
 40
0.0
  9
$USERR4
 40
0.0
  9
$USERR5
 40
0.0
  9
$WORLDVIEW
 70
     1
  9
$SHADEDGE
 70
     3
  9
$SHADEDIF
 70
    70
  9
$TILEMODE
 70
     1
  9
$MAXACTVP
 70
    64
  9
$PINSBASE
 10
0.0
 20
0.0
 30
0.0
  9
$PLIMCHECK
 70
     0
  9
$PEXTMIN
 10
1.000000000000000E+20
 20
1.000000000000000E+20
 30
1.000000000000000E+20
  9
$PEXTMAX
 10
-1.000000000000000E+20
 20
-1.000000000000000E+20
 30
-1.000000000000000E+20
  9
$PLIMMIN
 10
0.0
 20
0.0
  9
$PLIMMAX
 10
420.0
 20
297.0
  9
$UNITMODE
 70
     0
  9
$VISRETAIN
 70
     1
  9
$PLINEGEN
 70
     0
  9
$PSLTSCALE
 70
     1
  9
$TREEDEPTH
 70
  3020
  9
$CMLSTYLE
  2
Standard
  9
$CMLJUST
 70
     0
  9
$CMLSCALE
 40
20.0
  9
$PROXYGRAPHICS
 70
     1
  9
$MEASUREMENT
 70
     1
  9
$CELWEIGHT
370
    -1
  9
$ENDCAPS
280
     0
  9
$JOINSTYLE
280
     0
  9
$LWDISPLAY
290
     0
  9
$INSUNITS
 70
     4
  9
$HYPERLINKBASE
  1

  9
$STYLESHEET
  1

  9
$XEDIT
290
     1
  9
$CEPSNTYPE
380
     0
  9
$PSTYLEMODE
290
     1
  9
$FINGERPRINTGUID
  2
{79B5B2EB-8C9F-40BC-BE16-C9B47091DE2E}
  9
$VERSIONGUID
  2
{FAEB1C32-E019-11D5-929B-00C0DF256EC4}
  9
$EXTNAMES
290
     1
  9
$PSVPSCALE
 40
0.0
  9
$OLESTARTUP
290
     0
  9
$SORTENTS
280
   127
  9
$INDEXCTL
280
     0
  9
$HIDETEXT
280
     1
  9
$XCLIPFRAME
290
     0
  9
$HALOGAP
280
     0
  9
$OBSCOLOR
 70
   257
  9
$OBSLTYPE
280
     0
  9
$INTERSECTIONDISPLAY
280
     0
  9
$INTERSECTIONCOLOR
 70
   257
  9
$DIMASSOC
280
     2
  9
$PROJECTNAME
  1

  0
ENDSEC
  0
SECTION
  2
CLASSES
  0
CLASS
  1
ACDBDICTIONARYWDFLT
  2
AcDbDictionaryWithDefault
  3
ObjectDBX Classes
 90
        0
 91
        4
280
     0
281
     0
  0
CLASS
  1
VISUALSTYLE
  2
AcDbVisualStyle
  3
ObjectDBX Classes
 90
     4095
 91
        4
280
     0
281
     0
  0
CLASS
  1
MATERIAL
  2
AcDbMaterial
  3
ObjectDBX Classes
 90
     1153
 91
        4
280
     0
281
     0
  0
ENDSEC
  0
SECTION
  2
TABLES
  0
TABLE
  2
VPORT
  5
8
330
0
100
AcDbSymbolTable
 70
     1
  0
VPORT
  5
29
330
8
100
AcDbSymbolTableRecord
100
AcDbViewportTableRecord
  2
*Active
 70
     0
 10
0.0
 20
0.0
 11
1.0
 21
1.0
 12
36892.59935789389
 22
8620.811547249212
 13
0.0
 23
0.0
 14
10.0
 24
10.0
 15
10.0
 25
10.0
 16
0.0
 26
0.0
 36
1.0
 17
0.0
 27
0.0
 37
0.0
 40
1020.000007781982
 41
1.483512755541918
 42
50.0
 43
0.0
 44
0.0
 50
0.0
 51
0.0
 71
     0
 72
   100
 73
     1
 74
     3
 75
     0
 76
     0
 77
     0
 78
     0
281
     0
 65
     1
110
0.0
120
0.0
130
0.0
111
1.0
121
0.0
131
0.0
112
0.0
122
1.0
132
0.0
 79
     0
146
0.0
  0
ENDTAB
  0
TABLE
  2
LTYPE
  5
5
330
0
100
AcDbSymbolTable
 70
     1
  0
LTYPE
  5
14
330
5
100
AcDbSymbolTableRecord
100
AcDbLinetypeTableRecord
  2
ByBlock
 70
     0
  3

 72
    65
 73
     0
 40
0.0
  0
LTYPE
  5
15
330
5
100
AcDbSymbolTableRecord
100
AcDbLinetypeTableRecord
  2
ByLayer
 70
     0
  3

 72
    65
 73
     0
 40
0.0
  0
LTYPE
  5
16
330
5
100
AcDbSymbolTableRecord
100
AcDbLinetypeTableRecord
  2
Continuous
 70
     0
  3
Solid line
 72
    65
 73
     0
 40
0.0
  0
ENDTAB
  0
TABLE
  2
LAYER
  5
2
330
0
100
AcDbSymbolTable
 70
     6
  0
LAYER
  5
10
330
2
100
AcDbSymbolTableRecord
100
AcDbLayerTableRecord
  2
0
 70
     0
 62
     7
  6
Continuous
370
    -3
390
F
  0
LAYER
  5
3F
330
2
100
AcDbSymbolTableRecord
100
AcDbLayerTableRecord
  2
allgemein
 70
     0
 62
    18
420
        0
  6
Continuous
370
    25
390
F
  0
LAYER
  5
40
330
2
100
AcDbSymbolTableRecord
100
AcDbLayerTableRecord
  2
Beschriftung Allgemein
 70
     0
 62
    18
420
        0
  6
Continuous
370
    25
390
F
  0
LAYER
  5
41
330
2
100
AcDbSymbolTableRecord
100
AcDbLayerTableRecord
  2
MR-380
 70
     0
 62
    18
420
        0
  6
Continuous
370
    25
390
F
  0
LAYER
  5
5B
330
2
100
AcDbSymbolTableRecord
100
AcDbLayerTableRecord
  2
Defpoints
 70
     0
 62
     7
  6
Continuous
290
     0
370
    -3
390
F
  0
LAYER
  5
123
330
2
100
AcDbSymbolTableRecord
100
AcDbLayerTableRecord
  2
FR-45
 70
     0
 62
    18
420
        0
  6
Continuous
370
    25
390
F
  0
ENDTAB
  0
TABLE
  2
STYLE
  5
3
330
0
100
AcDbSymbolTable
 70
     6
  0
STYLE
  5
11
330
3
100
AcDbSymbolTableRecord
100
AcDbTextStyleTableRecord
  2
Standard
 70
     0
 40
0.0
 41
1.0
 50
0.0
 71
     0
 42
2.5
  3
txt
  4

  0
STYLE
  5
42
330
3
100
AcDbSymbolTableRecord
100
AcDbTextStyleTableRecord
  2
CENTURY GOTHIC
 70
     0
 40
0.0
 41
1.0
 50
0.0
 71
     0
 42
0.2
  3
CENTURY GOTHIC
  4

  0
STYLE
  5
44
330
3
100
AcDbSymbolTableRecord
100
AcDbTextStyleTableRecord
  2
HLV-L
 70
     0
 40
0.0
 41
1.0
 50
0.0
 71
     0
 42
0.2
  3
HLV-L
  4

  0
STYLE
  5
49
330
3
100
AcDbSymbolTableRecord
100
AcDbTextStyleTableRecord
  2
ARIAL
 70
     0
 40
0.0
 41
1.0
 50
0.0
 71
     0
 42
0.2
  3
ARIAL
  4

  0
STYLE
  5
4B
330
3
100
AcDbSymbolTableRecord
100
AcDbTextStyleTableRecord
  2
HELV-HFT
 70
     0
 40
0.0
 41
1.0
 50
0.0
 71
     0
 42
0.2
  3
HELV-HFT
  4

  0
STYLE
  5
59
330
3
100
AcDbSymbolTableRecord
100
AcDbTextStyleTableRecord
  2
ROMAN
 70
     0
 40
0.0
 41
1.0
 50
0.0
 71
     0
 42
0.2
  3
ROMAN
  4

  0
ENDTAB
  0
TABLE
  2
VIEW
  5
6
330
0
100
AcDbSymbolTable
 70
     0
  0
ENDTAB
  0
TABLE
  2
UCS
  5
7
330
0
100
AcDbSymbolTable
 70
     0
  0
ENDTAB
  0
TABLE
  2
APPID
  5
9
330
0
100
AcDbSymbolTable
 70
     3
  0
APPID
  5
12
330
9
100
AcDbSymbolTableRecord
100
AcDbRegAppTableRecord
  2
ACAD
 70
     0
  0
APPID
  5
14C
330
9
100
AcDbSymbolTableRecord
100
AcDbRegAppTableRecord
  2
ACAD_DSTYLE_DIMEXT_ENABLED
 70
     0
  0
APPID
  5
14D
330
9
100
AcDbSymbolTableRecord
100
AcDbRegAppTableRecord
  2
ACAD_DSTYLE_DIMEXT_LENGTH
 70
     0
  0
ENDTAB
  0
TABLE
  2
DIMSTYLE
  5
A
330
0
100
AcDbSymbolTable
 70
     1
100
AcDbDimStyleTable
  0
DIMSTYLE
105
27
102
{ACAD_REACTORS
330
5A
330
6E
330
7B
330
114
102
}
330
A
100
AcDbSymbolTableRecord
100
AcDbDimStyleTableRecord
  2
ISO-25
 70
     0
 41
2.5
 42
0.625
 43
3.75
 44
1.25
 73
     0
 74
     0
 77
     1
 78
     8
140
2.5
141
2.5
143
0.03937007874016
147
0.625
171
     3
172
     1
178
     0
271
     2
272
     2
274
     3
278
    44
283
     0
284
     8
340
11
  0
ENDTAB
  0
TABLE
  2
BLOCK_RECORD
  5
1
330
0
100
AcDbSymbolTable
 70
    22
  0
BLOCK_RECORD
  5
1F
330
1
100
AcDbSymbolTableRecord
100
AcDbBlockTableRecord
  2
*Model_Space
340
22
  0
BLOCK_RECORD
  5
1B
330
1
100
AcDbSymbolTableRecord
100
AcDbBlockTableRecord
  2
*Paper_Space
340
1E
  0
BLOCK_RECORD
  5
23
330
1
100
AcDbSymbolTableRecord
100
AcDbBlockTableRecord
  2
*Paper_Space0
340
26
  0
BLOCK_RECORD
  5
4D
330
1
100
AcDbSymbolTableRecord
100
AcDbBlockTableRecord
  2
Dimension1
340
0
102
{BLKREFS
331
50
102
}
  0
BLOCK_RECORD
  5
51
330
1
100
AcDbSymbolTableRecord
100
AcDbBlockTableRecord
  2
Dimension2
340
0
102
{BLKREFS
331
54
102
}
  0
BLOCK_RECORD
  5
55
330
1
100
AcDbSymbolTableRecord
100
AcDbBlockTableRecord
  2
Dimension3
340
0
102
{BLKREFS
331
58
102
}
  0
BLOCK_RECORD
  5
5C
330
1
100
AcDbSymbolTableRecord
100
AcDbBlockTableRecord
  2
*D4
340
0
  0
BLOCK_RECORD
  5
68
330
1
100
AcDbSymbolTableRecord
100
AcDbBlockTableRecord
  2
_OPEN30
340
0
102
{BLKREFS
331
60
331
61
331
73
331
74
331
80
331
81
331
0
331
0
331
11C
331
11B
102
}
  0
BLOCK_RECORD
  5
6F
330
1
100
AcDbSymbolTableRecord
100
AcDbBlockTableRecord
  2
*D6
340
0
  0
BLOCK_RECORD
  5
7C
330
1
100
AcDbSymbolTableRecord
100
AcDbBlockTableRecord
  2
*D7
340
0
  0
BLOCK_RECORD
  5
88
330
1
100
AcDbSymbolTableRecord
100
AcDbBlockTableRecord
  2
Dimension4
340
0
102
{BLKREFS
331
8B
102
}
  0
BLOCK_RECORD
  5
10C
330
1
100
AcDbSymbolTableRecord
100
AcDbBlockTableRecord
  2
Dimension5
340
0
102
{BLKREFS
331
10F
102
}
  0
BLOCK_RECORD
  5
110
330
1
100
AcDbSymbolTableRecord
100
AcDbBlockTableRecord
  2
Dimension6
340
0
102
{BLKREFS
331
113
102
}
  0
BLOCK_RECORD
  5
115
330
1
100
AcDbSymbolTableRecord
100
AcDbBlockTableRecord
  2
*D11
340
0
  0
BLOCK_RECORD
  5
124
330
1
100
AcDbSymbolTableRecord
100
AcDbBlockTableRecord
  2
Dimension7
340
0
102
{BLKREFS
331
127
102
}
  0
BLOCK_RECORD
  5
128
330
1
100
AcDbSymbolTableRecord
100
AcDbBlockTableRecord
  2
Dimension8
340
0
102
{BLKREFS
331
12B
102
}
  0
BLOCK_RECORD
  5
12C
330
1
100
AcDbSymbolTableRecord
100
AcDbBlockTableRecord
  2
Dimension9
340
0
102
{BLKREFS
331
12F
102
}
  0
BLOCK_RECORD
  5
130
330
1
100
AcDbSymbolTableRecord
100
AcDbBlockTableRecord
  2
Dimension10
340
0
102
{BLKREFS
331
133
102
}
  0
BLOCK_RECORD
  5
134
330
1
100
AcDbSymbolTableRecord
100
AcDbBlockTableRecord
  2
Dimension11
340
0
102
{BLKREFS
331
137
102
}
  0
BLOCK_RECORD
  5
138
330
1
100
AcDbSymbolTableRecord
100
AcDbBlockTableRecord
  2
Dimension12
340
0
102
{BLKREFS
331
13B
102
}
  0
BLOCK_RECORD
  5
13C
330
1
100
AcDbSymbolTableRecord
100
AcDbBlockTableRecord
  2
Dimension13
340
0
102
{BLKREFS
331
13F
102
}
  0
BLOCK_RECORD
  5
140
330
1
100
AcDbSymbolTableRecord
100
AcDbBlockTableRecord
  2
Dimension14
340
0
102
{BLKREFS
331
143
102
}
  0
BLOCK_RECORD
  5
144
330
1
100
AcDbSymbolTableRecord
100
AcDbBlockTableRecord
  2
Dimension15
340
0
102
{BLKREFS
331
147
102
}
  0
BLOCK_RECORD
  5
148
330
1
100
AcDbSymbolTableRecord
100
AcDbBlockTableRecord
  2
Dimension16
340
0
102
{BLKREFS
331
14B
102
}
  0
ENDTAB
  0
ENDSEC
  0
SECTION
  2
BLOCKS
  0
BLOCK
  5
20
330
1F
100
AcDbEntity
  8
0
100
AcDbBlockBegin
  2
*Model_Space
 70
     0
 10
0.0
 20
0.0
 30
0.0
  3
*Model_Space
  1

  0
ENDBLK
  5
21
330
1F
100
AcDbEntity
  8
0
100
AcDbBlockEnd
  0
BLOCK
  5
1C
330
1B
100
AcDbEntity
 67
     1
  8
0
100
AcDbBlockBegin
  2
*Paper_Space
 70
     0
 10
0.0
 20
0.0
 30
0.0
  3
*Paper_Space
  1

  0
ENDBLK
  5
1D
330
1B
100
AcDbEntity
 67
     1
  8
0
100
AcDbBlockEnd
  0
BLOCK
  5
24
330
23
100
AcDbEntity
  8
0
100
AcDbBlockBegin
  2
*Paper_Space0
 70
     0
 10
0.0
 20
0.0
 30
0.0
  3
*Paper_Space0
  1

  0
ENDBLK
  5
25
330
23
100
AcDbEntity
  8
0
100
AcDbBlockEnd
  0
BLOCK
  5
4E
330
4D
100
AcDbEntity
  8
0
100
AcDbBlockBegin
  2
Dimension1
 70
     0
 10
0.0
 20
0.0
 30
0.0
  3
Dimension1
  1

  0
ENDBLK
  5
4F
330
4D
100
AcDbEntity
  8
0
100
AcDbBlockEnd
  0
BLOCK
  5
52
330
51
100
AcDbEntity
  8
0
100
AcDbBlockBegin
  2
Dimension2
 70
     0
 10
0.0
 20
0.0
 30
0.0
  3
Dimension2
  1

  0
ENDBLK
  5
53
330
51
100
AcDbEntity
  8
0
100
AcDbBlockEnd
  0
BLOCK
  5
56
330
55
100
AcDbEntity
  8
0
100
AcDbBlockBegin
  2
Dimension3
 70
     0
 10
0.0
 20
0.0
 30
0.0
  3
Dimension3
  1

  0
ENDBLK
  5
57
330
55
100
AcDbEntity
  8
0
100
AcDbBlockEnd
  0
BLOCK
  5
66
330
5C
100
AcDbEntity
  8
0
100
AcDbBlockBegin
  2
*D4
 70
     1
 10
0.0
 20
0.0
 30
0.0
  3
*D4
  1

  0
LINE
  5
5D
330
5C
100
AcDbEntity
  8
MR-380
  6
Continuous
 62
    18
 48
50.00000038146973
370
    -2
100
AcDbLine
 10
36857.38207329156
 20
8383.818518192345
 30
0.0
 11
36857.38207329156
 21
8423.818517286354
 31
0.0
  0
LINE
  5
5E
330
5C
100
AcDbEntity
  8
MR-380
  6
Continuous
 62
    18
 48
50.00000038146973
370
    -2
100
AcDbLine
 10
36451.78755442696
 20
8383.818518192345
 30
0.0
 11
36451.78755442696
 21
8423.818517286354
 31
0.0
  0
LINE
  5
5F
330
5C
100
AcDbEntity
  8
MR-380
  6
Continuous
 62
    18
 48
50.00000038146973
370
    -2
100
AcDbLine
 10
36848.38207293393
 20
8403.81851773935
 30
0.0
 11
36460.78755478458
 21
8403.81851773935
 31
0.0
  0
INSERT
  5
60
330
5C
100
AcDbEntity
  8
MR-380
 62
    18
370
    -2
100
AcDbBlockReference
  2
_OPEN30
 10
36857.38207329156
 20
8403.81851773935
 30
0.0
 41
9.000000357627869
 42
9.000000357627869
 43
9.000000357627869
  0
INSERT
  5
61
330
5C
100
AcDbEntity
  8
MR-380
 62
    18
370
    -2
100
AcDbBlockReference
  2
_OPEN30
 10
36451.78755442696
 20
8403.81851773935
 30
0.0
 41
9.000000357627869
 42
9.000000357627869
 43
9.000000357627869
 50
180.0
  0
MTEXT
  5
62
330
5C
100
AcDbEntity
  8
MR-380
  6
Continuous
 62
    18
370
    25
100
AcDbMText
 10
36654.58481385926
 20
8435.818521828229
 30
0.0
 40
24.0
 41
0.0
 71
     5
 72
     1
  1
405.595
  7
ROMAN
 73
     1
 44
1.0
  0
POINT
  5
63
330
5C
100
AcDbEntity
  8
Defpoints
 62
     0
100
AcDbPoint
 10
36857.38207329156
 20
8317.615686946921
 30
0.0
  0
POINT
  5
64
330
5C
100
AcDbEntity
  8
Defpoints
 62
     0
100
AcDbPoint
 10
36451.78755442696
 20
8317.615686946921
 30
0.0
  0
POINT
  5
65
330
5C
100
AcDbEntity
  8
Defpoints
 62
     0
100
AcDbPoint
 10
36451.78755442696
 20
8403.81851773935
 30
0.0
  0
ENDBLK
  5
67
330
5C
100
AcDbEntity
  8
0
100
AcDbBlockEnd
  0
BLOCK
  5
69
330
68
100
AcDbEntity
  8
0
100
AcDbBlockBegin
  2
_OPEN30
 70
     0
 10
0.0
 20
0.0
 30
0.0
  3
_OPEN30
  1

  0
LINE
  5
6B
330
68
100
AcDbEntity
  8
0
  6
ByBlock
 62
     0
370
    -2
100
AcDbLine
 10
-1.0
 20
0.267949
 30
0.0
 11
0.0
 21
0.0
 31
0.0
  0
LINE
  5
6C
330
68
100
AcDbEntity
  8
0
  6
ByBlock
 62
     0
370
    -2
100
AcDbLine
 10
0.0
 20
0.0
 30
0.0
 11
-1.0
 21
-0.267949
 31
0.0
  0
LINE
  5
6D
330
68
100
AcDbEntity
  8
0
  6
ByBlock
 62
     0
370
    -2
100
AcDbLine
 10
0.0
 20
0.0
 30
0.0
 11
-1.0
 21
0.0
 31
0.0
  0
ENDBLK
  5
6A
330
68
100
AcDbEntity
  8
0
100
AcDbBlockEnd
  0
BLOCK
  5
79
330
6F
100
AcDbEntity
  8
0
100
AcDbBlockBegin
  2
*D6
 70
     1
 10
0.0
 20
0.0
 30
0.0
  3
*D6
  1

  0
LINE
  5
70
330
6F
100
AcDbEntity
  8
MR-380
  6
Continuous
 62
    18
 48
50.00000038146973
370
    -2
100
AcDbLine
 10
36464.08219349065
 20
8437.818518192345
 30
0.0
 11
36464.08219349065
 21
8477.818517286354
 31
0.0
  0
LINE
  5
71
330
6F
100
AcDbEntity
  8
MR-380
  6
Continuous
 62
    18
 48
50.00000038146973
370
    -2
100
AcDbLine
 10
36845.08731855744
 20
8437.818518192345
 30
0.0
 11
36845.08731855744
 21
8477.818517286354
 31
0.0
  0
LINE
  5
72
330
6F
100
AcDbEntity
  8
MR-380
  6
Continuous
 62
    18
 48
50.00000038146973
370
    -2
100
AcDbLine
 10
36479.0821940867
 20
8457.81851773935
 30
0.0
 11
36830.08731796139
 21
8457.81851773935
 31
0.0
  0
INSERT
  5
73
330
6F
100
AcDbEntity
  8
MR-380
 62
    18
370
    -2
100
AcDbBlockReference
  2
_OPEN30
 10
36464.08219349065
 20
8457.81851773935
 30
0.0
 41
15.00000059604645
 42
15.00000059604645
 43
15.00000059604645
 50
180.0
  0
INSERT
  5
74
330
6F
100
AcDbEntity
  8
MR-380
 62
    18
370
    -2
100
AcDbBlockReference
  2
_OPEN30
 10
36845.08731855744
 20
8457.81851773935
 30
0.0
 41
15.00000059604645
 42
15.00000059604645
 43
15.00000059604645
  0
MTEXT
  5
75
330
6F
100
AcDbEntity
  8
MR-380
  6
Continuous
 62
     0
370
    25
100
AcDbMText
 10
36654.58475602404
 20
8498.238521828229
 30
0.0
 40
40.0
 41
0.0
 71
     5
 72
     1
  1
381.005
  7
ARIAL
 73
     1
 44
1.0
  0
POINT
  5
76
330
6F
100
AcDbEntity
  8
Defpoints
 62
     0
100
AcDbPoint
 10
36464.08219349065
 20
8317.615686946921
 30
0.0
  0
POINT
  5
77
330
6F
100
AcDbEntity
  8
Defpoints
 62
     0
100
AcDbPoint
 10
36845.08731855744
 20
8317.615686946921
 30
0.0
  0
POINT
  5
78
330
6F
100
AcDbEntity
  8
Defpoints
 62
     0
100
AcDbPoint
 10
36845.08731855744
 20
8457.81851773935
 30
0.0
  0
ENDBLK
  5
7A
330
6F
100
AcDbEntity
  8
0
100
AcDbBlockEnd
  0
BLOCK
  5
86
330
7C
100
AcDbEntity
  8
0
100
AcDbBlockBegin
  2
*D7
 70
     1
 10
0.0
 20
0.0
 30
0.0
  3
*D7
  1

  0
LINE
  5
7D
330
7C
100
AcDbEntity
  8
MR-380
  6
Continuous
 62
    18
 48
50.00000038146973
370
    -2
100
AcDbLine
 10
36896.38193150458
 20
8316.818517739348
 30
0.0
 11
36936.38193059859
 21
8316.818517739348
 31
0.0
  0
LINE
  5
7E
330
7C
100
AcDbEntity
  8
MR-380
  6
Continuous
 62
    18
 48
50.00000038146973
370
    -2
100
AcDbLine
 10
36896.38193150458
 20
8155.8184089358
 30
0.0
 11
36936.38193059859
 21
8155.8184089358
 31
0.0
  0
LINE
  5
7F
330
7C
100
AcDbEntity
  8
MR-380
  6
Continuous
 62
    18
 48
50.00000038146973
370
    -2
100
AcDbLine
 10
36916.38193105158
 20
8307.81851738172
 30
0.0
 11
36916.38193105158
 21
8164.818409293428
 31
0.0
  0
INSERT
  5
80
330
7C
100
AcDbEntity
  8
MR-380
 62
    18
370
    -2
100
AcDbBlockReference
  2
_OPEN30
 10
36916.38193105158
 20
8316.818517739348
 30
0.0
 41
9.000000357627869
 42
9.000000357627869
 43
9.000000357627869
 50
90.0
  0
INSERT
  5
81
330
7C
100
AcDbEntity
  8
MR-380
 62
    18
370
    -2
100
AcDbBlockReference
  2
_OPEN30
 10
36916.38193105158
 20
8155.8184089358
 30
0.0
 41
9.000000357627869
 42
9.000000357627869
 43
9.000000357627869
 50
270.0
  0
MTEXT
  5
82
330
7C
100
AcDbEntity
  8
MR-380
  6
Continuous
 62
    18
370
    25
100
AcDbMText
 10
36884.38192696271
 20
8236.318463337575
 30
0.0
 40
24.0
 41
0.0
 71
     5
 72
     1
  1
161
  7
ROMAN
 11
0.0
 21
1.0
 31
0.0
 73
     1
 44
1.0
  0
POINT
  5
83
330
7C
100
AcDbEntity
  8
Defpoints
 62
     0
100
AcDbPoint
 10
36654.58481385926
 20
8316.818517739348
 30
0.0
  0
POINT
  5
84
330
7C
100
AcDbEntity
  8
Defpoints
 62
     0
100
AcDbPoint
 10
36654.58485641063
 20
8155.8184089358
 30
0.0
  0
POINT
  5
85
330
7C
100
AcDbEntity
  8
Defpoints
 62
     0
100
AcDbPoint
 10
36916.38193105158
 20
8155.8184089358
 30
0.0
  0
ENDBLK
  5
87
330
7C
100
AcDbEntity
  8
0
100
AcDbBlockEnd
  0
BLOCK
  5
89
330
88
100
AcDbEntity
  8
0
100
AcDbBlockBegin
  2
Dimension4
 70
     0
 10
0.0
 20
0.0
 30
0.0
  3
Dimension4
  1

  0
ENDBLK
  5
8A
330
88
100
AcDbEntity
  8
0
100
AcDbBlockEnd
  0
BLOCK
  5
10D
330
10C
100
AcDbEntity
  8
0
100
AcDbBlockBegin
  2
Dimension5
 70
     0
 10
0.0
 20
0.0
 30
0.0
  3
Dimension5
  1

  0
ENDBLK
  5
10E
330
10C
100
AcDbEntity
  8
0
100
AcDbBlockEnd
  0
BLOCK
  5
111
330
110
100
AcDbEntity
  8
0
100
AcDbBlockBegin
  2
Dimension6
 70
     0
 10
0.0
 20
0.0
 30
0.0
  3
Dimension6
  1

  0
ENDBLK
  5
112
330
110
100
AcDbEntity
  8
0
100
AcDbBlockEnd
  0
BLOCK
  5
11F
330
115
100
AcDbEntity
  8
0
100
AcDbBlockBegin
  2
*D11
 70
     1
 10
0.0
 20
0.0
 30
0.0
  3
*D11
  1

  0
LINE
  5
116
330
115
100
AcDbEntity
  8
MR-380
  6
Continuous
 62
    18
 48
50.00000038146973
370
    -2
100
AcDbLine
 10
37057.38193105159
 20
8962.034150184401
 30
0.0
 11
37057.38193105159
 21
9002.03414927841
 31
0.0
  0
LINE
  5
117
330
115
100
AcDbEntity
  8
MR-380
  6
Continuous
 62
    18
 48
50.00000038146973
370
    -2
100
AcDbLine
 10
37201.35492453621
 20
8962.034150184401
 30
0.0
 11
37201.35492453621
 21
9002.03414927841
 31
0.0
  0
LINE
  5
118
330
115
100
AcDbEntity
  8
MR-380
  6
Continuous
 62
    18
 48
50.00000038146973
370
    -2
100
AcDbLine
 10
37057.38193105159
 20
8982.034149731406
 30
0.0
 11
37201.35492453621
 21
8982.034149731406
 31
0.0
  0
LINE
  5
119
330
115
100
AcDbEntity
  8
MR-380
  6
Continuous
 62
    18
 48
50.00000038146973
370
    -2
100
AcDbLine
 10
37042.38193045554
 20
8982.034149731406
 30
0.0
 11
37027.3819298595
 21
8982.034149731406
 31
0.0
  0
LINE
  5
11A
330
115
100
AcDbEntity
  8
MR-380
  6
Continuous
 62
    18
 48
50.00000038146973
370
    -2
100
AcDbLine
 10
37216.35492513225
 20
8982.034149731406
 30
0.0
 11
37231.3549257283
 21
8982.034149731406
 31
0.0
  0
INSERT
  5
11B
330
115
100
AcDbEntity
  8
MR-380
 62
    18
370
    -2
100
AcDbBlockReference
  2
_OPEN30
 10
37057.38193105159
 20
8982.034149731406
 30
0.0
 41
15.00000059604645
 42
15.00000059604645
 43
15.00000059604645
  0
INSERT
  5
11C
330
115
100
AcDbEntity
  8
MR-380
 62
    18
370
    -2
100
AcDbBlockReference
  2
_OPEN30
 10
37201.35492453621
 20
8982.034149731406
 30
0.0
 41
15.00000059604645
 42
15.00000059604645
 43
15.00000059604645
 50
180.0
  0
MTEXT
  5
11D
330
115
100
AcDbEntity
  8
MR-380
  6
Continuous
 62
     0
370
    25
100
AcDbMText
 10
37129.3684277939
 20
9022.454153820285
 30
0.0
 40
40.0
 41
0.0
 71
     5
 72
     1
  1
143.973
  7
ARIAL
 73
     1
 44
1.0
  0
POINT
  5
11E
330
115
100
AcDbEntity
  8
Defpoints
 62
     0
100
AcDbPoint
 10
37057.38193105159
 20
8926.085972733881
 30
0.0
  0
POINT
  5
121
330
115
100
AcDbEntity
  8
Defpoints
 62
     0
100
AcDbPoint
 10
37201.35492453621
 20
8719.615629130893
 30
0.0
  0
POINT
  5
122
330
115
100
AcDbEntity
  8
Defpoints
 62
     0
100
AcDbPoint
 10
37201.35492453621
 20
8982.034149731406
 30
0.0
  0
ENDBLK
  5
120
330
115
100
AcDbEntity
  8
0
100
AcDbBlockEnd
  0
BLOCK
  5
125
330
124
100
AcDbEntity
  8
0
100
AcDbBlockBegin
  2
Dimension7
 70
     0
 10
0.0
 20
0.0
 30
0.0
  3
Dimension7
  1

  0
ENDBLK
  5
126
330
124
100
AcDbEntity
  8
0
100
AcDbBlockEnd
  0
BLOCK
  5
129
330
128
100
AcDbEntity
  8
0
100
AcDbBlockBegin
  2
Dimension8
 70
     0
 10
0.0
 20
0.0
 30
0.0
  3
Dimension8
  1

  0
ENDBLK
  5
12A
330
128
100
AcDbEntity
  8
0
100
AcDbBlockEnd
  0
BLOCK
  5
12D
330
12C
100
AcDbEntity
  8
0
100
AcDbBlockBegin
  2
Dimension9
 70
     0
 10
0.0
 20
0.0
 30
0.0
  3
Dimension9
  1

  0
ENDBLK
  5
12E
330
12C
100
AcDbEntity
  8
0
100
AcDbBlockEnd
  0
BLOCK
  5
131
330
130
100
AcDbEntity
  8
0
100
AcDbBlockBegin
  2
Dimension10
 70
     0
 10
0.0
 20
0.0
 30
0.0
  3
Dimension10
  1

  0
ENDBLK
  5
132
330
130
100
AcDbEntity
  8
0
100
AcDbBlockEnd
  0
BLOCK
  5
135
330
134
100
AcDbEntity
  8
0
100
AcDbBlockBegin
  2
Dimension11
 70
     0
 10
0.0
 20
0.0
 30
0.0
  3
Dimension11
  1

  0
ENDBLK
  5
136
330
134
100
AcDbEntity
  8
0
100
AcDbBlockEnd
  0
BLOCK
  5
139
330
138
100
AcDbEntity
  8
0
100
AcDbBlockBegin
  2
Dimension12
 70
     0
 10
0.0
 20
0.0
 30
0.0
  3
Dimension12
  1

  0
ENDBLK
  5
13A
330
138
100
AcDbEntity
  8
0
100
AcDbBlockEnd
  0
BLOCK
  5
13D
330
13C
100
AcDbEntity
  8
0
100
AcDbBlockBegin
  2
Dimension13
 70
     0
 10
0.0
 20
0.0
 30
0.0
  3
Dimension13
  1

  0
ENDBLK
  5
13E
330
13C
100
AcDbEntity
  8
0
100
AcDbBlockEnd
  0
BLOCK
  5
141
330
140
100
AcDbEntity
  8
0
100
AcDbBlockBegin
  2
Dimension14
 70
     0
 10
0.0
 20
0.0
 30
0.0
  3
Dimension14
  1

  0
ENDBLK
  5
142
330
140
100
AcDbEntity
  8
0
100
AcDbBlockEnd
  0
BLOCK
  5
145
330
144
100
AcDbEntity
  8
0
100
AcDbBlockBegin
  2
Dimension15
 70
     0
 10
0.0
 20
0.0
 30
0.0
  3
Dimension15
  1

  0
ENDBLK
  5
146
330
144
100
AcDbEntity
  8
0
100
AcDbBlockEnd
  0
BLOCK
  5
149
330
148
100
AcDbEntity
  8
0
100
AcDbBlockBegin
  2
Dimension16
 70
     0
 10
0.0
 20
0.0
 30
0.0
  3
Dimension16
  1

  0
ENDBLK
  5
14A
330
148
100
AcDbEntity
  8
0
100
AcDbBlockEnd
  0
ENDSEC
  0
SECTION
  2
ENTITIES
  0
TEXT
  5
43
330
1F
100
AcDbEntity
  8
MR-380
  6
Continuous
 62
    18
420
        0
 48
50.00000038146973
370
    25
100
AcDbText
 10
36638.55067348808
 20
8936.946397707807
 30
0.0
 40
32.00000000000001
  1
ü
 41
0.8125
  7
CENTURY GOTHIC
100
AcDbText
  0
TEXT
  5
45
330
1F
100
AcDbEntity
  8
MR-380
  6
Continuous
 62
    18
420
        0
 48
907.2000518798828
370
    25
100
AcDbText
 10
37431.55574132399
 20
8213.239903415017
 30
0.0
 40
19.2
  1
Moser GmbH
 41
0.8125
  7
HLV-L
100
AcDbText
  0
TEXT
  5
46
330
1F
100
AcDbEntity
  8
MR-380
  6
Continuous
 62
    18
420
        0
 48
907.2000518798828
370
    25
100
AcDbText
 10
37431.55574132399
 20
8192.614924040014
 30
0.0
 40
19.2
  1
Im Mühlegrün 13
 41
0.8125
  7
HLV-L
100
AcDbText
  0
TEXT
  5
47
330
1F
100
AcDbEntity
  8
MR-380
  6
Continuous
 62
    18
420
        0
 48
907.2000518798828
370
    25
100
AcDbText
 10
37431.55574132399
 20
8171.989944665014
 30
0.0
 40
19.2
  1
77716 Haslach
 41
0.8125
  7
HLV-L
100
AcDbText
  0
TEXT
  5
48
330
1F
100
AcDbEntity
  8
MR-380
  6
Continuous
 62
    18
420
        0
 48
907.2000518798828
370
    25
100
AcDbText
 10
37431.55574132399
 20
8151.364965290015
 30
0.0
 40
19.2
  1
www.moser.gmbh
 41
0.8125
  7
HLV-L
100
AcDbText
  0
TEXT
  5
4A
330
1F
100
AcDbEntity
  8
MR-380
  6
Continuous
 62
    18
420
        0
 48
41.66666698455811
370
    25
100
AcDbText
 10
37201.14814467689
 20
8294.287510207498
 30
0.0
 40
40.0
  1
MR-380
 41
0.8125
  7
ARIAL
100
AcDbText
  0
TEXT
  5
4C
330
1F
100
AcDbEntity
  8
MR-380
  6
Continuous
 62
    18
420
        0
 48
16.94687619209289
370
    25
100
AcDbText
 10
37228.07877433066
 20
8161.674461974081
 30
0.0
 40
10.86419914340973
  1
Mineralwerkstoffe
 41
0.8125
  7
HELV-HFT
100
AcDbText
  0
INSERT
  5
50
330
1F
100
AcDbEntity
  8
MR-380
  6
Continuous
 62
    18
420
        0
 48
50.00000038146973
370
    25
100
AcDbBlockReference
  2
Dimension1
 10
0.0
 20
0.0
 30
0.0
  0
INSERT
  5
54
330
1F
100
AcDbEntity
  8
MR-380
  6
Continuous
 62
    18
420
        0
 48
50.00000038146973
370
    25
100
AcDbBlockReference
  2
Dimension2
 10
0.0
 20
0.0
 30
0.0
  0
INSERT
  5
58
330
1F
100
AcDbEntity
  8
MR-380
  6
Continuous
 62
    18
420
        0
 48
50.00000038146973
370
    25
100
AcDbBlockReference
  2
Dimension3
 10
0.0
 20
0.0
 30
0.0
  0
DIMENSION
  5
5A
330
1F
100
AcDbEntity
  8
MR-380
  6
Continuous
 62
    18
420
        0
 48
50.00000038146973
370
    25
100
AcDbDimension
  2
*D4
 10
36451.78755442696
 20
8403.81851773935
 30
0.0
 11
36654.58481385926
 21
8435.818521828229
 31
0.0
 70
    32
 71
     5
 42
405.5945188646074
  3
ISO-25
100
AcDbAlignedDimension
 13
36857.38207329156
 23
8317.615686946921
 33
0.0
 14
36451.78755442696
 24
8317.615686946921
 34
0.0
 50
180.0
100
AcDbRotatedDimension
1001
ACAD
1000
DSTYLE
1002
{
1070
    69
1070
     0
1070
   271
1070
     3
1070
   177
1070
    18
1070
   176
1070
    18
1070
   140
1040
24.0
1070
    76
1070
     0
1070
    75
1070
     0
1070
   282
1070
     0
1070
   281
1070
     0
1070
   174
1070
     1
1070
    42
1040
0.0
1070
    49
1040
19.9999995470047
1070
   290
1070
     1
1070
    44
1040
19.9999995470047
1070
    46
1040
0.0
1070
    41
1040
9.000000357627869
1070
   173
1070
     1
1070
   342
1005
0
1070
   344
1005
68
1070
   343
1005
68
1070
   147
1040
20.00000408887863
1070
   178
1070
    18
1070
   340
1005
59
1070
   278
1070
    46
1002
}
1001
ACAD_DSTYLE_DIMEXT_ENABLED
1070
   383
1070
     1
1001
ACAD_DSTYLE_DIMEXT_LENGTH
1070
   378
1040
19.9999995470047
  0
DIMENSION
  5
6E
330
1F
100
AcDbEntity
  8
MR-380
  6
Continuous
 62
    18
420
        0
 48
50.00000038146973
370
    25
100
AcDbDimension
  2
*D6
 10
36845.08731855744
 20
8457.81851773935
 30
0.0
 11
36654.58475602404
 21
8498.238521828229
 31
0.0
 70
    32
 71
     5
 42
381.0051250667893
  3
ISO-25
100
AcDbAlignedDimension
 13
36464.08219349065
 23
8317.615686946921
 33
0.0
 14
36845.08731855744
 24
8317.615686946921
 34
0.0
100
AcDbRotatedDimension
1001
ACAD
1000
DSTYLE
1002
{
1070
   271
1070
     3
1070
   177
1070
    18
1070
   176
1070
    18
1070
   140
1040
40.0
1070
    76
1070
     0
1070
    75
1070
     0
1070
   282
1070
     0
1070
   281
1070
     0
1070
   174
1070
     1
1070
    42
1040
0.0
1070
    49
1040
19.9999995470047
1070
   290
1070
     1
1070
    44
1040
19.9999995470047
1070
    46
1040
0.0
1070
    41
1040
15.00000059604645
1070
   173
1070
     1
1070
   342
1005
0
1070
   344
1005
68
1070
   343
1005
68
1070
   147
1040
20.00000408887863
1070
    70
1070
    18
1070
    69
1070
     0
1070
   340
1005
49
1070
   278
1070
    46
1002
}
1001
ACAD_DSTYLE_DIMEXT_ENABLED
1070
   383
1070
     1
1001
ACAD_DSTYLE_DIMEXT_LENGTH
1070
   378
1040
19.9999995470047
  0
DIMENSION
  5
7B
330
1F
100
AcDbEntity
  8
MR-380
  6
Continuous
 62
    18
420
        0
 48
50.00000038146973
370
    25
100
AcDbDimension
  2
*D7
 10
36916.38193105158
 20
8155.8184089358
 30
0.0
 11
36884.38192696271
 21
8236.318463337575
 31
0.0
 70
    32
 71
     5
 42
161.0001088035478
  3
ISO-25
100
AcDbAlignedDimension
 13
36654.58481385926
 23
8316.818517739348
 33
0.0
 14
36654.58485641063
 24
8155.8184089358
 34
0.0
 50
-90.0
100
AcDbRotatedDimension
1001
ACAD
1000
DSTYLE
1002
{
1070
    69
1070
     0
1070
   271
1070
     3
1070
   177
1070
    18
1070
   176
1070
    18
1070
   140
1040
24.0
1070
    76
1070
     0
1070
    75
1070
     0
1070
   282
1070
     0
1070
   281
1070
     0
1070
   174
1070
     1
1070
    42
1040
0.0
1070
    49
1040
19.9999995470047
1070
   290
1070
     1
1070
    44
1040
19.9999995470047
1070
    46
1040
0.0
1070
    41
1040
9.000000357627869
1070
   173
1070
     1
1070
   342
1005
0
1070
   344
1005
68
1070
   343
1005
68
1070
   147
1040
20.00000408887863
1070
   178
1070
    18
1070
   340
1005
59
1070
   278
1070
    46
1002
}
1001
ACAD_DSTYLE_DIMEXT_ENABLED
1070
   383
1070
     1
1001
ACAD_DSTYLE_DIMEXT_LENGTH
1070
   378
1040
19.9999995470047
  0
INSERT
  5
8B
330
1F
100
AcDbEntity
  8
MR-380
  6
Continuous
 62
    18
420
        0
 48
50.00000038146973
370
    25
100
AcDbBlockReference
  2
Dimension4
 10
0.0
 20
0.0
 30
0.0
  0
LINE
  5
8C
330
1F
100
AcDbEntity
  8
MR-380
  6
Continuous
 62
    18
420
        0
 48
50.00000038146973
370
    25
100
AcDbLine
 10
36610.58476127176
 20
8719.615687519172
 30
3.174999952316284
 11
36698.58476127176
 21
8719.615687519172
 31
3.174999952316284
  0
LINE
  5
8D
330
1F
100
AcDbEntity
  8
MR-380
  6
Continuous
 62
    18
420
        0
 48
50.00000038146973
370
    25
100
AcDbLine
 10
36654.58476127176
 20
8763.615687519174
 30
3.174999952316284
 11
36654.58476127176
 21
8675.61568751917
 31
3.174999952316284
  0
LINE
  5
8E
330
1F
100
AcDbEntity
  8
MR-380
  6
Continuous
 62
    18
420
        0
 48
3.999999985098839
370
    25
100
AcDbLine
 10
37057.38193105159
 20
8516.818338434381
 30
0.0
 11
37057.38193105159
 21
8922.412857298994
 31
0.0
  0
LINE
  5
8F
330
1F
100
AcDbEntity
  8
MR-380
  6
Continuous
 62
    18
420
        0
 48
3.999999985098839
370
    25
100
AcDbLine
 10
37213.17672727033
 20
8683.515629130894
 30
0.0
 11
37213.17672727033
 21
8683.530714162827
 31
0.0
  0
LINE
  5
90
330
1F
100
AcDbEntity
  8
MR-380
  6
Continuous
 62
    18
420
        0
 48
3.999999985098839
370
    25
100
AcDbLine
 10
37213.17672727033
 20
8755.700544098958
 30
0.0
 11
37213.17672727033
 21
8755.71562913089
 31
0.0
  0
LINE
  5
91
330
1F
100
AcDbEntity
  8
MR-380
  6
Continuous
 62
    18
420
        0
 48
15.00000041723251
370
    25
100
AcDbLine
 10
37201.35492453621
 20
8753.642744449566
 30
0.0
 11
37201.35492453621
 21
8685.588513812218
 31
0.0
  0
LINE
  5
92
330
1F
100
AcDbEntity
  8
MR-380
  6
Continuous
 62
    18
420
        0
 48
3.999999985098839
370
    25
100
AcDbLine
 10
37218.38203985488
 20
8683.515629130894
 30
0.0
 11
37218.38203985488
 21
8755.71562913089
 31
0.0
  0
LINE
  5
93
330
1F
100
AcDbEntity
  8
MR-380
  6
Continuous
 62
    18
420
        0
 48
15.00000041723251
370
    25
100
AcDbLine
 10
37072.38203985488
 20
8918.561507449942
 30
0.0
 11
37072.38203985488
 21
8906.00266750716
 31
0.0
  0
LINE
  5
94
330
1F
100
AcDbEntity
  8
MR-380
  6
Continuous
 62
    18
420
        0
 48
15.00000041723251
370
    25
100
AcDbLine
 10
37082.38203985488
 20
8902.495126538268
 30
0.0
 11
37082.38203985488
 21
8915.287957256114
 31
0.0
  0
LINE
  5
95
330
1F
100
AcDbEntity
  8
MR-380
  6
Continuous
 62
    18
420
        0
 48
3.999999985098839
370
    25
100
AcDbLine
 10
37213.19040691075
 20
8683.603240921364
 30
0.0
 11
37210.44124127887
 21
8669.02770634327
 31
0.0
  0
LINE
  5
96
330
1F
100
AcDbEntity
  8
MR-380
  6
Continuous
 62
    18
420
        0
 48
3.999999985098839
370
    25
100
AcDbLine
 10
37210.44124127887
 20
8770.203551918514
 30
0.0
 11
37213.19040691075
 21
8755.62801734042
 31
0.0
  0
LINE
  5
97
330
1F
100
AcDbEntity
  8
MR-380
  6
Continuous
 62
    18
420
        0
 48
3.999999985098839
370
    25
100
AcDbLine
 10
37201.36802770855
 20
8685.67299009451
 30
0.0
 11
37198.72568919342
 21
8671.62498171053
 31
0.0
  0
LINE
  5
98
330
1F
100
AcDbEntity
  8
MR-380
  6
Continuous
 62
    18
420
        0
 48
3.999999985098839
370
    25
100
AcDbLine
 10
37198.72568919342
 20
8767.606276551258
 30
0.0
 11
37201.36802770855
 21
8753.558268167273
 31
0.0
  0
LINE
  5
99
330
1F
100
AcDbEntity
  8
MR-380
  6
Continuous
 62
    18
420
        0
 48
3.999999985098839
370
    25
100
AcDbLine
 10
37213.17672492944
 20
8755.71562913089
 30
0.0
 11
37218.38203985488
 21
8755.71562913089
 31
0.0
  0
LINE
  5
9A
330
1F
100
AcDbEntity
  8
MR-380
  6
Continuous
 62
    18
420
        0
 48
3.999999985098839
370
    25
100
AcDbLine
 10
37218.38203985488
 20
8683.515629130894
 30
0.0
 11
37213.17672329517
 21
8683.515629130894
 31
0.0
  0
LINE
  5
9B
330
1F
100
AcDbEntity
  8
MR-380
  6
Continuous
 62
    18
420
        0
 48
15.00000041723251
370
    25
100
AcDbLine
 10
37201.35716184672
 20
8753.640507139055
 30
0.0
 11
37211.38203985488
 21
8743.615629130889
 31
0.0
  0
LINE
  5
9C
330
1F
100
AcDbEntity
  8
MR-380
  6
Continuous
 62
    18
420
        0
 48
15.00000041723251
370
    25
100
AcDbLine
 10
37211.38203985488
 20
8695.615629130894
 30
0.0
 11
37201.35800686858
 21
8685.591596144597
 31
0.0
  0
LINE
  5
9D
330
1F
100
AcDbEntity
  8
MR-380
  6
Continuous
 62
    18
420
        0
 48
15.00000041723251
370
    25
100
AcDbLine
 10
37211.38203985488
 20
8743.615629130894
 30
0.0
 11
37218.38203985488
 21
8743.615629130894
 31
0.0
  0
LINE
  5
9E
330
1F
100
AcDbEntity
  8
MR-380
  6
Continuous
 62
    18
420
        0
 48
15.00000041723251
370
    25
100
AcDbLine
 10
37218.38203985488
 20
8695.615629130894
 30
0.0
 11
37211.38203985488
 21
8695.615629130894
 31
0.0
  0
LINE
  5
9F
330
1F
100
AcDbEntity
  8
MR-380
  6
Continuous
 62
    18
420
        0
 48
15.00000041723251
370
    25
100
AcDbLine
 10
36639.58485641063
 20
8291.818408935802
 30
0.0
 11
36669.58485641063
 21
8291.818408935802
 31
0.0
  0
LINE
  5
A0
330
1F
100
AcDbEntity
  8
MR-380
  6
Continuous
 62
    18
420
        0
 48
15.00000041723251
370
    25
100
AcDbLine
 10
36669.58485641063
 20
8301.8184089358
 30
0.0
 11
36639.58485641063
 21
8301.8184089358
 31
0.0
  0
LINE
  5
A1
330
1F
100
AcDbEntity
  8
MR-380
  6
Continuous
 62
    18
420
        0
 48
3.999999985098839
370
    25
100
AcDbLine
 10
36857.38203622658
 20
8316.818517739348
 30
0.0
 11
36451.78759149195
 21
8316.818517739348
 31
0.0
  0
LINE
  5
A2
330
1F
100
AcDbEntity
  8
MR-380
  6
Continuous
 62
    18
420
        0
 48
15.00000041723251
370
    25
100
AcDbLine
 10
36620.55774109195
 20
8172.845524254472
 30
0.0
 11
36688.6119717293
 21
8172.845524254474
 31
0.0
  0
LINE
  5
A3
330
1F
100
AcDbEntity
  8
MR-380
  6
Continuous
 62
    18
420
        0
 48
3.999999985098839
370
    25
100
AcDbLine
 10
36690.68485641063
 20
8155.818408935802
 30
0.0
 11
36618.48485641063
 21
8155.8184089358
 31
0.0
  0
LINE
  5
A4
330
1F
100
AcDbEntity
  8
MR-380
  6
Continuous
 62
    18
420
        0
 48
3.999999985098839
370
    25
100
AcDbLine
 10
36690.59724462015
 20
8161.010041879934
 30
0.0
 11
36705.17277919824
 21
8163.759207511814
 31
0.0
  0
LINE
  5
A5
330
1F
100
AcDbEntity
  8
MR-380
  6
Continuous
 62
    18
420
        0
 48
3.999999985098839
370
    25
100
AcDbLine
 10
36603.996933623
 20
8163.759207511814
 30
0.0
 11
36618.5724682011
 21
8161.010041879933
 31
0.0
  0
LINE
  5
A6
330
1F
100
AcDbEntity
  8
MR-380
  6
Continuous
 62
    18
420
        0
 48
3.999999985098839
370
    25
100
AcDbLine
 10
36688.52749544701
 20
8172.832421082124
 30
0.0
 11
36702.57550383099
 21
8175.474759597254
 31
0.0
  0
LINE
  5
A7
330
1F
100
AcDbEntity
  8
MR-380
  6
Continuous
 62
    18
420
        0
 48
3.999999985098839
370
    25
100
AcDbLine
 10
36606.59420899026
 20
8175.474759597254
 30
0.0
 11
36620.64221737424
 21
8172.832421082124
 31
0.0
  0
LINE
  5
A8
330
1F
100
AcDbEntity
  8
MR-380
  6
Continuous
 62
    18
420
        0
 48
3.999999985098839
370
    25
100
AcDbLine
 10
36618.48485641063
 20
8161.023721520354
 30
0.0
 11
36618.48485641063
 21
8155.8184089358
 31
0.0
  0
LINE
  5
A9
330
1F
100
AcDbEntity
  8
MR-380
  6
Continuous
 62
    18
420
        0
 48
3.999999985098839
370
    25
100
AcDbLine
 10
36690.68485641063
 20
8155.818408935802
 30
0.0
 11
36690.68485641063
 21
8161.023723655735
 31
0.0
  0
LINE
  5
AA
330
1F
100
AcDbEntity
  8
MR-380
  6
Continuous
 62
    18
420
        0
 48
15.00000041723251
370
    25
100
AcDbLine
 10
36620.55774109195
 20
8172.845524254472
 30
0.0
 11
36630.58485641062
 21
8162.8184089358
 31
0.0
  0
LINE
  5
AB
330
1F
100
AcDbEntity
  8
MR-380
  6
Continuous
 62
    18
420
        0
 48
15.00000041723251
370
    25
100
AcDbLine
 10
36678.58485641062
 20
8162.818408935802
 30
0.0
 11
36688.6077986513
 21
8172.841351176477
 31
0.0
  0
LINE
  5
AC
330
1F
100
AcDbEntity
  8
MR-380
  6
Continuous
 62
    18
420
        0
 48
15.00000041723251
370
    25
100
AcDbLine
 10
36630.58485641062
 20
8162.8184089358
 30
0.0
 11
36630.58485641062
 21
8155.8184089358
 31
0.0
  0
LINE
  5
AD
330
1F
100
AcDbEntity
  8
MR-380
  6
Continuous
 62
    18
420
        0
 48
15.00000041723251
370
    25
100
AcDbLine
 10
36678.58485641062
 20
8155.818408935802
 30
0.0
 11
36678.58485641062
 21
8162.818408935802
 31
0.0
  0
LINE
  5
AE
330
1F
100
AcDbEntity
  8
MR-380
  6
Continuous
 62
    18
420
        0
 48
60.00000166893005
370
    25
100
AcDbLine
 10
37585.84298056729
 20
8120.811543434515
 30
0.0
 11
37585.84298056729
 21
9120.811551063909
 31
0.0
  0
LINE
  5
AF
330
1F
100
AcDbEntity
  8
MR-380
  6
Continuous
 62
    18
420
        0
 48
60.00000166893005
370
    25
100
AcDbLine
 10
37585.84298056729
 20
9120.811551063909
 30
0.0
 11
36150.84297446378
 21
9120.811551063909
 31
0.0
  0
LINE
  5
B0
330
1F
100
AcDbEntity
  8
MR-380
  6
Continuous
 62
    18
420
        0
 48
60.00000166893005
370
    25
100
AcDbLine
 10
37573.84293784268
 20
8140.811733740225
 30
0.0
 11
37573.84293784268
 21
9035.811506813421
 31
0.0
  0
LINE
  5
B1
330
1F
100
AcDbEntity
  8
MR-380
  6
Continuous
 62
    18
420
        0
 48
60.00000166893005
370
    25
100
AcDbLine
 10
37573.84293784268
 20
9035.811506813421
 30
0.0
 11
36162.84301718838
 21
9035.811506813421
 31
0.0
  0
LINE
  5
B2
330
1F
100
AcDbEntity
  8
MR-380
  6
Continuous
 62
    18
420
        0
 48
60.00000166893005
370
    25
100
AcDbLine
 10
36150.84297446378
 20
8120.811543434515
 30
0.0
 11
37585.84298056729
 21
8120.811543434515
 31
0.0
  0
LINE
  5
B3
330
1F
100
AcDbEntity
  8
MR-380
  6
Continuous
 62
    18
420
        0
 48
60.00000166893005
370
    25
100
AcDbLine
 10
36162.84301718838
 20
8140.811733740225
 30
0.0
 11
37573.84293784268
 21
8140.811733740225
 31
0.0
  0
LINE
  5
B4
330
1F
100
AcDbEntity
  8
MR-380
  6
Continuous
 62
    18
420
        0
 48
907.2000518798828
370
    25
100
AcDbLine
 10
37573.84293784268
 20
8140.811733740225
 30
0.0
 11
37573.84293784268
 21
8363.561733740225
 31
0.0
  0
LINE
  5
B5
330
1F
100
AcDbEntity
  8
MR-380
  6
Continuous
 62
    18
420
        0
 48
907.2000518798828
370
    25
100
AcDbLine
 10
36867.84293784268
 20
8140.811733740225
 30
0.0
 11
37573.84293784268
 21
8140.811733740225
 31
0.0
  0
LINE
  5
B6
330
1F
100
AcDbEntity
  8
MR-380
  6
Continuous
 62
    18
420
        0
 48
907.2000518798828
370
    25
100
AcDbLine
 10
37199.84293784268
 20
8140.811733740225
 30
0.0
 11
37199.84293784268
 21
8253.561733740224
 31
0.0
  0
LINE
  5
B7
330
1F
100
AcDbEntity
  8
MR-380
  6
Continuous
 62
    18
420
        0
 48
60.00000166893005
370
    25
100
AcDbLine
 10
37199.84293784268
 20
8253.561733740224
 30
0.0
 11
37573.84293784268
 21
8253.561733740224
 31
0.0
  0
LINE
  5
B8
330
1F
100
AcDbEntity
  8
MR-380
  6
Continuous
 62
    18
420
        0
 48
162.0000075340271
370
    25
100
AcDbLine
 10
37265.35378318649
 20
8223.670450488493
 30
0.0
 11
37294.97928135689
 21
8223.672368446882
 31
0.0
  0
LINE
  5
B9
330
1F
100
AcDbEntity
  8
MR-380
  6
Continuous
 62
    18
420
        0
 48
162.0000075340271
370
    25
100
AcDbLine
 10
37261.52605373761
 20
8214.413134829934
 30
0.0
 11
37298.80525175225
 21
8214.414253378078
 31
0.0
  0
LINE
  5
BA
330
1F
100
AcDbEntity
  8
MR-380
  6
Continuous
 62
    18
420
        0
 48
162.0000075340271
370
    25
100
AcDbLine
 10
37297.62672796933
 20
8219.041391078608
 30
0.0
 11
37262.70599022503
 21
8219.042486907761
 31
0.0
  0
LINE
  5
BB
330
1F
100
AcDbEntity
  8
MR-380
  6
Continuous
 62
    18
420
        0
 48
162.0000075340271
370
    25
100
AcDbLine
 10
37262.70790833372
 20
8205.217865722887
 30
0.0
 11
37297.62630038577
 21
8205.220819527907
 31
0.0
  0
LINE
  5
BC
330
1F
100
AcDbEntity
  8
MR-380
  6
Continuous
 62
    18
420
        0
 48
162.0000075340271
370
    25
100
AcDbLine
 10
37298.80623662014
 20
8209.851344014765
 30
0.0
 11
37261.52703885856
 21
8209.849053057591
 31
0.0
  0
LINE
  5
BD
330
1F
100
AcDbEntity
  8
MR-380
  6
Continuous
 62
    18
420
        0
 48
162.0000075340271
370
    25
100
AcDbLine
 10
37294.98085263347
 20
8200.59104454842
 30
0.0
 11
37265.35290264827
 21
8200.59104454842
 31
0.0
  0
LINE
  5
BE
330
1F
100
AcDbEntity
  8
MR-380
  6
Continuous
 62
    18
420
        0
 48
162.0000075340271
370
    25
100
AcDbLine
 10
37301.74470304167
 20
8200.548272674734
 30
0.0
 11
37320.12072344701
 21
8200.547549357043
 31
0.0
  0
LINE
  5
BF
330
1F
100
AcDbEntity
  8
MR-380
  6
Continuous
 62
    18
420
        0
 48
162.0000075340271
370
    25
100
AcDbLine
 10
37320.11888445297
 20
8214.499430236034
 30
0.0
 11
37308.61946947897
 21
8214.500998318746
 31
0.0
  0
LINE
  5
C0
330
1F
100
AcDbEntity
  8
MR-380
  6
Continuous
 62
    18
420
        0
 48
162.0000075340271
370
    25
100
AcDbLine
 10
37308.51493597669
 20
8218.833666820688
 30
0.0
 11
37326.99348848977
 21
8218.834777538692
 31
0.0
  0
LINE
  5
C1
330
1F
100
AcDbEntity
  8
MR-380
  6
Continuous
 62
    18
420
        0
 48
162.0000075340271
370
    25
100
AcDbLine
 10
37326.99348848977
 20
8218.834777538692
 30
0.0
 11
37326.99468993498
 21
8223.638244401605
 31
0.0
  0
LINE
  5
C2
330
1F
100
AcDbEntity
  8
MR-380
  6
Continuous
 62
    18
420
        0
 48
162.0000075340271
370
    25
100
AcDbLine
 10
37326.99468993498
 20
8223.638244401605
 30
0.0
 11
37308.51507145747
 21
8223.637772949389
 31
0.0
  0
LINE
  5
C3
330
1F
100
AcDbEntity
  8
MR-380
  6
Continuous
 62
    18
420
        0
 48
162.0000075340271
370
    25
100
AcDbLine
 10
37308.51690845007
 20
8209.695164760002
 30
0.0
 11
37320.0163249194
 21
8209.686668805742
 31
0.0
  0
LINE
  5
C4
330
1F
100
AcDbEntity
  8
MR-380
  6
Continuous
 62
    18
420
        0
 48
162.0000075340271
370
    25
100
AcDbLine
 10
37320.11968638073
 20
8205.352294728522
 30
0.0
 11
37301.74483877551
 21
8205.351206394404
 31
0.0
  0
LINE
  5
C5
330
1F
100
AcDbEntity
  8
MR-380
  6
Continuous
 62
    18
420
        0
 48
162.0000075340271
370
    25
100
AcDbLine
 10
37301.74483877551
 20
8205.351206394404
 30
0.0
 11
37301.74470304167
 21
8200.548272674734
 31
0.0
  0
LINE
  5
C6
330
1F
100
AcDbEntity
  8
MR-380
  6
Continuous
 62
    18
420
        0
 48
162.0000075340271
370
    25
100
AcDbLine
 10
37340.26377540186
 20
8200.556586711818
 30
0.0
 11
37355.28659925985
 21
8200.55577912904
 31
0.0
  0
LINE
  5
C7
330
1F
100
AcDbEntity
  8
MR-380
  6
Continuous
 62
    18
420
        0
 48
162.0000075340271
370
    25
100
AcDbLine
 10
37355.28659925985
 20
8200.55577912904
 30
0.0
 11
37355.2867346256
 21
8205.36041817093
 31
0.0
  0
LINE
  5
C8
330
1F
100
AcDbEntity
  8
MR-380
  6
Continuous
 62
    18
420
        0
 48
162.0000075340271
370
    25
100
AcDbLine
 10
37355.2867346256
 20
8205.36041817093
 30
0.0
 11
37340.26273861164
 21
8205.360053091623
 31
0.0
  0
LINE
  5
C9
330
1F
100
AcDbEntity
  8
MR-380
  6
Continuous
 62
    18
420
        0
 48
162.0000075340271
370
    25
100
AcDbLine
 10
37334.69849513438
 20
8209.757730980331
 30
0.0
 11
37355.28695768649
 21
8209.758764192504
 31
0.0
  0
LINE
  5
CA
330
1F
100
AcDbEntity
  8
MR-380
  6
Continuous
 62
    18
420
        0
 48
162.0000075340271
370
    25
100
AcDbLine
 10
37355.28695768649
 20
8209.758764192504
 30
0.0
 11
37355.28592114933
 21
8214.561058163283
 31
0.0
  0
LINE
  5
CB
330
1F
100
AcDbEntity
  8
MR-380
  6
Continuous
 62
    18
420
        0
 48
162.0000075340271
370
    25
100
AcDbLine
 10
37355.28592114933
 20
8214.561058163283
 30
0.0
 11
37334.69863098324
 21
8214.560131786804
 31
0.0
  0
LINE
  5
CC
330
1F
100
AcDbEntity
  8
MR-380
  6
Continuous
 62
    18
420
        0
 48
162.0000075340271
370
    25
100
AcDbLine
 10
37340.26086895152
 20
8218.960211238513
 30
0.0
 11
37355.28731625116
 21
8218.961109760134
 31
0.0
  0
LINE
  5
CD
330
1F
100
AcDbEntity
  8
MR-380
  6
Continuous
 62
    18
420
        0
 48
162.0000075340271
370
    25
100
AcDbLine
 10
37355.28731625116
 20
8218.961109760134
 30
0.0
 11
37355.28734540235
 21
8223.7640434568
 31
0.0
  0
LINE
  5
CE
330
1F
100
AcDbEntity
  8
MR-380
  6
Continuous
 62
    18
420
        0
 48
162.0000075340271
370
    25
100
AcDbLine
 10
37355.28734540235
 20
8223.7640434568
 30
0.0
 11
37340.26324266772
 21
8223.764317850317
 31
0.0
  0
LINE
  5
CF
330
1F
100
AcDbEntity
  8
MR-380
  6
Continuous
 62
    18
420
        0
 48
162.0000075340271
370
    25
100
AcDbLine
 10
37358.74679893359
 20
8200.582958481502
 30
0.0
 11
37363.85189429714
 21
8200.583527462735
 31
0.0
  0
LINE
  5
D0
330
1F
100
AcDbEntity
  8
MR-380
  6
Continuous
 62
    18
420
        0
 48
162.0000075340271
370
    25
100
AcDbLine
 10
37363.85189429714
 20
8200.583527462735
 30
0.0
 11
37363.85253488839
 21
8218.849021648302
 31
0.0
  0
LINE
  5
D1
330
1F
100
AcDbEntity
  8
MR-380
  6
Continuous
 62
    18
420
        0
 48
162.0000075340271
370
    25
100
AcDbLine
 10
37363.85253488839
 20
8218.849021648302
 30
0.0
 11
37376.30288003058
 21
8218.848298312205
 31
0.0
  0
LINE
  5
D2
330
1F
100
AcDbEntity
  8
MR-380
  6
Continuous
 62
    18
420
        0
 48
162.0000075340271
370
    25
100
AcDbLine
 10
37376.40741330281
 20
8214.516695636656
 30
0.0
 11
37365.32111351222
 21
8214.514302746542
 31
0.0
  0
LINE
  5
D3
330
1F
100
AcDbEntity
  8
MR-380
  6
Continuous
 62
    18
420
        0
 48
162.0000075340271
370
    25
100
AcDbLine
 10
37365.32111351222
 20
8214.514302746542
 30
0.0
 11
37365.32108919208
 21
8209.688986695664
 31
0.0
  0
LINE
  5
D4
330
1F
100
AcDbEntity
  8
MR-380
  6
Continuous
 62
    18
420
        0
 48
162.0000075340271
370
    25
100
AcDbLine
 10
37365.32108919208
 20
8209.688986695664
 30
0.0
 11
37371.46099553685
 21
8209.689139536793
 31
0.0
  0
LINE
  5
D5
330
1F
100
AcDbEntity
  8
MR-380
  6
Continuous
 62
    18
420
        0
 48
162.0000075340271
370
    25
100
AcDbLine
 10
37371.46099553685
 20
8209.689139536793
 30
0.0
 11
37377.71456601329
 21
8200.583002383513
 31
0.0
  0
LINE
  5
D6
330
1F
100
AcDbEntity
  8
MR-380
  6
Continuous
 62
    18
420
        0
 48
162.0000075340271
370
    25
100
AcDbLine
 10
37377.71456601329
 20
8200.583002383513
 30
0.0
 11
37383.9684088082
 21
8200.584991721875
 31
0.0
  0
LINE
  5
D7
330
1F
100
AcDbEntity
  8
MR-380
  6
Continuous
 62
    18
420
        0
 48
162.0000075340271
370
    25
100
AcDbLine
 10
37383.9684088082
 20
8200.584991721875
 30
0.0
 11
37377.55718995574
 21
8209.749715302249
 31
0.0
  0
LINE
  5
D8
330
1F
100
AcDbEntity
  8
MR-380
  6
Continuous
 62
    18
420
        0
 48
162.0000075340271
370
    25
100
AcDbLine
 10
37376.40650713892
 20
8223.652959691974
 30
0.0
 11
37358.74757500563
 21
8223.652558795766
 31
0.0
  0
LINE
  5
D9
330
1F
100
AcDbEntity
  8
MR-380
  6
Continuous
 62
    18
420
        0
 48
162.0000075340271
370
    25
100
AcDbLine
 10
37358.74757500563
 20
8223.652558795766
 30
0.0
 11
37358.74679893359
 21
8200.582958481502
 31
0.0
  0
LINE
  5
DA
330
1F
100
AcDbEntity
  8
MR-380
  6
Continuous
 62
    18
420
        0
 48
162.0000075340271
370
    25
100
AcDbLine
 10
37229.28118768003
 20
8200.551603708785
 30
0.0
 11
37229.27910543474
 21
8220.56846331424
 31
0.0
  0
LINE
  5
DB
330
1F
100
AcDbEntity
  8
MR-380
  6
Continuous
 62
    18
420
        0
 48
162.0000075340271
370
    25
100
AcDbLine
 10
37235.39332147678
 20
8222.068015247301
 30
0.0
 11
37243.58981761298
 21
8208.375726536278
 31
0.0
  0
LINE
  5
DC
330
1F
100
AcDbEntity
  8
MR-380
  6
Continuous
 62
    18
420
        0
 48
162.0000075340271
370
    25
100
AcDbLine
 10
37243.58981761298
 20
8208.375726536278
 30
0.0
 11
37251.78487947131
 21
8222.068036008186
 31
0.0
  0
LINE
  5
DD
330
1F
100
AcDbEntity
  8
MR-380
  6
Continuous
 62
    18
420
        0
 48
162.0000075340271
370
    25
100
AcDbLine
 10
37257.89750438614
 20
8220.569524402365
 30
0.0
 11
37257.89958665444
 21
8200.552558214269
 31
0.0
  0
LINE
  5
DE
330
1F
100
AcDbEntity
  8
MR-380
  6
Continuous
 62
    18
420
        0
 48
162.0000075340271
370
    25
100
AcDbLine
 10
37257.89958665444
 20
8200.552558214269
 30
0.0
 11
37252.89116160654
 21
8200.552649594425
 31
0.0
  0
LINE
  5
DF
330
1F
100
AcDbEntity
  8
MR-380
  6
Continuous
 62
    18
420
        0
 48
162.0000075340271
370
    25
100
AcDbLine
 10
37252.89116160654
 20
8200.552649594425
 30
0.0
 11
37252.89059293089
 21
8214.05091501438
 31
0.0
  0
LINE
  5
E0
330
1F
100
AcDbEntity
  8
MR-380
  6
Continuous
 62
    18
420
        0
 48
162.0000075340271
370
    25
100
AcDbLine
 10
37252.89059293089
 20
8214.05091501438
 30
0.0
 11
37246.20046871382
 21
8202.870656961852
 31
0.0
  0
LINE
  5
E1
330
1F
100
AcDbEntity
  8
MR-380
  6
Continuous
 62
    18
420
        0
 48
162.0000075340271
370
    25
100
AcDbLine
 10
37240.97919850369
 20
8202.868997078756
 30
0.0
 11
37234.28893772268
 21
8214.048605316548
 31
0.0
  0
LINE
  5
E2
330
1F
100
AcDbEntity
  8
MR-380
  6
Continuous
 62
    18
420
        0
 48
162.0000075340271
370
    25
100
AcDbLine
 10
37234.28893772268
 20
8214.048605316548
 30
0.0
 11
37234.28844043391
 21
8200.550979162379
 31
0.0
  0
LINE
  5
E3
330
1F
100
AcDbEntity
  8
MR-380
  6
Continuous
 62
    18
420
        0
 48
162.0000075340271
370
    25
100
AcDbLine
 10
37234.28844043391
 20
8200.550979162379
 30
0.0
 11
37229.28118768003
 21
8200.551603708785
 31
0.0
  0
LINE
  5
E4
330
1F
100
AcDbEntity
  8
MR-380
  6
Continuous
 62
    18
420
        0
 48
60.00000166893005
370
    25
100
AcDbLine
 10
36150.84297446378
 20
9120.811551063909
 30
0.0
 11
36150.84297446378
 21
8120.811543434515
 31
0.0
  0
LINE
  5
E5
330
1F
100
AcDbEntity
  8
MR-380
  6
Continuous
 62
    18
420
        0
 48
60.00000166893005
370
    25
100
AcDbLine
 10
36162.84301718838
 20
9035.811506813421
 30
0.0
 11
36162.84301718838
 21
8140.811733740225
 31
0.0
  0
CIRCLE
  5
E6
330
1F
100
AcDbEntity
  8
MR-380
  6
Continuous
 62
    18
420
        0
 48
15.00000041723251
370
    25
100
AcDbCircle
 10
36654.58476127176
 20
8719.615687519172
 30
3.174999952316284
 40
202.7971697798222
  0
CIRCLE
  5
E7
330
1F
100
AcDbEntity
  8
MR-380
  6
Continuous
 62
    18
420
        0
 48
3.999999985098839
370
    25
100
AcDbCircle
 10
36654.58441443394
 20
8719.623711769085
 30
3.174999952316284
 40
190.5021642309952
  0
CIRCLE
  5
E8
330
1F
100
AcDbEntity
  8
MR-380
  6
Continuous
 62
    18
420
        0
 48
3.999999985098839
370
    25
100
AcDbCircle
 10
36654.58475544904
 20
8719.615606245437
 30
3.174999952316284
 40
34.02712114149615
  0
CIRCLE
  5
E9
330
1F
100
AcDbEntity
  8
MR-380
  6
Continuous
 62
    18
420
        0
 48
3.999999985098839
370
    25
100
AcDbCircle
 10
36654.58476127176
 20
8719.615687519172
 30
3.174999952316284
 40
23.99999999999999
  0
ARC
  5
EA
330
1F
100
AcDbEntity
  8
MR-380
  6
Continuous
 62
    18
420
        0
 48
3.999999985098839
370
    25
100
AcDbCircle
 10
37015.18139728634
 20
8726.914990984547
 30
0.0
 40
200.000751957521
100
AcDbArc
 50
12.50013142902041
 51
77.81892883808388
  0
ARC
  5
EB
330
1F
100
AcDbEntity
  8
MR-380
  6
Continuous
 62
    18
420
        0
 48
3.999999985098839
370
    25
100
AcDbCircle
 10
37015.18157322619
 20
8712.316045521886
 30
0.0
 40
200.0005591918739
100
AcDbArc
 50
282.1810315186469
 51
347.4998847932883
  0
ARC
  5
EC
330
1F
100
AcDbEntity
  8
MR-380
  6
Continuous
 62
    18
420
        0
 48
15.00000041723251
370
    25
100
AcDbCircle
 10
37015.18150887085
 20
8726.915170814984
 30
0.0
 40
188.0006175955906
100
AcDbArc
 50
12.50010134188599
 51
77.02830968637315
  0
ARC
  5
ED
330
1F
100
AcDbEntity
  8
MR-380
  6
Continuous
 62
    18
420
        0
 48
15.00000041723251
370
    25
100
AcDbCircle
 10
37015.18166301171
 20
8712.316002884954
 30
0.0
 40
188.0004488058751
100
AcDbArc
 50
282.9716879838618
 51
347.499913650953
  0
ARC
  5
EE
330
1F
100
AcDbEntity
  8
MR-380
  6
Continuous
 62
    18
420
        0
 48
3.999999985098839
370
    25
100
AcDbCircle
 10
36647.28515218928
 20
8359.018729987258
 30
0.0
 40
200.0003853805747
100
AcDbArc
 50
192.1809996016868
 51
257.4999167101741
  0
ARC
  5
EF
330
1F
100
AcDbEntity
  8
MR-380
  6
Continuous
 62
    18
420
        0
 48
3.999999985098839
370
    25
100
AcDbCircle
 10
36661.88435820134
 20
8359.018843295138
 30
0.0
 40
200.000523975004
100
AcDbArc
 50
282.5001124103383
 51
347.8189757610227
  0
ARC
  5
F0
330
1F
100
AcDbEntity
  8
MR-380
  6
Continuous
 62
    18
420
        0
 48
15.00000041723251
370
    25
100
AcDbCircle
 10
36647.28523016469
 20
8359.018785778966
 30
0.0
 40
188.0004488058759
100
AcDbArc
 50
192.9716879838628
 51
257.4999136509536
  0
ARC
  5
F1
330
1F
100
AcDbEntity
  8
MR-380
  6
Continuous
 62
    18
420
        0
 48
15.00000041723251
370
    25
100
AcDbCircle
 10
36661.88448265656
 20
8359.018785778962
 30
0.0
 40
188.000448805872
100
AcDbArc
 50
282.5000863490484
 51
347.0283120161385
  0
ARC
  5
F2
330
1F
100
AcDbEntity
  8
MR-380
  6
Continuous
 62
    18
420
        0
 48
162.0000075340271
370
    25
100
AcDbCircle
 10
37280.16727933427
 20
8212.132003122266
 30
0.0
 40
18.77699219107415
100
AcDbArc
 50
37.92296160428956
 51
142.0844570673036
  0
ARC
  5
F3
330
1F
100
AcDbEntity
  8
MR-380
  6
Continuous
 62
    18
420
        0
 48
162.0000075340271
370
    25
100
AcDbCircle
 10
37280.16449872352
 20
8212.12758692982
 30
0.0
 40
18.77805529591939
100
AcDbArc
 50
158.3926594912004
 51
173.0089805633589
  0
ARC
  5
F4
330
1F
100
AcDbEntity
  8
MR-380
  6
Continuous
 62
    18
420
        0
 48
162.0000075340271
370
    25
100
AcDbCircle
 10
37280.17618027179
 20
8212.13311465405
 30
0.0
 40
18.76821510166706
100
AcDbArc
 50
6.981142041195775
 51
21.59749032314033
  0
ARC
  5
F5
330
1F
100
AcDbEntity
  8
MR-380
  6
Continuous
 62
    18
420
        0
 48
162.0000075340271
370
    25
100
AcDbCircle
 10
37280.17320740285
 20
8212.137346765792
 30
0.0
 40
18.78605571899321
100
AcDbArc
 50
186.9964645332823
 51
201.6127039760854
  0
ARC
  5
F6
330
1F
100
AcDbEntity
  8
MR-380
  6
Continuous
 62
    18
420
        0
 48
162.0000075340271
370
    25
100
AcDbCircle
 10
37280.16322088415
 20
8212.136304723776
 30
0.0
 40
18.78252062887696
100
AcDbArc
 50
338.3961344461534
 51
353.0124555183111
  0
ARC
  5
F7
330
1F
100
AcDbEntity
  8
MR-380
  6
Continuous
 62
    18
420
        0
 48
162.0000075340271
370
    25
100
AcDbCircle
 10
37280.16687764087
 20
8212.131314267477
 30
0.0
 40
18.77848982931697
100
AcDbArc
 50
217.9190317150191
 51
322.080968284981
  0
ARC
  5
F8
330
1F
100
AcDbEntity
  8
MR-380
  6
Continuous
 62
    18
420
        0
 48
162.0000075340271
370
    25
100
AcDbCircle
 10
37320.31124647893
 20
8207.523515030533
 30
0.0
 40
6.978566908999228
100
AcDbArc
 50
268.4355638780455
 51
91.57954040753705
  0
ARC
  5
F9
330
1F
100
AcDbEntity
  8
MR-380
  6
Continuous
 62
    18
420
        0
 48
162.0000075340271
370
    25
100
AcDbCircle
 10
37308.86029759199
 20
8216.67440401602
 30
0.0
 40
2.186707686215414
100
AcDbArc
 50
99.08716097409676
 51
263.6770323931472
  0
ARC
  5
FA
330
1F
100
AcDbEntity
  8
MR-380
  6
Continuous
 62
    18
420
        0
 48
162.0000075340271
370
    25
100
AcDbCircle
 10
37308.32469245606
 20
8216.666443650507
 30
0.0
 40
6.973928330401642
100
AcDbArc
 50
88.43570681814643
 51
271.5793910633276
  0
ARC
  5
FB
330
1F
100
AcDbEntity
  8
MR-380
  6
Continuous
 62
    18
420
        0
 48
162.0000075340271
370
    25
100
AcDbCircle
 10
37319.77476974949
 20
8207.512488994787
 30
0.0
 40
2.187557256506918
100
AcDbArc
 50
279.0717992648611
 51
83.66033837562392
  0
ARC
  5
FC
330
1F
100
AcDbEntity
  8
MR-380
  6
Continuous
 62
    18
420
        0
 48
162.0000075340271
370
    25
100
AcDbCircle
 10
37340.60382447726
 20
8211.51058835841
 30
0.0
 40
6.159985684699242
100
AcDbArc
 50
196.5322763668531
 51
266.8258399252684
  0
ARC
  5
FD
330
1F
100
AcDbEntity
  8
MR-380
  6
Continuous
 62
    18
420
        0
 48
162.0000075340271
370
    25
100
AcDbCircle
 10
37340.60466135088
 20
8212.809901765131
 30
0.0
 40
6.159910700022881
100
AcDbArc
 50
93.19941229080888
 51
163.4930068869733
  0
ARC
  5
FE
330
1F
100
AcDbEntity
  8
MR-380
  6
Continuous
 62
    18
420
        0
 48
162.0000075340271
370
    25
100
AcDbCircle
 10
37340.09627354463
 20
8212.957086374148
 30
0.0
 40
10.8085212155774
100
AcDbArc
 50
89.11486442915214
 51
136.5283713875384
  0
ARC
  5
FF
330
1F
100
AcDbEntity
  8
MR-380
  6
Continuous
 62
    18
420
        0
 48
162.0000075340271
370
    25
100
AcDbCircle
 10
37340.96868143923
 20
8212.858830898855
 30
0.0
 40
11.52138668666262
100
AcDbArc
 50
139.1595473476376
 51
183.4766818662686
  0
ARC
  5
100
330
1F
100
AcDbEntity
  8
MR-380
  6
Continuous
 62
    18
420
        0
 48
162.0000075340271
370
    25
100
AcDbCircle
 10
37340.96888867729
 20
8211.461615099242
 30
0.0
 40
11.52158436746277
100
AcDbArc
 50
176.5241317977124
 51
220.8411051562454
  0
ARC
  5
101
330
1F
100
AcDbEntity
  8
MR-380
  6
Continuous
 62
    18
420
        0
 48
162.0000075340271
370
    25
100
AcDbCircle
 10
37340.0958417738
 20
8211.363947560329
 30
0.0
 40
10.80866551491701
100
AcDbArc
 50
223.4768675460079
 51
270.890237122227
  0
ARC
  5
102
330
1F
100
AcDbEntity
  8
MR-380
  6
Continuous
 62
    18
420
        0
 48
162.0000075340271
370
    25
100
AcDbCircle
 10
37376.06204563488
 20
8216.675423654866
 30
0.0
 40
2.186180569544971
100
AcDbArc
 50
279.0895312176609
 51
83.67533595583488
  0
ARC
  5
103
330
1F
100
AcDbEntity
  8
MR-380
  6
Continuous
 62
    18
420
        0
 48
162.0000075340271
370
    25
100
AcDbCircle
 10
37376.6698885993
 20
8216.057354838395
 30
0.0
 40
6.369742554848708
100
AcDbArc
 50
278.0073079506274
 51
5.572465930779263
  0
ARC
  5
104
330
1F
100
AcDbEntity
  8
MR-380
  6
Continuous
 62
    18
420
        0
 48
162.0000075340271
370
    25
100
AcDbCircle
 10
37376.67146226104
 20
8217.290661663537
 30
0.0
 40
6.367812608690737
100
AcDbArc
 50
354.4597953776586
 51
92.38467978670954
  0
ARC
  5
105
330
1F
100
AcDbEntity
  8
MR-380
  6
Continuous
 62
    18
420
        0
 48
162.0000075340271
370
    25
100
AcDbCircle
 10
37232.50255596271
 20
8220.640000666952
 30
0.0
 40
3.224244236886124
100
AcDbArc
 50
26.28899618675848
 51
181.2713443682091
  0
ARC
  5
106
330
1F
100
AcDbEntity
  8
MR-380
  6
Continuous
 62
    18
420
        0
 48
162.0000075340271
370
    25
100
AcDbCircle
 10
37254.67493740283
 20
8220.640606240362
 30
0.0
 40
3.223350832532582
100
AcDbArc
 50
358.7364020576941
 51
153.7147532945831
  0
ARC
  5
107
330
1F
100
AcDbEntity
  8
MR-380
  6
Continuous
 62
    18
420
        0
 48
162.0000075340271
370
    25
100
AcDbCircle
 10
37243.58945619177
 20
8204.057016688372
 30
0.0
 40
2.867897451272214
100
AcDbArc
 50
204.4719426219853
 51
335.5644869397248
  0
LWPOLYLINE
  5
108
330
1F
100
AcDbEntity
  8
MR-380
  6
Continuous
 62
    18
420
        0
 48
15.00000041723251
370
    25
100
AcDbPolyline
 90
       37
 70
     0
 43
0.0
 10
36634.58485641062
 20
8296.8184089358
 10
36634.58939542694
 20
8296.60576762377
 10
36634.60300487521
 20
8296.393105296702
 10
36634.62567335444
 20
8296.1809525188
 10
36634.65738946361
 20
8295.969839854273
 10
36634.69947802738
 20
8295.75403428516
 10
36634.75115884914
 20
8295.539722031495
 10
36634.8123309641
 20
8295.3274974514
 10
36634.88289340755
 20
8295.117954902997
 10
36634.96057064054
 20
8294.916883645603
 10
36635.04711478039
 20
8294.718747828056
 10
36635.14233637861
 20
8294.5241042526
 10
36635.24604598671
 20
8294.333509721475
 10
36635.36188158813
 20
8294.141423316323
 10
36635.48665521841
 20
8293.954087730966
 10
36635.62003464517
 20
8293.772106612383
 10
36635.76168763604
 20
8293.596083607554
 10
36635.90120414075
 20
8293.437505222979
 10
36636.04775746428
 20
8293.28449000277
 10
36636.20096818333
 20
8293.137498021179
 10
36636.36045687457
 20
8292.996989352458
 10
36636.53159258501
 20
8292.858947494806
 10
36636.70915708284
 20
8292.728186689978
 10
36636.89261362873
 20
8292.60514602248
 10
36637.0814254833
 20
8292.490264576825
 10
36637.25932036901
 20
8292.392158142235
 10
36637.4414304758
 20
8292.301175862247
 10
36637.6272628587
 20
8292.217578388625
 10
36637.81632457277
 20
8292.14162637313
 10
36638.01447130525
 20
8292.071444232362
 10
36638.21568148478
 20
8292.009565558426
 10
36638.41935851202
 20
8291.95616686054
 10
36638.62490578763
 20
8291.911424647928
 10
36638.86300310152
 20
8291.870828213943
 10
36639.10298343623
 20
8291.841749921672
 10
36639.34391260239
 20
8291.824255064499
 10
36639.58485641063
 20
8291.818408935802
  0
LWPOLYLINE
  5
109
330
1F
100
AcDbEntity
  8
MR-380
  6
Continuous
 62
    18
420
        0
 48
15.00000041723251
370
    25
100
AcDbPolyline
 90
       39
 70
     0
 43
0.0
 10
36669.58485641063
 20
8291.818408935802
 10
36669.78174869803
 20
8291.822303697501
 10
36669.97866935596
 20
8291.833971504875
 10
36670.17510875632
 20
8291.853387641322
 10
36670.37055727103
 20
8291.880527390244
 10
36670.57048032749
 20
8291.916536167457
 10
36670.76898590827
 20
8291.960682982928
 10
36670.96552920855
 20
8292.01283365776
 10
36671.15956542351
 20
8292.072854013064
 10
36671.34553134348
 20
8292.138680419588
 10
36671.52880546674
 20
8292.211808365075
 10
36671.7089263723
 20
8292.292023864078
 10
36671.88543263912
 20
8292.379112931156
 10
36672.06306610608
 20
8292.475794279202
 10
36672.23658049024
 20
8292.5795354479
 10
36672.40554013703
 20
8292.690023260968
 10
36672.56950939185
 20
8292.80694454213
 10
36672.72519068817
 20
8292.927631081999
 10
36672.8758625522
 20
8293.054233808982
 10
36673.02119159193
 20
8293.186405116858
 10
36673.16084441532
 20
8293.323797399413
 10
36673.29825133744
 20
8293.47019319747
 10
36673.429510914
 20
8293.621791136533
 10
36673.55434857245
 20
8293.778181659525
 10
36673.67248974024
 20
8293.938955209373
 10
36673.78514934768
 20
8294.105956499963
 10
36673.890852466
 20
8294.27712056425
 10
36673.98940079854
 20
8294.45200933516
 10
36674.08059604871
 20
8294.630184745616
 10
36674.16649418307
 20
8294.816296561194
 10
36674.24460069953
 20
8295.00552968877
 10
36674.31478514911
 20
8295.19741167695
 10
36674.37691708279
 20
8295.391470074344
 10
36674.44022485962
 20
8295.62480274212
 10
36674.49214550437
 20
8295.860958680416
 10
36674.53262399945
 20
8296.09916757908
 10
36674.56160532726
 20
8296.338659127963
 10
36674.57903447018
 20
8296.57866301692
 10
36674.58485641062
 20
8296.8184089358
  0
LWPOLYLINE
  5
10A
330
1F
100
AcDbEntity
  8
MR-380
  6
Continuous
 62
    18
420
        0
 48
15.00000041723251
370
    25
100
AcDbPolyline
 90
       37
 70
     0
 43
0.0
 10
36674.58485641062
 20
8296.8184089358
 10
36674.58004673139
 20
8297.037289181002
 10
36674.56566148499
 20
8297.255772552591
 10
36674.54176635841
 20
8297.473297029033
 10
36674.50842703861
 20
8297.689300588796
 10
36674.46427696181
 20
8297.90977101545
 10
36674.41020893342
 20
8298.12823565572
 10
36674.34637728406
 20
8298.344100643517
 10
36674.27293634436
 20
8298.556772112746
 10
36674.19237770526
 20
8298.76020666089
 10
36674.10284314702
 20
8298.960252871935
 10
36674.00455272625
 20
8299.156381519651
 10
36673.89772649956
 20
8299.34806337781
 10
36673.77885104933
 20
8299.540578334294
 10
36673.65106494928
 20
8299.727977335948
 10
36673.51470308232
 20
8299.909703690226
 10
36673.37010033135
 20
8300.085200704583
 10
36673.22374875693
 20
8300.247443012362
 10
36673.06999438933
 20
8300.40358397462
 10
36672.90922652267
 20
8300.553161467462
 10
36672.74183445107
 20
8300.695713366995
 10
36672.56230070441
 20
8300.835197254199
 10
36672.37597097405
 20
8300.966813309646
 10
36672.18338631024
 20
8301.090107247639
 10
36671.98508776328
 20
8301.204624782487
 10
36671.79618742787
 20
8301.302806234526
 10
36671.60266096397
 20
8301.393134817714
 10
36671.40503140127
 20
8301.475314325367
 10
36671.20382176943
 20
8301.549048550798
 10
36670.99251984697
 20
8301.616141480568
 10
36670.77778164722
 20
8301.673971972514
 10
36670.56027161931
 20
8301.722317570402
 10
36670.34065421242
 20
8301.760955818007
 10
36670.15307800788
 20
8301.78600267633
 10
36669.96429214522
 20
8301.803966651276
 10
36669.7747378657
 20
8301.814788489035
 10
36669.58485641063
 20
8301.8184089358
  0
LWPOLYLINE
  5
10B
330
1F
100
AcDbEntity
  8
MR-380
  6
Continuous
 62
    18
420
        0
 48
15.00000041723251
370
    25
100
AcDbPolyline
 90
       38
 70
     0
 43
0.0
 10
36639.58485641063
 20
8301.8184089358
 10
36639.38104711087
 20
8301.814235303127
 10
36639.17762766463
 20
8301.801765544174
 10
36638.97514260893
 20
8301.781076367544
 10
36638.77413648077
 20
8301.752244481837
 10
36638.56884386853
 20
8301.714073360772
 10
36638.36548743861
 20
8301.66740922392
 10
36638.16461139717
 20
8301.612438051698
 10
36637.96675995032
 20
8301.54934582453
 10
36637.77778888203
 20
8301.480420834658
 10
36637.59196061668
 20
8301.40404907643
 10
36637.40970986592
 20
8301.320473453667
 10
36637.2314713414
 20
8301.229936870195
 10
36637.05269359141
 20
8301.129789068684
 10
36636.87839943567
 20
8301.022551923754
 10
36636.70898519107
 20
8300.908544781689
 10
36636.54484717448
 20
8300.788086988765
 10
36636.38510034328
 20
8300.66046819121
 10
36636.23089525745
 20
8300.526601464951
 10
36636.08255961176
 20
8300.386850429857
 10
36635.94042110103
 20
8300.2415787058
 10
36635.80108079471
 20
8300.086879229084
 10
36635.66842710281
 20
8299.926676102043
 10
36635.54273727335
 20
8299.761388420791
 10
36635.42428855439
 20
8299.591435281453
 10
36635.31067649448
 20
8299.412871992079
 10
36635.20477135311
 20
8299.229755479793
 10
36635.10679474579
 20
8299.042552766146
 10
36635.01696828799
 20
8298.851730872697
 10
36634.93326496177
 20
8298.652131708528
 10
36634.85826380131
 20
8298.449065696825
 10
36634.79212984852
 20
8298.243054189423
 10
36634.7350281453
 20
8298.034618538153
 10
36634.6812715429
 20
8297.795337885407
 10
36634.63926160995
 20
8297.553286201115
 10
36634.60911280473
 20
8297.309253882962
 10
36634.59093958553
 20
8297.06403132863
 10
36634.58485641062
 20
8296.8184089358
  0
INSERT
  5
10F
330
1F
100
AcDbEntity
  8
MR-380
  6
Continuous
 62
    18
420
        0
 48
50.00000038146973
370
    25
100
AcDbBlockReference
  2
Dimension5
 10
0.0
 20
0.0
 30
0.0
  0
INSERT
  5
113
330
1F
100
AcDbEntity
  8
MR-380
  6
Continuous
 62
    18
420
        0
 48
50.00000038146973
370
    25
100
AcDbBlockReference
  2
Dimension6
 10
0.0
 20
0.0
 30
0.0
  0
DIMENSION
  5
114
330
1F
100
AcDbEntity
  8
MR-380
  6
Continuous
 62
    18
420
        0
 48
50.00000038146973
370
    25
100
AcDbDimension
  2
*D11
 10
37201.35492453621
 20
8982.034149731406
 30
0.0
 11
37129.3684277939
 21
9022.454153820285
 31
0.0
 70
    32
 71
     5
 42
143.9729934846182
  3
ISO-25
100
AcDbAlignedDimension
 13
37057.38193105159
 23
8926.085972733881
 33
0.0
 14
37201.35492453621
 24
8719.615629130893
 34
0.0
100
AcDbRotatedDimension
1001
ACAD
1000
DSTYLE
1002
{
1070
   271
1070
     3
1070
   177
1070
    18
1070
   176
1070
    18
1070
   140
1040
40.0
1070
    76
1070
     0
1070
    75
1070
     0
1070
   282
1070
     0
1070
   281
1070
     0
1070
   174
1070
     1
1070
    42
1040
0.0
1070
    49
1040
19.9999995470047
1070
   290
1070
     1
1070
    44
1040
19.9999995470047
1070
    46
1040
0.0
1070
    41
1040
15.00000059604645
1070
   173
1070
     1
1070
   342
1005
0
1070
   344
1005
68
1070
   343
1005
68
1070
   147
1040
20.00000408887863
1070
    70
1070
    18
1070
    69
1070
     0
1070
   340
1005
49
1070
   278
1070
    46
1002
}
1001
ACAD_DSTYLE_DIMEXT_ENABLED
1070
   383
1070
     1
1001
ACAD_DSTYLE_DIMEXT_LENGTH
1070
   378
1040
19.9999995470047
  0
INSERT
  5
127
330
1F
100
AcDbEntity
  8
FR-45
  6
Continuous
 62
    18
420
        0
 48
50.00000038146973
370
    25
100
AcDbBlockReference
  2
Dimension7
 10
0.0
 20
0.0
 30
0.0
  0
INSERT
  5
12B
330
1F
100
AcDbEntity
  8
FR-45
  6
Continuous
 62
    18
420
        0
 48
50.00000038146973
370
    25
100
AcDbBlockReference
  2
Dimension8
 10
0.0
 20
0.0
 30
0.0
  0
INSERT
  5
12F
330
1F
100
AcDbEntity
  8
FR-45
  6
Continuous
 62
    18
420
        0
 48
50.00000038146973
370
    25
100
AcDbBlockReference
  2
Dimension9
 10
0.0
 20
0.0
 30
0.0
  0
INSERT
  5
133
330
1F
100
AcDbEntity
  8
FR-45
  6
Continuous
 62
    18
420
        0
 48
50.00000038146973
370
    25
100
AcDbBlockReference
  2
Dimension10
 10
0.0
 20
0.0
 30
0.0
  0
INSERT
  5
137
330
1F
100
AcDbEntity
  8
FR-45
  6
Continuous
 62
    18
420
        0
 48
50.00000038146973
370
    25
100
AcDbBlockReference
  2
Dimension11
 10
0.0
 20
0.0
 30
0.0
  0
INSERT
  5
13B
330
1F
100
AcDbEntity
  8
FR-45
  6
Continuous
 62
    18
420
        0
 48
50.00000038146973
370
    25
100
AcDbBlockReference
  2
Dimension12
 10
0.0
 20
0.0
 30
0.0
  0
INSERT
  5
13F
330
1F
100
AcDbEntity
  8
FR-45
  6
Continuous
 62
    18
420
        0
 48
50.00000038146973
370
    25
100
AcDbBlockReference
  2
Dimension13
 10
0.0
 20
0.0
 30
0.0
  0
INSERT
  5
143
330
1F
100
AcDbEntity
  8
FR-45
  6
Continuous
 62
    18
420
        0
 48
50.00000038146973
370
    25
100
AcDbBlockReference
  2
Dimension14
 10
0.0
 20
0.0
 30
0.0
  0
INSERT
  5
147
330
1F
100
AcDbEntity
  8
FR-45
  6
Continuous
 62
    18
420
        0
 48
50.00000038146973
370
    25
100
AcDbBlockReference
  2
Dimension15
 10
0.0
 20
0.0
 30
0.0
  0
INSERT
  5
14B
330
1F
100
AcDbEntity
  8
FR-45
  6
Continuous
 62
    18
420
        0
 48
50.00000038146973
370
    25
100
AcDbBlockReference
  2
Dimension16
 10
0.0
 20
0.0
 30
0.0
  0
ENDSEC
  0
SECTION
  2
OBJECTS
  0
DICTIONARY
  5
C
330
0
100
AcDbDictionary
281
     1
  3
ACAD_GROUP
350
D
  3
ACAD_LAYOUT
350
1A
  3
ACAD_MATERIAL
350
3B
  3
ACAD_MLEADERSTYLE
350
175
  3
ACAD_MLINESTYLE
350
17
  3
ACAD_PLOTSETTINGS
350
19
  3
ACAD_PLOTSTYLENAME
350
E
  3
ACAD_TABLESTYLE
350
174
  3
ACAD_VISUALSTYLE
350
2A
  0
DICTIONARY
  5
D
102
{ACAD_REACTORS
330
C
102
}
330
C
100
AcDbDictionary
281
     1
  0
DICTIONARY
  5
1A
102
{ACAD_REACTORS
330
C
102
}
330
C
100
AcDbDictionary
281
     1
  3
Layout1
350
1E
  3
Layout2
350
26
  3
Model
350
22
  0
DICTIONARY
  5
3B
102
{ACAD_REACTORS
330
C
102
}
330
C
100
AcDbDictionary
281
     1
  3
ByBlock
350
3D
  3
ByLayer
350
3C
  3
Global
350
3E
  0
DICTIONARY
  5
175
102
{ACAD_REACTORS
330
C
102
}
330
C
100
AcDbDictionary
281
     1
  0
DICTIONARY
  5
17
102
{ACAD_REACTORS
330
C
102
}
330
C
100
AcDbDictionary
281
     1
  3
Standard
350
18
  0
DICTIONARY
  5
19
102
{ACAD_REACTORS
330
C
102
}
330
C
100
AcDbDictionary
281
     1
  0
ACDBDICTIONARYWDFLT
  5
E
102
{ACAD_REACTORS
330
C
102
}
330
C
100
AcDbDictionary
281
     1
  3
Normal
350
F
100
AcDbDictionaryWithDefault
340
F
  0
DICTIONARY
  5
174
102
{ACAD_REACTORS
330
C
102
}
330
C
100
AcDbDictionary
281
     1
  0
DICTIONARY
  5
2A
102
{ACAD_REACTORS
330
C
102
}
330
C
100
AcDbDictionary
281
     1
  3
2dWireframe
350
2F
  3
3D Hidden
350
31
  3
3dWireframe
350
30
  3
Basic
350
32
  3
Brighten
350
36
  3
ColorChange
350
3A
  3
Conceptual
350
34
  3
Dim
350
35
  3
Facepattern
350
39
  3
Flat
350
2B
  3
FlatWithEdges
350
2C
  3
Gouraud
350
2D
  3
GouraudWithEdges
350
2E
  3
Linepattern
350
38
  3
Realistic
350
33
  3
Thicken
350
37
  0
LAYOUT
  5
1E
102
{ACAD_REACTORS
330
1A
102
}
330
1A
100
AcDbPlotSettings
  1

  2
none_device
  4

  6

 40
0.0
 41
0.0
 42
0.0
 43
0.0
 44
0.0
 45
0.0
 46
0.0
 47
0.0
 48
0.0
 49
0.0
140
0.0
141
0.0
142
1.0
143
1.0
 70
   688
 72
     0
 73
     0
 74
     5
  7

 75
    16
 76
     0
 77
     2
 78
   300
147
1.0
148
0.0
149
0.0
100
AcDbLayout
  1
Layout1
 70
     1
 71
     1
 10
0.0
 20
0.0
 11
420.0
 21
297.0
 12
0.0
 22
0.0
 32
0.0
 14
1.000000000000000E+20
 24
1.000000000000000E+20
 34
1.000000000000000E+20
 15
-1.000000000000000E+20
 25
-1.000000000000000E+20
 35
-1.000000000000000E+20
146
0.0
 13
0.0
 23
0.0
 33
0.0
 16
1.0
 26
0.0
 36
0.0
 17
0.0
 27
1.0
 37
0.0
 76
     0
330
1B
  0
LAYOUT
  5
26
102
{ACAD_REACTORS
330
1A
102
}
330
1A
100
AcDbPlotSettings
  1

  2
none_device
  4

  6

 40
0.0
 41
0.0
 42
0.0
 43
0.0
 44
0.0
 45
0.0
 46
0.0
 47
0.0
 48
0.0
 49
0.0
140
0.0
141
0.0
142
1.0
143
1.0
 70
   688
 72
     0
 73
     0
 74
     5
  7

 75
    16
 76
     0
 77
     2
 78
   300
147
1.0
148
0.0
149
0.0
100
AcDbLayout
  1
Layout2
 70
     1
 71
     2
 10
0.0
 20
0.0
 11
0.0
 21
0.0
 12
0.0
 22
0.0
 32
0.0
 14
0.0
 24
0.0
 34
0.0
 15
0.0
 25
0.0
 35
0.0
146
0.0
 13
0.0
 23
0.0
 33
0.0
 16
1.0
 26
0.0
 36
0.0
 17
0.0
 27
1.0
 37
0.0
 76
     0
330
23
  0
LAYOUT
  5
22
102
{ACAD_REACTORS
330
1A
102
}
330
1A
100
AcDbPlotSettings
  1

  2
none_device
  4

  6

 40
0.0
 41
0.0
 42
0.0
 43
0.0
 44
0.0
 45
0.0
 46
0.0
 47
0.0
 48
0.0
 49
0.0
140
0.0
141
0.0
142
1.0
143
1.0
 70
  1712
 72
     0
 73
     0
 74
     0
  7

 75
     0
 76
     0
 77
     2
 78
   300
147
1.0
148
0.0
149
0.0
100
AcDbLayout
  1
Model
 70
     1
 71
     0
 10
0.0
 20
0.0
 11
420.0
 21
297.0
 12
0.0
 22
0.0
 32
0.0
 14
72699.25541646981
 24
16593.12309068373
 34
0.0
 15
74182.76818333003
 25
17593.12309831312
 35
3.174999952316284
146
0.0
 13
0.0
 23
0.0
 33
0.0
 16
1.0
 26
0.0
 36
0.0
 17
0.0
 27
1.0
 37
0.0
 76
     0
330
1F
331
29
  0
MATERIAL
  5
3D
102
{ACAD_REACTORS
330
3B
102
}
102
{ACAD_XDICTIONARY
360
170
102
}
330
3B
100
AcDbMaterial
  1
ByBlock
  0
MATERIAL
  5
3C
102
{ACAD_REACTORS
330
3B
102
}
102
{ACAD_XDICTIONARY
360
16E
102
}
330
3B
100
AcDbMaterial
  1
ByLayer
  0
MATERIAL
  5
3E
102
{ACAD_REACTORS
330
3B
102
}
102
{ACAD_XDICTIONARY
360
172
102
}
330
3B
100
AcDbMaterial
  1
Global
  0
MLINESTYLE
  5
18
102
{ACAD_REACTORS
330
17
102
}
330
17
100
AcDbMlineStyle
  2
Standard
 70
     0
  3

 62
   256
 51
90.0
 52
90.0
 71
     2
 49
0.5
 62
   256
  6
BYLAYER
 49
-0.5
 62
   256
  6
BYLAYER
  0
ACDBPLACEHOLDER
  5
F
102
{ACAD_REACTORS
330
E
102
}
330
E
  0
VISUALSTYLE
  5
2F
102
{ACAD_REACTORS
330
2A
102
}
102
{ACAD_XDICTIONARY
360
156
102
}
330
2A
100
AcDbVisualStyle
  2
2dWireframe
 70
     4
 71
     0
 72
     2
 73
     0
 90
        0
 40
-0.6
 41
-30.0
 62
     5
 63
     7
421
 16777215
 74
     1
 91
        4
 64
     7
 65
   257
 75
     1
175
     1
 42
1.0
 92
        0
 66
   257
 43
1.0
 76
     1
 77
     6
 78
     2
 67
     7
 79
     5
170
     0
171
     0
290
     0
174
     0
 93
        1
 44
0.0
173
     0
291
     0
 45
0.0
1001
ACAD
1000
AcDbSavedByObjectVersion
1070
     0
  0
VISUALSTYLE
  5
31
102
{ACAD_REACTORS
330
2A
102
}
102
{ACAD_XDICTIONARY
360
15A
102
}
330
2A
100
AcDbVisualStyle
  2
3D Hidden
 70
     6
 71
     1
 72
     2
 73
     2
 90
        0
 40
-0.6
 41
-30.0
 62
     5
 63
     7
421
 16777215
 74
     2
 91
        2
 64
     7
 65
   257
 75
     2
175
     1
 42
40.0
 92
        0
 66
   257
 43
1.0
 76
     1
 77
     6
 78
     2
 67
     7
 79
     3
170
     0
171
     0
290
     0
174
     0
 93
        1
 44
0.0
173
     0
291
     0
 45
0.0
1001
ACAD
1000
AcDbSavedByObjectVersion
1070
     0
  0
VISUALSTYLE
  5
30
102
{ACAD_REACTORS
330
2A
102
}
102
{ACAD_XDICTIONARY
360
158
102
}
330
2A
100
AcDbVisualStyle
  2
3dWireframe
 70
     5
 71
     0
 72
     2
 73
     0
 90
        0
 40
-0.6
 41
-30.0
 62
     5
 63
     7
421
 16777215
 74
     1
 91
        4
 64
     7
 65
   257
 75
     1
175
     1
 42
1.0
 92
        0
 66
   257
 43
1.0
 76
     1
 77
     6
 78
     2
 67
     7
 79
     5
170
     0
171
     0
290
     0
174
     0
 93
        1
 44
0.0
173
     0
291
     0
 45
0.0
1001
ACAD
1000
AcDbSavedByObjectVersion
1070
     0
  0
VISUALSTYLE
  5
32
102
{ACAD_REACTORS
330
2A
102
}
102
{ACAD_XDICTIONARY
360
15C
102
}
330
2A
100
AcDbVisualStyle
  2
Basic
 70
     7
 71
     1
 72
     0
 73
     1
 90
        0
 40
-0.6
 41
-30.0
 62
     5
 63
     7
421
 16777215
 74
     0
 91
        4
 64
     7
 65
   257
 75
     1
175
     1
 42
1.0
 92
        8
 66
     7
 43
1.0
 76
     1
 77
     6
 78
     2
 67
     7
 79
     5
170
     0
171
     0
290
     0
174
     0
 93
        1
 44
0.0
173
     0
291
     1
 45
0.0
1001
ACAD
1000
AcDbSavedByObjectVersion
1070
     0
  0
VISUALSTYLE
  5
36
102
{ACAD_REACTORS
330
2A
102
}
102
{ACAD_XDICTIONARY
360
164
102
}
330
2A
100
AcDbVisualStyle
  2
Brighten
 70
    12
 71
     2
 72
     2
 73
     0
 90
        0
 40
-0.6
 41
-30.0
 62
     5
 63
     7
421
 16777215
 74
     1
 91
        4
 64
     7
 65
   257
 75
     1
175
     1
 42
1.0
 92
        8
 66
     7
 43
1.0
 76
     1
 77
     6
 78
     2
 67
     7
 79
     5
170
     0
171
     0
290
     0
174
     0
 93
        1
 44
50.0
173
     0
291
     1
 45
0.0
1001
ACAD
1000
AcDbSavedByObjectVersion
1070
     0
  0
VISUALSTYLE
  5
3A
102
{ACAD_REACTORS
330
2A
102
}
102
{ACAD_XDICTIONARY
360
16C
102
}
330
2A
100
AcDbVisualStyle
  2
ColorChange
 70
    16
 71
     2
 72
     2
 73
     3
 90
        0
 40
-0.6
 41
-30.0
 62
     5
 63
     8
421
  8421504
 74
     1
 91
        4
 64
     7
 65
   257
 75
     1
175
     1
 42
1.0
 92
        8
 66
     8
424
  8421504
 43
1.0
 76
     1
 77
     6
 78
     2
 67
     7
 79
     5
170
     0
171
     0
290
     0
174
     0
 93
        1
 44
0.0
173
     0
291
     1
 45
0.0
1001
ACAD
1000
AcDbSavedByObjectVersion
1070
     0
  0
VISUALSTYLE
  5
34
102
{ACAD_REACTORS
330
2A
102
}
102
{ACAD_XDICTIONARY
360
160
102
}
330
2A
100
AcDbVisualStyle
  2
Conceptual
 70
     9
 71
     3
 72
     2
 73
     0
 90
        0
 40
-0.6
 41
-30.0
 62
     5
 63
     7
421
 16777215
 74
     2
 91
        2
 64
     7
 65
   257
 75
     1
175
     1
 42
40.0
 92
        8
 66
     7
 43
1.0
 76
     1
 77
     6
 78
     2
 67
     7
 79
     3
170
     0
171
     0
290
     0
174
     0
 93
        1
 44
0.0
173
     0
291
     0
 45
0.0
1001
ACAD
1000
AcDbSavedByObjectVersion
1070
     0
  0
VISUALSTYLE
  5
35
102
{ACAD_REACTORS
330
2A
102
}
102
{ACAD_XDICTIONARY
360
162
102
}
330
2A
100
AcDbVisualStyle
  2
Dim
 70
    11
 71
     2
 72
     2
 73
     0
 90
        0
 40
-0.6
 41
-30.0
 62
     5
 63
     7
421
 16777215
 74
     1
 91
        4
 64
     7
 65
   257
 75
     1
175
     1
 42
1.0
 92
        8
 66
     7
 43
1.0
 76
     1
 77
     6
 78
     2
 67
     7
 79
     5
170
     0
171
     0
290
     0
174
     0
 93
        1
 44
-50.0
173
     0
291
     1
 45
0.0
1001
ACAD
1000
AcDbSavedByObjectVersion
1070
     0
  0
VISUALSTYLE
  5
39
102
{ACAD_REACTORS
330
2A
102
}
102
{ACAD_XDICTIONARY
360
16A
102
}
330
2A
100
AcDbVisualStyle
  2
Facepattern
 70
    15
 71
     2
 72
     2
 73
     0
 90
        0
 40
-0.6
 41
-30.0
 62
     5
 63
     7
421
 16777215
 74
     1
 91
        4
 64
     7
 65
   257
 75
     1
175
     1
 42
1.0
 92
        8
 66
     7
 43
1.0
 76
     1
 77
     6
 78
     2
 67
     7
 79
     5
170
     0
171
     0
290
     0
174
     0
 93
        1
 44
0.0
173
     0
291
     1
 45
0.0
1001
ACAD
1000
AcDbSavedByObjectVersion
1070
     0
  0
VISUALSTYLE
  5
2B
102
{ACAD_REACTORS
330
2A
102
}
102
{ACAD_XDICTIONARY
360
14E
102
}
330
2A
100
AcDbVisualStyle
  2
Flat
 70
     0
 71
     2
 72
     1
 73
     1
 90
        2
 40
-0.6
 41
30.0
 62
     5
 63
     7
421
 16777215
 74
     0
 91
        4
 64
     7
 65
   257
 75
     1
175
     1
 42
1.0
 92
        8
 66
     7
 43
1.0
 76
     1
 77
     6
 78
     2
 67
     7
 79
     5
170
     0
171
     0
290
     0
174
     0
 93
       13
 44
0.0
173
     0
291
     1
 45
0.0
1001
ACAD
1000
AcDbSavedByObjectVersion
1070
     0
  0
VISUALSTYLE
  5
2C
102
{ACAD_REACTORS
330
2A
102
}
102
{ACAD_XDICTIONARY
360
150
102
}
330
2A
100
AcDbVisualStyle
  2
FlatWithEdges
 70
     1
 71
     2
 72
     1
 73
     1
 90
        2
 40
-0.6
 41
30.0
 62
     5
 63
     7
421
 16777215
 74
     1
 91
        4
 64
     7
 65
   257
 75
     1
175
     1
 42
1.0
 92
        0
 66
   257
 43
1.0
 76
     1
 77
     6
 78
     2
 67
     7
 79
     5
170
     0
171
     0
290
     0
174
     0
 93
       13
 44
0.0
173
     0
291
     1
 45
0.0
1001
ACAD
1000
AcDbSavedByObjectVersion
1070
     0
  0
VISUALSTYLE
  5
2D
102
{ACAD_REACTORS
330
2A
102
}
102
{ACAD_XDICTIONARY
360
152
102
}
330
2A
100
AcDbVisualStyle
  2
Gouraud
 70
     2
 71
     2
 72
     2
 73
     1
 90
        2
 40
-0.6
 41
30.0
 62
     5
 63
     7
421
 16777215
 74
     0
 91
        4
 64
     7
 65
   257
 75
     1
175
     1
 42
1.0
 92
        0
 66
     7
 43
1.0
 76
     1
 77
     6
 78
     2
 67
     7
 79
     5
170
     0
171
     0
290
     0
174
     0
 93
       13
 44
0.0
173
     0
291
     1
 45
0.0
1001
ACAD
1000
AcDbSavedByObjectVersion
1070
     0
  0
VISUALSTYLE
  5
2E
102
{ACAD_REACTORS
330
2A
102
}
102
{ACAD_XDICTIONARY
360
154
102
}
330
2A
100
AcDbVisualStyle
  2
GouraudWithEdges
 70
     3
 71
     2
 72
     2
 73
     1
 90
        2
 40
-0.6
 41
30.0
 62
     5
 63
     7
421
 16777215
 74
     1
 91
        4
 64
     7
 65
   257
 75
     1
175
     1
 42
1.0
 92
        0
 66
   257
 43
1.0
 76
     1
 77
     6
 78
     2
 67
     7
 79
     5
170
     0
171
     0
290
     0
174
     0
 93
       13
 44
0.0
173
     0
291
     1
 45
0.0
1001
ACAD
1000
AcDbSavedByObjectVersion
1070
     0
  0
VISUALSTYLE
  5
38
102
{ACAD_REACTORS
330
2A
102
}
102
{ACAD_XDICTIONARY
360
168
102
}
330
2A
100
AcDbVisualStyle
  2
Linepattern
 70
    14
 71
     2
 72
     2
 73
     0
 90
        0
 40
-0.6
 41
-30.0
 62
     5
 63
     7
421
 16777215
 74
     1
 91
        4
 64
     7
 65
   257
 75
     7
175
     7
 42
1.0
 92
        8
 66
     7
 43
1.0
 76
     1
 77
     6
 78
     2
 67
     7
 79
     5
170
     0
171
     0
290
     0
174
     0
 93
        1
 44
0.0
173
     0
291
     1
 45
0.0
1001
ACAD
1000
AcDbSavedByObjectVersion
1070
     0
  0
VISUALSTYLE
  5
33
102
{ACAD_REACTORS
330
2A
102
}
102
{ACAD_XDICTIONARY
360
15E
102
}
330
2A
100
AcDbVisualStyle
  2
Realistic
 70
     8
 71
     2
 72
     2
 73
     0
 90
        0
 40
-0.6
 41
-30.0
 62
     5
 63
     7
421
 16777215
 74
     1
 91
        0
 64
     7
 65
   257
 75
     1
175
     1
 42
1.0
 92
        8
 66
     8
424
  7895160
 43
1.0
 76
     1
 77
     6
 78
     2
 67
     7
 79
     5
170
     0
171
     0
290
     0
174
     0
 93
       13
 44
0.0
173
     0
291
     0
 45
0.0
1001
ACAD
1000
AcDbSavedByObjectVersion
1070
     0
  0
VISUALSTYLE
  5
37
102
{ACAD_REACTORS
330
2A
102
}
102
{ACAD_XDICTIONARY
360
166
102
}
330
2A
100
AcDbVisualStyle
  2
Thicken
 70
    13
 71
     2
 72
     2
 73
     0
 90
        0
 40
-0.6
 41
-30.0
 62
     5
 63
     7
421
 16777215
 74
     1
 91
        4
 64
     7
 65
   257
 75
     1
175
     1
 42
1.0
 92
       12
 66
     7
 43
1.0
 76
     1
 77
     6
 78
     2
 67
     7
 79
     5
170
     0
171
     0
290
     0
174
     0
 93
        1
 44
0.0
173
     0
291
     1
 45
0.0
1001
ACAD
1000
AcDbSavedByObjectVersion
1070
     0
  0
DICTIONARY
  5
170
330
3D
100
AcDbDictionary
280
     1
281
     1
  3
ACAD_XREC_ROUNDTRIP
360
171
  0
DICTIONARY
  5
16E
330
3C
100
AcDbDictionary
280
     1
281
     1
  3
ACAD_XREC_ROUNDTRIP
360
16F
  0
DICTIONARY
  5
172
330
3E
100
AcDbDictionary
280
     1
281
     1
  3
ACAD_XREC_ROUNDTRIP
360
173
  0
DICTIONARY
  5
156
330
2F
100
AcDbDictionary
280
     1
281
     1
  3
ACAD_XREC_ROUNDTRIP
360
157
  0
DICTIONARY
  5
15A
330
31
100
AcDbDictionary
280
     1
281
     1
  3
ACAD_XREC_ROUNDTRIP
360
15B
  0
DICTIONARY
  5
158
330
30
100
AcDbDictionary
280
     1
281
     1
  3
ACAD_XREC_ROUNDTRIP
360
159
  0
DICTIONARY
  5
15C
330
32
100
AcDbDictionary
280
     1
281
     1
  3
ACAD_XREC_ROUNDTRIP
360
15D
  0
DICTIONARY
  5
164
330
36
100
AcDbDictionary
280
     1
281
     1
  3
ACAD_XREC_ROUNDTRIP
360
165
  0
DICTIONARY
  5
16C
330
3A
100
AcDbDictionary
280
     1
281
     1
  3
ACAD_XREC_ROUNDTRIP
360
16D
  0
DICTIONARY
  5
160
330
34
100
AcDbDictionary
280
     1
281
     1
  3
ACAD_XREC_ROUNDTRIP
360
161
  0
DICTIONARY
  5
162
330
35
100
AcDbDictionary
280
     1
281
     1
  3
ACAD_XREC_ROUNDTRIP
360
163
  0
DICTIONARY
  5
16A
330
39
100
AcDbDictionary
280
     1
281
     1
  3
ACAD_XREC_ROUNDTRIP
360
16B
  0
DICTIONARY
  5
14E
330
2B
100
AcDbDictionary
280
     1
281
     1
  3
ACAD_XREC_ROUNDTRIP
360
14F
  0
DICTIONARY
  5
150
330
2C
100
AcDbDictionary
280
     1
281
     1
  3
ACAD_XREC_ROUNDTRIP
360
151
  0
DICTIONARY
  5
152
330
2D
100
AcDbDictionary
280
     1
281
     1
  3
ACAD_XREC_ROUNDTRIP
360
153
  0
DICTIONARY
  5
154
330
2E
100
AcDbDictionary
280
     1
281
     1
  3
ACAD_XREC_ROUNDTRIP
360
155
  0
DICTIONARY
  5
168
330
38
100
AcDbDictionary
280
     1
281
     1
  3
ACAD_XREC_ROUNDTRIP
360
169
  0
DICTIONARY
  5
15E
330
33
100
AcDbDictionary
280
     1
281
     1
  3
ACAD_XREC_ROUNDTRIP
360
15F
  0
DICTIONARY
  5
166
330
37
100
AcDbDictionary
280
     1
281
     1
  3
ACAD_XREC_ROUNDTRIP
360
167
  0
XRECORD
  5
171
102
{ACAD_REACTORS
330
170
102
}
330
170
100
AcDbXrecord
280
     1
102
MATERIAL
148
0.0
149
0.0
149
0.0
 93
        0
 94
      127
282
     0
 72
     1
 77
     1
171
     1
175
     1
179
     1
273
     0
  0
XRECORD
  5
16F
102
{ACAD_REACTORS
330
16E
102
}
330
16E
100
AcDbXrecord
280
     1
102
MATERIAL
148
0.0
149
0.0
149
0.0
 93
        0
 94
      127
282
     0
 72
     1
 77
     1
171
     1
175
     1
179
     1
273
     0
  0
XRECORD
  5
173
102
{ACAD_REACTORS
330
172
102
}
330
172
100
AcDbXrecord
280
     1
102
MATERIAL
148
0.0
149
0.0
149
0.0
 93
        0
 94
      127
282
     0
 72
     1
 77
     1
171
     1
175
     1
179
     1
273
     0
  0
XRECORD
  5
157
102
{ACAD_REACTORS
330
156
102
}
330
156
100
AcDbXrecord
280
     1
102
RTVSPropertyOp0
 70
     1
102
RTVSPropertyOp1
 70
     1
102
RTVSPropertyOp2
 70
     1
102
RTVSPropertyOp3
 70
     1
102
RTVSPropertyOp4
 70
     1
102
RTVSPropertyOp5
 70
     1
102
RTVSPropertyOp6
 70
     1
102
RTVSPropertyOp7
 70
     1
102
RTVSPropertyOp8
 70
     1
102
RTVSPropertyOp9
 70
     1
102
RTVSPropertyOp10
 70
     1
102
RTVSPropertyOp11
 70
     1
102
RTVSPropertyOp12
 70
     1
102
RTVSPropertyOp13
 70
     1
102
RTVSPropertyOp14
 70
     1
102
RTVSPropertyOp15
 70
     1
102
RTVSPropertyOp16
 70
     1
102
RTVSPropertyOp17
 70
     1
102
RTVSPropertyOp18
 70
     1
102
RTVSPropertyOp19
 70
     1
102
RTVSPropertyOp20
 70
     1
102
RTVSPropertyOp21
 70
     1
102
RTVSPropertyOp22
 70
     1
102
RTVSPropertyOp23
 70
     1
102
RTVSPropertyOp24
 70
     1
102
RTVSPropertyOp25
 70
     1
102
RTVSPropertyOp26
 70
     1
102
RTVSPropertyOp27
 70
     1
  0
XRECORD
  5
15B
102
{ACAD_REACTORS
330
15A
102
}
330
15A
100
AcDbXrecord
280
     1
102
RTVSPropertyOp0
 70
     1
102
RTVSPropertyOp1
 70
     1
102
RTVSPropertyOp2
 70
     1
102
RTVSPropertyOp3
 70
     1
102
RTVSPropertyOp4
 70
     1
102
RTVSPropertyOp5
 70
     1
102
RTVSPropertyOp6
 70
     1
102
RTVSPropertyOp7
 70
     1
102
RTVSPropertyOp8
 70
     1
102
RTVSPropertyOp9
 70
     1
102
RTVSPropertyOp10
 70
     1
102
RTVSPropertyOp11
 70
     1
102
RTVSPropertyOp12
 70
     1
102
RTVSPropertyOp13
 70
     1
102
RTVSPropertyOp14
 70
     1
102
RTVSPropertyOp15
 70
     1
102
RTVSPropertyOp16
 70
     1
102
RTVSPropertyOp17
 70
     1
102
RTVSPropertyOp18
 70
     1
102
RTVSPropertyOp19
 70
     1
102
RTVSPropertyOp20
 70
     1
102
RTVSPropertyOp21
 70
     1
102
RTVSPropertyOp22
 70
     1
102
RTVSPropertyOp23
 70
     1
102
RTVSPropertyOp24
 70
     1
102
RTVSPropertyOp25
 70
     1
102
RTVSPropertyOp26
 70
     1
102
RTVSPropertyOp27
 70
     1
  0
XRECORD
  5
159
102
{ACAD_REACTORS
330
158
102
}
330
158
100
AcDbXrecord
280
     1
102
RTVSPropertyOp0
 70
     1
102
RTVSPropertyOp1
 70
     1
102
RTVSPropertyOp2
 70
     1
102
RTVSPropertyOp3
 70
     1
102
RTVSPropertyOp4
 70
     1
102
RTVSPropertyOp5
 70
     1
102
RTVSPropertyOp6
 70
     1
102
RTVSPropertyOp7
 70
     1
102
RTVSPropertyOp8
 70
     1
102
RTVSPropertyOp9
 70
     1
102
RTVSPropertyOp10
 70
     1
102
RTVSPropertyOp11
 70
     1
102
RTVSPropertyOp12
 70
     1
102
RTVSPropertyOp13
 70
     1
102
RTVSPropertyOp14
 70
     1
102
RTVSPropertyOp15
 70
     1
102
RTVSPropertyOp16
 70
     1
102
RTVSPropertyOp17
 70
     1
102
RTVSPropertyOp18
 70
     1
102
RTVSPropertyOp19
 70
     1
102
RTVSPropertyOp20
 70
     1
102
RTVSPropertyOp21
 70
     1
102
RTVSPropertyOp22
 70
     1
102
RTVSPropertyOp23
 70
     1
102
RTVSPropertyOp24
 70
     1
102
RTVSPropertyOp25
 70
     1
102
RTVSPropertyOp26
 70
     1
102
RTVSPropertyOp27
 70
     1
  0
XRECORD
  5
15D
102
{ACAD_REACTORS
330
15C
102
}
330
15C
100
AcDbXrecord
280
     1
102
RTVSPropertyOp0
 70
     1
102
RTVSPropertyOp1
 70
     1
102
RTVSPropertyOp2
 70
     1
102
RTVSPropertyOp3
 70
     1
102
RTVSPropertyOp4
 70
     1
102
RTVSPropertyOp5
 70
     1
102
RTVSPropertyOp6
 70
     1
102
RTVSPropertyOp7
 70
     1
102
RTVSPropertyOp8
 70
     1
102
RTVSPropertyOp9
 70
     1
102
RTVSPropertyOp10
 70
     1
102
RTVSPropertyOp11
 70
     1
102
RTVSPropertyOp12
 70
     1
102
RTVSPropertyOp13
 70
     1
102
RTVSPropertyOp14
 70
     1
102
RTVSPropertyOp15
 70
     1
102
RTVSPropertyOp16
 70
     1
102
RTVSPropertyOp17
 70
     1
102
RTVSPropertyOp18
 70
     1
102
RTVSPropertyOp19
 70
     1
102
RTVSPropertyOp20
 70
     1
102
RTVSPropertyOp21
 70
     1
102
RTVSPropertyOp22
 70
     1
102
RTVSPropertyOp23
 70
     1
102
RTVSPropertyOp24
 70
     1
102
RTVSPropertyOp25
 70
     1
102
RTVSPropertyOp26
 70
     1
102
RTVSPropertyOp27
 70
     1
  0
XRECORD
  5
165
102
{ACAD_REACTORS
330
164
102
}
330
164
100
AcDbXrecord
280
     1
102
RTVSPropertyOp0
 70
     1
102
RTVSPropertyOp1
 70
     1
102
RTVSPropertyOp2
 70
     1
102
RTVSPropertyOp3
 70
     1
102
RTVSPropertyOp4
 70
     1
102
RTVSPropertyOp5
 70
     1
102
RTVSPropertyOp6
 70
     1
102
RTVSPropertyOp7
 70
     1
102
RTVSPropertyOp8
 70
     1
102
RTVSPropertyOp9
 70
     1
102
RTVSPropertyOp10
 70
     1
102
RTVSPropertyOp11
 70
     1
102
RTVSPropertyOp12
 70
     1
102
RTVSPropertyOp13
 70
     1
102
RTVSPropertyOp14
 70
     1
102
RTVSPropertyOp15
 70
     1
102
RTVSPropertyOp16
 70
     1
102
RTVSPropertyOp17
 70
     1
102
RTVSPropertyOp18
 70
     1
102
RTVSPropertyOp19
 70
     1
102
RTVSPropertyOp20
 70
     1
102
RTVSPropertyOp21
 70
     1
102
RTVSPropertyOp22
 70
     1
102
RTVSPropertyOp23
 70
     1
102
RTVSPropertyOp24
 70
     1
102
RTVSPropertyOp25
 70
     1
102
RTVSPropertyOp26
 70
     1
102
RTVSPropertyOp27
 70
     1
  0
XRECORD
  5
16D
102
{ACAD_REACTORS
330
16C
102
}
330
16C
100
AcDbXrecord
280
     1
102
RTVSPropertyOp0
 70
     1
102
RTVSPropertyOp1
 70
     1
102
RTVSPropertyOp2
 70
     1
102
RTVSPropertyOp3
 70
     1
102
RTVSPropertyOp4
 70
     1
102
RTVSPropertyOp5
 70
     1
102
RTVSPropertyOp6
 70
     1
102
RTVSPropertyOp7
 70
     1
102
RTVSPropertyOp8
 70
     1
102
RTVSPropertyOp9
 70
     1
102
RTVSPropertyOp10
 70
     1
102
RTVSPropertyOp11
 70
     1
102
RTVSPropertyOp12
 70
     1
102
RTVSPropertyOp13
 70
     1
102
RTVSPropertyOp14
 70
     1
102
RTVSPropertyOp15
 70
     1
102
RTVSPropertyOp16
 70
     1
102
RTVSPropertyOp17
 70
     1
102
RTVSPropertyOp18
 70
     1
102
RTVSPropertyOp19
 70
     1
102
RTVSPropertyOp20
 70
     1
102
RTVSPropertyOp21
 70
     1
102
RTVSPropertyOp22
 70
     1
102
RTVSPropertyOp23
 70
     1
102
RTVSPropertyOp24
 70
     1
102
RTVSPropertyOp25
 70
     1
102
RTVSPropertyOp26
 70
     1
102
RTVSPropertyOp27
 70
     1
  0
XRECORD
  5
161
102
{ACAD_REACTORS
330
160
102
}
330
160
100
AcDbXrecord
280
     1
102
RTVSPropertyOp0
 70
     1
102
RTVSPropertyOp1
 70
     1
102
RTVSPropertyOp2
 70
     1
102
RTVSPropertyOp3
 70
     1
102
RTVSPropertyOp4
 70
     1
102
RTVSPropertyOp5
 70
     1
102
RTVSPropertyOp6
 70
     1
102
RTVSPropertyOp7
 70
     1
102
RTVSPropertyOp8
 70
     1
102
RTVSPropertyOp9
 70
     1
102
RTVSPropertyOp10
 70
     1
102
RTVSPropertyOp11
 70
     1
102
RTVSPropertyOp12
 70
     1
102
RTVSPropertyOp13
 70
     1
102
RTVSPropertyOp14
 70
     1
102
RTVSPropertyOp15
 70
     1
102
RTVSPropertyOp16
 70
     1
102
RTVSPropertyOp17
 70
     1
102
RTVSPropertyOp18
 70
     1
102
RTVSPropertyOp19
 70
     1
102
RTVSPropertyOp20
 70
     1
102
RTVSPropertyOp21
 70
     1
102
RTVSPropertyOp22
 70
     1
102
RTVSPropertyOp23
 70
     1
102
RTVSPropertyOp24
 70
     1
102
RTVSPropertyOp25
 70
     1
102
RTVSPropertyOp26
 70
     1
102
RTVSPropertyOp27
 70
     1
  0
XRECORD
  5
163
102
{ACAD_REACTORS
330
162
102
}
330
162
100
AcDbXrecord
280
     1
102
RTVSPropertyOp0
 70
     1
102
RTVSPropertyOp1
 70
     1
102
RTVSPropertyOp2
 70
     1
102
RTVSPropertyOp3
 70
     1
102
RTVSPropertyOp4
 70
     1
102
RTVSPropertyOp5
 70
     1
102
RTVSPropertyOp6
 70
     1
102
RTVSPropertyOp7
 70
     1
102
RTVSPropertyOp8
 70
     1
102
RTVSPropertyOp9
 70
     1
102
RTVSPropertyOp10
 70
     1
102
RTVSPropertyOp11
 70
     1
102
RTVSPropertyOp12
 70
     1
102
RTVSPropertyOp13
 70
     1
102
RTVSPropertyOp14
 70
     1
102
RTVSPropertyOp15
 70
     1
102
RTVSPropertyOp16
 70
     1
102
RTVSPropertyOp17
 70
     1
102
RTVSPropertyOp18
 70
     1
102
RTVSPropertyOp19
 70
     1
102
RTVSPropertyOp20
 70
     1
102
RTVSPropertyOp21
 70
     1
102
RTVSPropertyOp22
 70
     1
102
RTVSPropertyOp23
 70
     1
102
RTVSPropertyOp24
 70
     1
102
RTVSPropertyOp25
 70
     1
102
RTVSPropertyOp26
 70
     1
102
RTVSPropertyOp27
 70
     1
  0
XRECORD
  5
16B
102
{ACAD_REACTORS
330
16A
102
}
330
16A
100
AcDbXrecord
280
     1
102
RTVSPropertyOp0
 70
     1
102
RTVSPropertyOp1
 70
     1
102
RTVSPropertyOp2
 70
     1
102
RTVSPropertyOp3
 70
     1
102
RTVSPropertyOp4
 70
     1
102
RTVSPropertyOp5
 70
     1
102
RTVSPropertyOp6
 70
     1
102
RTVSPropertyOp7
 70
     1
102
RTVSPropertyOp8
 70
     1
102
RTVSPropertyOp9
 70
     1
102
RTVSPropertyOp10
 70
     1
102
RTVSPropertyOp11
 70
     1
102
RTVSPropertyOp12
 70
     1
102
RTVSPropertyOp13
 70
     1
102
RTVSPropertyOp14
 70
     1
102
RTVSPropertyOp15
 70
     1
102
RTVSPropertyOp16
 70
     1
102
RTVSPropertyOp17
 70
     1
102
RTVSPropertyOp18
 70
     1
102
RTVSPropertyOp19
 70
     1
102
RTVSPropertyOp20
 70
     1
102
RTVSPropertyOp21
 70
     1
102
RTVSPropertyOp22
 70
     1
102
RTVSPropertyOp23
 70
     1
102
RTVSPropertyOp24
 70
     1
102
RTVSPropertyOp25
 70
     1
102
RTVSPropertyOp26
 70
     1
102
RTVSPropertyOp27
 70
     1
  0
XRECORD
  5
14F
102
{ACAD_REACTORS
330
14E
102
}
330
14E
100
AcDbXrecord
280
     1
102
RTVSPropertyOp0
 70
     1
102
RTVSPropertyOp1
 70
     1
102
RTVSPropertyOp2
 70
     1
102
RTVSPropertyOp3
 70
     1
102
RTVSPropertyOp4
 70
     1
102
RTVSPropertyOp5
 70
     1
102
RTVSPropertyOp6
 70
     1
102
RTVSPropertyOp7
 70
     1
102
RTVSPropertyOp8
 70
     1
102
RTVSPropertyOp9
 70
     1
102
RTVSPropertyOp10
 70
     1
102
RTVSPropertyOp11
 70
     1
102
RTVSPropertyOp12
 70
     1
102
RTVSPropertyOp13
 70
     1
102
RTVSPropertyOp14
 70
     1
102
RTVSPropertyOp15
 70
     1
102
RTVSPropertyOp16
 70
     1
102
RTVSPropertyOp17
 70
     1
102
RTVSPropertyOp18
 70
     1
102
RTVSPropertyOp19
 70
     1
102
RTVSPropertyOp20
 70
     1
102
RTVSPropertyOp21
 70
     1
102
RTVSPropertyOp22
 70
     1
102
RTVSPropertyOp23
 70
     1
102
RTVSPropertyOp24
 70
     1
102
RTVSPropertyOp25
 70
     1
102
RTVSPropertyOp26
 70
     1
102
RTVSPropertyOp27
 70
     1
  0
XRECORD
  5
151
102
{ACAD_REACTORS
330
150
102
}
330
150
100
AcDbXrecord
280
     1
102
RTVSPropertyOp0
 70
     1
102
RTVSPropertyOp1
 70
     1
102
RTVSPropertyOp2
 70
     1
102
RTVSPropertyOp3
 70
     1
102
RTVSPropertyOp4
 70
     1
102
RTVSPropertyOp5
 70
     1
102
RTVSPropertyOp6
 70
     1
102
RTVSPropertyOp7
 70
     1
102
RTVSPropertyOp8
 70
     1
102
RTVSPropertyOp9
 70
     1
102
RTVSPropertyOp10
 70
     1
102
RTVSPropertyOp11
 70
     1
102
RTVSPropertyOp12
 70
     1
102
RTVSPropertyOp13
 70
     1
102
RTVSPropertyOp14
 70
     1
102
RTVSPropertyOp15
 70
     1
102
RTVSPropertyOp16
 70
     1
102
RTVSPropertyOp17
 70
     1
102
RTVSPropertyOp18
 70
     1
102
RTVSPropertyOp19
 70
     1
102
RTVSPropertyOp20
 70
     1
102
RTVSPropertyOp21
 70
     1
102
RTVSPropertyOp22
 70
     1
102
RTVSPropertyOp23
 70
     1
102
RTVSPropertyOp24
 70
     1
102
RTVSPropertyOp25
 70
     1
102
RTVSPropertyOp26
 70
     1
102
RTVSPropertyOp27
 70
     1
  0
XRECORD
  5
153
102
{ACAD_REACTORS
330
152
102
}
330
152
100
AcDbXrecord
280
     1
102
RTVSPropertyOp0
 70
     1
102
RTVSPropertyOp1
 70
     1
102
RTVSPropertyOp2
 70
     1
102
RTVSPropertyOp3
 70
     1
102
RTVSPropertyOp4
 70
     1
102
RTVSPropertyOp5
 70
     1
102
RTVSPropertyOp6
 70
     1
102
RTVSPropertyOp7
 70
     1
102
RTVSPropertyOp8
 70
     1
102
RTVSPropertyOp9
 70
     1
102
RTVSPropertyOp10
 70
     1
102
RTVSPropertyOp11
 70
     1
102
RTVSPropertyOp12
 70
     1
102
RTVSPropertyOp13
 70
     1
102
RTVSPropertyOp14
 70
     1
102
RTVSPropertyOp15
 70
     1
102
RTVSPropertyOp16
 70
     1
102
RTVSPropertyOp17
 70
     1
102
RTVSPropertyOp18
 70
     1
102
RTVSPropertyOp19
 70
     1
102
RTVSPropertyOp20
 70
     1
102
RTVSPropertyOp21
 70
     1
102
RTVSPropertyOp22
 70
     1
102
RTVSPropertyOp23
 70
     1
102
RTVSPropertyOp24
 70
     1
102
RTVSPropertyOp25
 70
     1
102
RTVSPropertyOp26
 70
     1
102
RTVSPropertyOp27
 70
     1
  0
XRECORD
  5
155
102
{ACAD_REACTORS
330
154
102
}
330
154
100
AcDbXrecord
280
     1
102
RTVSPropertyOp0
 70
     1
102
RTVSPropertyOp1
 70
     1
102
RTVSPropertyOp2
 70
     1
102
RTVSPropertyOp3
 70
     1
102
RTVSPropertyOp4
 70
     1
102
RTVSPropertyOp5
 70
     1
102
RTVSPropertyOp6
 70
     1
102
RTVSPropertyOp7
 70
     1
102
RTVSPropertyOp8
 70
     1
102
RTVSPropertyOp9
 70
     1
102
RTVSPropertyOp10
 70
     1
102
RTVSPropertyOp11
 70
     1
102
RTVSPropertyOp12
 70
     1
102
RTVSPropertyOp13
 70
     1
102
RTVSPropertyOp14
 70
     1
102
RTVSPropertyOp15
 70
     1
102
RTVSPropertyOp16
 70
     1
102
RTVSPropertyOp17
 70
     1
102
RTVSPropertyOp18
 70
     1
102
RTVSPropertyOp19
 70
     1
102
RTVSPropertyOp20
 70
     1
102
RTVSPropertyOp21
 70
     1
102
RTVSPropertyOp22
 70
     1
102
RTVSPropertyOp23
 70
     1
102
RTVSPropertyOp24
 70
     1
102
RTVSPropertyOp25
 70
     1
102
RTVSPropertyOp26
 70
     1
102
RTVSPropertyOp27
 70
     1
  0
XRECORD
  5
169
102
{ACAD_REACTORS
330
168
102
}
330
168
100
AcDbXrecord
280
     1
102
RTVSPropertyOp0
 70
     1
102
RTVSPropertyOp1
 70
     1
102
RTVSPropertyOp2
 70
     1
102
RTVSPropertyOp3
 70
     1
102
RTVSPropertyOp4
 70
     1
102
RTVSPropertyOp5
 70
     1
102
RTVSPropertyOp6
 70
     1
102
RTVSPropertyOp7
 70
     1
102
RTVSPropertyOp8
 70
     1
102
RTVSPropertyOp9
 70
     1
102
RTVSPropertyOp10
 70
     1
102
RTVSPropertyOp11
 70
     1
102
RTVSPropertyOp12
 70
     1
102
RTVSPropertyOp13
 70
     1
102
RTVSPropertyOp14
 70
     1
102
RTVSPropertyOp15
 70
     1
102
RTVSPropertyOp16
 70
     1
102
RTVSPropertyOp17
 70
     1
102
RTVSPropertyOp18
 70
     1
102
RTVSPropertyOp19
 70
     1
102
RTVSPropertyOp20
 70
     1
102
RTVSPropertyOp21
 70
     1
102
RTVSPropertyOp22
 70
     1
102
RTVSPropertyOp23
 70
     1
102
RTVSPropertyOp24
 70
     1
102
RTVSPropertyOp25
 70
     1
102
RTVSPropertyOp26
 70
     1
102
RTVSPropertyOp27
 70
     1
  0
XRECORD
  5
15F
102
{ACAD_REACTORS
330
15E
102
}
330
15E
100
AcDbXrecord
280
     1
102
RTVSPropertyOp0
 70
     1
102
RTVSPropertyOp1
 70
     1
102
RTVSPropertyOp2
 70
     1
102
RTVSPropertyOp3
 70
     1
102
RTVSPropertyOp4
 70
     1
102
RTVSPropertyOp5
 70
     1
102
RTVSPropertyOp6
 70
     1
102
RTVSPropertyOp7
 70
     1
102
RTVSPropertyOp8
 70
     1
102
RTVSPropertyOp9
 70
     1
102
RTVSPropertyOp10
 70
     1
102
RTVSPropertyOp11
 70
     1
102
RTVSPropertyOp12
 70
     1
102
RTVSPropertyOp13
 70
     1
102
RTVSPropertyOp14
 70
     1
102
RTVSPropertyOp15
 70
     1
102
RTVSPropertyOp16
 70
     1
102
RTVSPropertyOp17
 70
     1
102
RTVSPropertyOp18
 70
     1
102
RTVSPropertyOp19
 70
     1
102
RTVSPropertyOp20
 70
     1
102
RTVSPropertyOp21
 70
     1
102
RTVSPropertyOp22
 70
     1
102
RTVSPropertyOp23
 70
     1
102
RTVSPropertyOp24
 70
     1
102
RTVSPropertyOp25
 70
     1
102
RTVSPropertyOp26
 70
     1
102
RTVSPropertyOp27
 70
     1
  0
XRECORD
  5
167
102
{ACAD_REACTORS
330
166
102
}
330
166
100
AcDbXrecord
280
     1
102
RTVSPropertyOp0
 70
     1
102
RTVSPropertyOp1
 70
     1
102
RTVSPropertyOp2
 70
     1
102
RTVSPropertyOp3
 70
     1
102
RTVSPropertyOp4
 70
     1
102
RTVSPropertyOp5
 70
     1
102
RTVSPropertyOp6
 70
     1
102
RTVSPropertyOp7
 70
     1
102
RTVSPropertyOp8
 70
     1
102
RTVSPropertyOp9
 70
     1
102
RTVSPropertyOp10
 70
     1
102
RTVSPropertyOp11
 70
     1
102
RTVSPropertyOp12
 70
     1
102
RTVSPropertyOp13
 70
     1
102
RTVSPropertyOp14
 70
     1
102
RTVSPropertyOp15
 70
     1
102
RTVSPropertyOp16
 70
     1
102
RTVSPropertyOp17
 70
     1
102
RTVSPropertyOp18
 70
     1
102
RTVSPropertyOp19
 70
     1
102
RTVSPropertyOp20
 70
     1
102
RTVSPropertyOp21
 70
     1
102
RTVSPropertyOp22
 70
     1
102
RTVSPropertyOp23
 70
     1
102
RTVSPropertyOp24
 70
     1
102
RTVSPropertyOp25
 70
     1
102
RTVSPropertyOp26
 70
     1
102
RTVSPropertyOp27
 70
     1
  0
ENDSEC
  0
EOF
