  0
SECTION
  2
HEADER
  9
$ACADVER
  1
AC1018
  9
$ACADMAINTVER
 70
     0
  9
$DWGCODEPAGE
  3
ANSI_1252
  9
$INSBASE
 10
0.0
 20
0.0
 30
0.0
  9
$EXTMIN
 10
72478.60263392073
 20
-2824.356406045526
 30
-2.5
  9
$EXTMAX
 10
75445.62816764117
 20
-824.3563907867369
 30
2.5
  9
$LIMMIN
 10
0.0
 20
0.0
  9
$LIMMAX
 10
420.0
 20
297.0
  9
$ORTHOMODE
 70
     0
  9
$REGENMODE
 70
     1
  9
$FILLMODE
 70
     1
  9
$QTEXTMODE
 70
     0
  9
$MIRRTEXT
 70
     1
  9
$LTSCALE
 40
1.0
  9
$ATTMODE
 70
     1
  9
$TEXTSIZE
 40
0.2
  9
$TRACEWID
 40
1.0
  9
$TEXTSTYLE
  7
HELV-HFT
  9
$CLAYER
  8
MTQ-550-410
  9
$CELTYPE
  6
Continuous
  9
$CECOLOR
 62
   256
  9
$CELTSCALE
 40
1.0
  9
$DISPSILH
 70
     0
  9
$DIMSCALE
 40
1.0
  9
$DIMASZ
 40
2.5
  9
$DIMEXO
 40
0.625
  9
$DIMDLI
 40
3.75
  9
$DIMRND
 40
0.0
  9
$DIMDLE
 40
0.0
  9
$DIMEXE
 40
1.25
  9
$DIMTP
 40
0.0
  9
$DIMTM
 40
0.0
  9
$DIMTXT
 40
2.5
  9
$DIMCEN
 40
2.5
  9
$DIMTSZ
 40
0.0
  9
$DIMTOL
 70
     0
  9
$DIMLIM
 70
     0
  9
$DIMTIH
 70
     0
  9
$DIMTOH
 70
     0
  9
$DIMSE1
 70
     0
  9
$DIMSE2
 70
     0
  9
$DIMTAD
 70
     1
  9
$DIMZIN
 70
     8
  9
$DIMBLK
  1

  9
$DIMASO
 70
     1
  9
$DIMSHO
 70
     1
  9
$DIMPOST
  1

  9
$DIMAPOST
  1

  9
$DIMALT
 70
     0
  9
$DIMALTD
 70
     3
  9
$DIMALTF
 40
0.03937007874016
  9
$DIMLFAC
 40
1.0
  9
$DIMTOFL
 70
     1
  9
$DIMTVP
 40
0.0
  9
$DIMTIX
 70
     0
  9
$DIMSOXD
 70
     0
  9
$DIMSAH
 70
     0
  9
$DIMBLK1
  1

  9
$DIMBLK2
  1

  9
$DIMSTYLE
  2
ISO-25
  9
$DIMCLRD
 70
     0
  9
$DIMCLRE
 70
     0
  9
$DIMCLRT
 70
     0
  9
$DIMTFAC
 40
1.0
  9
$DIMGAP
 40
0.625
  9
$DIMJUST
 70
     0
  9
$DIMSD1
 70
     0
  9
$DIMSD2
 70
     0
  9
$DIMTOLJ
 70
     0
  9
$DIMTZIN
 70
     8
  9
$DIMALTZ
 70
     0
  9
$DIMALTTZ
 70
     0
  9
$DIMUPT
 70
     0
  9
$DIMDEC
 70
     2
  9
$DIMTDEC
 70
     2
  9
$DIMALTU
 70
     2
  9
$DIMALTTD
 70
     3
  9
$DIMTXSTY
  7
Standard
  9
$DIMAUNIT
 70
     0
  9
$DIMADEC
 70
     0
  9
$DIMALTRND
 40
0.0
  9
$DIMAZIN
 70
     0
  9
$DIMDSEP
 70
    44
  9
$DIMATFIT
 70
     3
  9
$DIMFRAC
 70
     0
  9
$DIMLDRBLK
  1

  9
$DIMLUNIT
 70
     2
  9
$DIMLWD
 70
    -2
  9
$DIMLWE
 70
    -2
  9
$DIMTMOVE
 70
     0
  9
$LUNITS
 70
     2
  9
$LUPREC
 70
     4
  9
$SKETCHINC
 40
1.0
  9
$FILLETRAD
 40
10.0
  9
$AUNITS
 70
     0
  9
$AUPREC
 70
     0
  9
$MENU
  1
.
  9
$ELEVATION
 40
0.0
  9
$PELEVATION
 40
0.0
  9
$THICKNESS
 40
0.0
  9
$LIMCHECK
 70
     0
  9
$CHAMFERA
 40
10.0
  9
$CHAMFERB
 40
10.0
  9
$CHAMFERC
 40
20.0
  9
$CHAMFERD
 40
0.0
  9
$SKPOLY
 70
     0
  9
$TDCREATE
 40
2457970.421315058
  9
$TDUCREATE
 40
2457970.337981725
  9
$TDUPDATE
 40
2457970.421332014
  9
$TDUUPDATE
 40
2457970.337998681
  9
$TDINDWG
 40
0.0000000116
  9
$TDUSRTIMER
 40
0.0000000116
  9
$USRTIMER
 70
     1
  9
$ANGBASE
 50
0.0
  9
$ANGDIR
 70
     0
  9
$PDMODE
 70
     0
  9
$PDSIZE
 40
0.0
  9
$PLINEWID
 40
0.0
  9
$SPLFRAME
 70
     0
  9
$SPLINETYPE
 70
     6
  9
$SPLINESEGS
 70
     8
  9
$HANDSEED
  5
317
  9
$SURFTAB1
 70
     6
  9
$SURFTAB2
 70
     6
  9
$SURFTYPE
 70
     6
  9
$SURFU
 70
     6
  9
$SURFV
 70
     6
  9
$UCSBASE
  2

  9
$UCSNAME
  2

  9
$UCSORG
 10
0.0
 20
0.0
 30
0.0
  9
$UCSXDIR
 10
1.0
 20
0.0
 30
0.0
  9
$UCSYDIR
 10
0.0
 20
1.0
 30
0.0
  9
$UCSORTHOREF
  2

  9
$UCSORTHOVIEW
 70
     0
  9
$UCSORGTOP
 10
0.0
 20
0.0
 30
0.0
  9
$UCSORGBOTTOM
 10
0.0
 20
0.0
 30
0.0
  9
$UCSORGLEFT
 10
0.0
 20
0.0
 30
0.0
  9
$UCSORGRIGHT
 10
0.0
 20
0.0
 30
0.0
  9
$UCSORGFRONT
 10
0.0
 20
0.0
 30
0.0
  9
$UCSORGBACK
 10
0.0
 20
0.0
 30
0.0
  9
$PUCSBASE
  2

  9
$PUCSNAME
  2

  9
$PUCSORG
 10
0.0
 20
0.0
 30
0.0
  9
$PUCSXDIR
 10
1.0
 20
0.0
 30
0.0
  9
$PUCSYDIR
 10
0.0
 20
1.0
 30
0.0
  9
$PUCSORTHOREF
  2

  9
$PUCSORTHOVIEW
 70
     0
  9
$PUCSORGTOP
 10
0.0
 20
0.0
 30
0.0
  9
$PUCSORGBOTTOM
 10
0.0
 20
0.0
 30
0.0
  9
$PUCSORGLEFT
 10
0.0
 20
0.0
 30
0.0
  9
$PUCSORGRIGHT
 10
0.0
 20
0.0
 30
0.0
  9
$PUCSORGFRONT
 10
0.0
 20
0.0
 30
0.0
  9
$PUCSORGBACK
 10
0.0
 20
0.0
 30
0.0
  9
$USERI1
 70
     0
  9
$USERI2
 70
     0
  9
$USERI3
 70
     0
  9
$USERI4
 70
     0
  9
$USERI5
 70
     0
  9
$USERR1
 40
0.0
  9
$USERR2
 40
0.0
  9
$USERR3
 40
0.0
  9
$USERR4
 40
0.0
  9
$USERR5
 40
0.0
  9
$WORLDVIEW
 70
     1
  9
$SHADEDGE
 70
     3
  9
$SHADEDIF
 70
    70
  9
$TILEMODE
 70
     1
  9
$MAXACTVP
 70
    64
  9
$PINSBASE
 10
0.0
 20
0.0
 30
0.0
  9
$PLIMCHECK
 70
     0
  9
$PEXTMIN
 10
1.000000000000000E+20
 20
1.000000000000000E+20
 30
1.000000000000000E+20
  9
$PEXTMAX
 10
-1.000000000000000E+20
 20
-1.000000000000000E+20
 30
-1.000000000000000E+20
  9
$PLIMMIN
 10
0.0
 20
0.0
  9
$PLIMMAX
 10
420.0
 20
297.0
  9
$UNITMODE
 70
     0
  9
$VISRETAIN
 70
     1
  9
$PLINEGEN
 70
     0
  9
$PSLTSCALE
 70
     1
  9
$TREEDEPTH
 70
  3020
  9
$CMLSTYLE
  2
Standard
  9
$CMLJUST
 70
     0
  9
$CMLSCALE
 40
20.0
  9
$PROXYGRAPHICS
 70
     1
  9
$MEASUREMENT
 70
     1
  9
$CELWEIGHT
370
    -1
  9
$ENDCAPS
280
     0
  9
$JOINSTYLE
280
     0
  9
$LWDISPLAY
290
     0
  9
$INSUNITS
 70
     4
  9
$HYPERLINKBASE
  1

  9
$STYLESHEET
  1

  9
$XEDIT
290
     1
  9
$CEPSNTYPE
380
     0
  9
$PSTYLEMODE
290
     1
  9
$FINGERPRINTGUID
  2
{5670C4AB-B736-41C3-BE4F-8EF708D04E44}
  9
$VERSIONGUID
  2
{FAEB1C32-E019-11D5-929B-00C0DF256EC4}
  9
$EXTNAMES
290
     1
  9
$PSVPSCALE
 40
0.0
  9
$OLESTARTUP
290
     0
  9
$SORTENTS
280
   127
  9
$INDEXCTL
280
     0
  9
$HIDETEXT
280
     1
  9
$XCLIPFRAME
290
     0
  9
$HALOGAP
280
     0
  9
$OBSCOLOR
 70
   257
  9
$OBSLTYPE
280
     0
  9
$INTERSECTIONDISPLAY
280
     0
  9
$INTERSECTIONCOLOR
 70
   257
  9
$DIMASSOC
280
     2
  9
$PROJECTNAME
  1

  0
ENDSEC
  0
SECTION
  2
CLASSES
  0
CLASS
  1
ACDBDICTIONARYWDFLT
  2
AcDbDictionaryWithDefault
  3
ObjectDBX Classes
 90
        0
 91
        4
280
     0
281
     0
  0
CLASS
  1
VISUALSTYLE
  2
AcDbVisualStyle
  3
ObjectDBX Classes
 90
     4095
 91
        4
280
     0
281
     0
  0
CLASS
  1
MATERIAL
  2
AcDbMaterial
  3
ObjectDBX Classes
 90
     1153
 91
        4
280
     0
281
     0
  0
CLASS
  1
SCALE
  2
AcDbScale
  3
ObjectDBX Classes
 90
     1153
 91
        4
280
     0
281
     0
  0
CLASS
  1
DICTIONARYVAR
  2
AcDbDictionaryVar
  3
ObjectDBX Classes
 90
        0
 91
        4
280
     0
281
     0
  0
ENDSEC
  0
SECTION
  2
TABLES
  0
TABLE
  2
VPORT
  5
8
330
0
100
AcDbSymbolTable
 70
     1
  0
VPORT
  5
29
330
8
100
AcDbSymbolTableRecord
100
AcDbViewportTableRecord
  2
*Active
 70
     0
 10
0.0
 20
0.0
 11
1.0
 21
1.0
 12
37153.1511583344
 22
-837.9281992080657
 13
0.0
 23
0.0
 14
10.0
 24
10.0
 15
10.0
 25
10.0
 16
0.0
 26
0.0
 36
1.0
 17
0.0
 27
0.0
 37
0.0
 40
2040.000015563965
 41
1.483512755541918
 42
50.0
 43
0.0
 44
0.0
 50
0.0
 51
0.0
 71
     0
 72
   100
 73
     1
 74
     3
 75
     0
 76
     0
 77
     0
 78
     0
281
     0
 65
     1
110
0.0
120
0.0
130
0.0
111
1.0
121
0.0
131
0.0
112
0.0
122
1.0
132
0.0
 79
     0
146
0.0
  0
ENDTAB
  0
TABLE
  2
LTYPE
  5
5
330
0
100
AcDbSymbolTable
 70
     2
  0
LTYPE
  5
14
330
5
100
AcDbSymbolTableRecord
100
AcDbLinetypeTableRecord
  2
ByBlock
 70
     0
  3

 72
    65
 73
     0
 40
0.0
  0
LTYPE
  5
15
330
5
100
AcDbSymbolTableRecord
100
AcDbLinetypeTableRecord
  2
ByLayer
 70
     0
  3

 72
    65
 73
     0
 40
0.0
  0
LTYPE
  5
16
330
5
100
AcDbSymbolTableRecord
100
AcDbLinetypeTableRecord
  2
Continuous
 70
     0
  3
Solid line
 72
    65
 73
     0
 40
0.0
  0
LTYPE
  5
F5
330
5
100
AcDbSymbolTableRecord
100
AcDbLinetypeTableRecord
  2
DASHED1
 70
     0
  3

 72
    65
 73
     3
 40
1.0
 49
0.3
 74
     0
 49
-0.4
 74
     0
 49
0.3
 74
     0
  0
ENDTAB
  0
TABLE
  2
LAYER
  5
2
330
0
100
AcDbSymbolTable
 70
     6
  0
LAYER
  5
10
330
2
100
AcDbSymbolTableRecord
100
AcDbLayerTableRecord
  2
0
 70
     0
 62
     7
  6
Continuous
370
    -3
390
F
  0
LAYER
  5
3F
330
2
100
AcDbSymbolTableRecord
100
AcDbLayerTableRecord
  2
allgemein
 70
     0
 62
    18
420
        0
  6
Continuous
370
    25
390
F
  0
LAYER
  5
40
330
2
100
AcDbSymbolTableRecord
100
AcDbLayerTableRecord
  2
Beschriftung Allgemein
 70
     0
 62
    18
420
        0
  6
Continuous
370
    25
390
F
  0
LAYER
  5
41
330
2
100
AcDbSymbolTableRecord
100
AcDbLayerTableRecord
  2
MTO-1200-410
 70
     0
 62
    18
420
        0
  6
Continuous
370
    25
390
F
  0
LAYER
  5
68
330
2
100
AcDbSymbolTableRecord
100
AcDbLayerTableRecord
  2
Defpoints
 70
     0
 62
     7
  6
Continuous
290
     0
370
    -3
390
F
  0
LAYER
  5
274
330
2
100
AcDbSymbolTableRecord
100
AcDbLayerTableRecord
  2
MTQ-550-410
 70
     0
 62
    18
420
        0
  6
Continuous
370
    25
390
F
  0
ENDTAB
  0
TABLE
  2
STYLE
  5
3
330
0
100
AcDbSymbolTable
 70
     6
  0
STYLE
  5
11
330
3
100
AcDbSymbolTableRecord
100
AcDbTextStyleTableRecord
  2
Standard
 70
     0
 40
0.0
 41
1.0
 50
0.0
 71
     0
 42
2.5
  3
txt
  4

  0
STYLE
  5
66
330
3
100
AcDbSymbolTableRecord
100
AcDbTextStyleTableRecord
  2
ROMAN
 70
     0
 40
0.0
 41
1.0
 50
0.0
 71
     0
 42
0.2
  3
ROMAN
  4

  0
STYLE
  5
BC
330
3
100
AcDbSymbolTableRecord
100
AcDbTextStyleTableRecord
  2
ARIAL
 70
     0
 40
0.0
 41
1.0
 50
0.0
 71
     0
 42
0.2
  3
ARIAL
  4

  0
STYLE
  5
250
330
3
100
AcDbSymbolTableRecord
100
AcDbTextStyleTableRecord
  2
CENTURY GOTHIC
 70
     0
 40
0.0
 41
1.0
 50
0.0
 71
     0
 42
0.2
  3
CENTURY GOTHIC
  4

  0
STYLE
  5
26C
330
3
100
AcDbSymbolTableRecord
100
AcDbTextStyleTableRecord
  2
HLV-L
 70
     0
 40
0.0
 41
1.0
 50
0.0
 71
     0
 42
0.2
  3
HLV-L
  4

  0
STYLE
  5
272
330
3
100
AcDbSymbolTableRecord
100
AcDbTextStyleTableRecord
  2
HELV-HFT
 70
     0
 40
0.0
 41
1.0
 50
0.0
 71
     0
 42
0.2
  3
HELV-HFT
  4

  0
ENDTAB
  0
TABLE
  2
VIEW
  5
6
330
0
100
AcDbSymbolTable
 70
     0
  0
ENDTAB
  0
TABLE
  2
UCS
  5
7
330
0
100
AcDbSymbolTable
 70
     0
  0
ENDTAB
  0
TABLE
  2
APPID
  5
9
330
0
100
AcDbSymbolTable
 70
     3
  0
APPID
  5
12
330
9
100
AcDbSymbolTableRecord
100
AcDbRegAppTableRecord
  2
ACAD
 70
     0
  0
APPID
  5
2EB
330
9
100
AcDbSymbolTableRecord
100
AcDbRegAppTableRecord
  2
ACAD_DSTYLE_DIMEXT_ENABLED
 70
     0
  0
APPID
  5
2EC
330
9
100
AcDbSymbolTableRecord
100
AcDbRegAppTableRecord
  2
ACAD_DSTYLE_DIMEXT_LENGTH
 70
     0
  0
ENDTAB
  0
TABLE
  2
DIMSTYLE
  5
A
330
0
100
AcDbSymbolTable
 70
     1
100
AcDbDimStyleTable
  0
DIMSTYLE
105
27
102
{ACAD_REACTORS
330
67
330
7B
330
88
330
95
330
A2
330
AF
330
BD
330
CC
330
D9
102
}
330
A
100
AcDbSymbolTableRecord
100
AcDbDimStyleTableRecord
  2
ISO-25
 70
     0
 41
2.5
 42
0.625
 43
3.75
 44
1.25
 73
     0
 74
     0
 77
     1
 78
     8
140
2.5
141
2.5
143
0.03937007874016
147
0.625
171
     3
172
     1
178
     0
271
     2
272
     2
274
     3
278
    44
283
     0
284
     8
340
11
  0
ENDTAB
  0
TABLE
  2
BLOCK_RECORD
  5
1
330
0
100
AcDbSymbolTable
 70
    44
  0
BLOCK_RECORD
  5
1F
330
1
100
AcDbSymbolTableRecord
100
AcDbBlockTableRecord
  2
*Model_Space
340
22
  0
BLOCK_RECORD
  5
1B
330
1
100
AcDbSymbolTableRecord
100
AcDbBlockTableRecord
  2
*Paper_Space
340
1E
  0
BLOCK_RECORD
  5
23
330
1
100
AcDbSymbolTableRecord
100
AcDbBlockTableRecord
  2
*Paper_Space0
340
26
  0
BLOCK_RECORD
  5
42
330
1
100
AcDbSymbolTableRecord
100
AcDbBlockTableRecord
  2
Dimension1
340
0
102
{BLKREFS
331
45
102
}
  0
BLOCK_RECORD
  5
46
330
1
100
AcDbSymbolTableRecord
100
AcDbBlockTableRecord
  2
Dimension2
340
0
102
{BLKREFS
331
49
102
}
  0
BLOCK_RECORD
  5
4A
330
1
100
AcDbSymbolTableRecord
100
AcDbBlockTableRecord
  2
Dimension3
340
0
102
{BLKREFS
331
4D
102
}
  0
BLOCK_RECORD
  5
4E
330
1
100
AcDbSymbolTableRecord
100
AcDbBlockTableRecord
  2
Dimension4
340
0
102
{BLKREFS
331
51
102
}
  0
BLOCK_RECORD
  5
52
330
1
100
AcDbSymbolTableRecord
100
AcDbBlockTableRecord
  2
Dimension5
340
0
102
{BLKREFS
331
55
102
}
  0
BLOCK_RECORD
  5
56
330
1
100
AcDbSymbolTableRecord
100
AcDbBlockTableRecord
  2
Dimension6
340
0
102
{BLKREFS
331
59
102
}
  0
BLOCK_RECORD
  5
5A
330
1
100
AcDbSymbolTableRecord
100
AcDbBlockTableRecord
  2
Dimension7
340
0
102
{BLKREFS
331
5D
102
}
  0
BLOCK_RECORD
  5
5E
330
1
100
AcDbSymbolTableRecord
100
AcDbBlockTableRecord
  2
Dimension8
340
0
102
{BLKREFS
331
61
102
}
  0
BLOCK_RECORD
  5
62
330
1
100
AcDbSymbolTableRecord
100
AcDbBlockTableRecord
  2
Dimension9
340
0
102
{BLKREFS
331
65
102
}
  0
BLOCK_RECORD
  5
69
330
1
100
AcDbSymbolTableRecord
100
AcDbBlockTableRecord
  2
*D10
340
0
  0
BLOCK_RECORD
  5
75
330
1
100
AcDbSymbolTableRecord
100
AcDbBlockTableRecord
  2
_OPEN30
340
0
102
{BLKREFS
331
6D
331
6E
331
80
331
81
331
8D
331
8E
331
9A
331
9B
331
A7
331
A8
331
B4
331
B5
331
0
331
0
331
C5
331
C4
331
D1
331
D2
331
DE
331
DF
102
}
  0
BLOCK_RECORD
  5
7C
330
1
100
AcDbSymbolTableRecord
100
AcDbBlockTableRecord
  2
*D12
340
0
  0
BLOCK_RECORD
  5
89
330
1
100
AcDbSymbolTableRecord
100
AcDbBlockTableRecord
  2
*D13
340
0
  0
BLOCK_RECORD
  5
96
330
1
100
AcDbSymbolTableRecord
100
AcDbBlockTableRecord
  2
*D14
340
0
  0
BLOCK_RECORD
  5
A3
330
1
100
AcDbSymbolTableRecord
100
AcDbBlockTableRecord
  2
*D15
340
0
  0
BLOCK_RECORD
  5
B0
330
1
100
AcDbSymbolTableRecord
100
AcDbBlockTableRecord
  2
*D16
340
0
  0
BLOCK_RECORD
  5
BE
330
1
100
AcDbSymbolTableRecord
100
AcDbBlockTableRecord
  2
*D17
340
0
  0
BLOCK_RECORD
  5
CD
330
1
100
AcDbSymbolTableRecord
100
AcDbBlockTableRecord
  2
*D18
340
0
  0
BLOCK_RECORD
  5
DA
330
1
100
AcDbSymbolTableRecord
100
AcDbBlockTableRecord
  2
*D19
340
0
  0
BLOCK_RECORD
  5
E6
330
1
100
AcDbSymbolTableRecord
100
AcDbBlockTableRecord
  2
Dimension10
340
0
102
{BLKREFS
331
E9
102
}
  0
BLOCK_RECORD
  5
EA
330
1
100
AcDbSymbolTableRecord
100
AcDbBlockTableRecord
  2
Dimension11
340
0
102
{BLKREFS
331
ED
102
}
  0
BLOCK_RECORD
  5
EE
330
1
100
AcDbSymbolTableRecord
100
AcDbBlockTableRecord
  2
Dimension12
340
0
102
{BLKREFS
331
F1
102
}
  0
BLOCK_RECORD
  5
275
330
1
100
AcDbSymbolTableRecord
100
AcDbBlockTableRecord
  2
Dimension13
340
0
102
{BLKREFS
331
278
102
}
  0
BLOCK_RECORD
  5
279
330
1
100
AcDbSymbolTableRecord
100
AcDbBlockTableRecord
  2
Dimension14
340
0
102
{BLKREFS
331
27C
102
}
  0
BLOCK_RECORD
  5
27D
330
1
100
AcDbSymbolTableRecord
100
AcDbBlockTableRecord
  2
Dimension15
340
0
102
{BLKREFS
331
280
102
}
  0
BLOCK_RECORD
  5
281
330
1
100
AcDbSymbolTableRecord
100
AcDbBlockTableRecord
  2
Dimension16
340
0
102
{BLKREFS
331
284
102
}
  0
BLOCK_RECORD
  5
285
330
1
100
AcDbSymbolTableRecord
100
AcDbBlockTableRecord
  2
Dimension17
340
0
102
{BLKREFS
331
288
102
}
  0
BLOCK_RECORD
  5
289
330
1
100
AcDbSymbolTableRecord
100
AcDbBlockTableRecord
  2
Dimension18
340
0
102
{BLKREFS
331
28C
102
}
  0
BLOCK_RECORD
  5
28D
330
1
100
AcDbSymbolTableRecord
100
AcDbBlockTableRecord
  2
Dimension19
340
0
102
{BLKREFS
331
290
102
}
  0
BLOCK_RECORD
  5
291
330
1
100
AcDbSymbolTableRecord
100
AcDbBlockTableRecord
  2
Dimension20
340
0
102
{BLKREFS
331
294
102
}
  0
BLOCK_RECORD
  5
295
330
1
100
AcDbSymbolTableRecord
100
AcDbBlockTableRecord
  2
Dimension21
340
0
102
{BLKREFS
331
298
102
}
  0
BLOCK_RECORD
  5
299
330
1
100
AcDbSymbolTableRecord
100
AcDbBlockTableRecord
  2
Dimension22
340
0
102
{BLKREFS
331
29C
102
}
  0
BLOCK_RECORD
  5
29D
330
1
100
AcDbSymbolTableRecord
100
AcDbBlockTableRecord
  2
Dimension23
340
0
102
{BLKREFS
331
2A0
102
}
  0
BLOCK_RECORD
  5
2A1
330
1
100
AcDbSymbolTableRecord
100
AcDbBlockTableRecord
  2
Dimension24
340
0
102
{BLKREFS
331
2A4
102
}
  0
BLOCK_RECORD
  5
2A5
330
1
100
AcDbSymbolTableRecord
100
AcDbBlockTableRecord
  2
Dimension25
340
0
102
{BLKREFS
331
2A8
102
}
  0
BLOCK_RECORD
  5
2A9
330
1
100
AcDbSymbolTableRecord
100
AcDbBlockTableRecord
  2
Dimension26
340
0
102
{BLKREFS
331
2AC
102
}
  0
BLOCK_RECORD
  5
2AD
330
1
100
AcDbSymbolTableRecord
100
AcDbBlockTableRecord
  2
Dimension27
340
0
102
{BLKREFS
331
2B0
102
}
  0
BLOCK_RECORD
  5
2B1
330
1
100
AcDbSymbolTableRecord
100
AcDbBlockTableRecord
  2
Dimension28
340
0
102
{BLKREFS
331
2B4
102
}
  0
BLOCK_RECORD
  5
2B5
330
1
100
AcDbSymbolTableRecord
100
AcDbBlockTableRecord
  2
Dimension29
340
0
102
{BLKREFS
331
2B8
102
}
  0
BLOCK_RECORD
  5
2B9
330
1
100
AcDbSymbolTableRecord
100
AcDbBlockTableRecord
  2
Dimension30
340
0
102
{BLKREFS
331
2BC
102
}
  0
BLOCK_RECORD
  5
2BD
330
1
100
AcDbSymbolTableRecord
100
AcDbBlockTableRecord
  2
Dimension31
340
0
102
{BLKREFS
331
2C0
102
}
  0
BLOCK_RECORD
  5
2C1
330
1
100
AcDbSymbolTableRecord
100
AcDbBlockTableRecord
  2
Dimension32
340
0
102
{BLKREFS
331
2C4
102
}
  0
BLOCK_RECORD
  5
2C5
330
1
100
AcDbSymbolTableRecord
100
AcDbBlockTableRecord
  2
Dimension33
340
0
102
{BLKREFS
331
2C8
102
}
  0
ENDTAB
  0
ENDSEC
  0
SECTION
  2
BLOCKS
  0
BLOCK
  5
20
330
1F
100
AcDbEntity
  8
0
100
AcDbBlockBegin
  2
*Model_Space
 70
     0
 10
0.0
 20
0.0
 30
0.0
  3
*Model_Space
  1

  0
ENDBLK
  5
21
330
1F
100
AcDbEntity
  8
0
100
AcDbBlockEnd
  0
BLOCK
  5
1C
330
1B
100
AcDbEntity
 67
     1
  8
0
100
AcDbBlockBegin
  2
*Paper_Space
 70
     0
 10
0.0
 20
0.0
 30
0.0
  3
*Paper_Space
  1

  0
ENDBLK
  5
1D
330
1B
100
AcDbEntity
 67
     1
  8
0
100
AcDbBlockEnd
  0
BLOCK
  5
24
330
23
100
AcDbEntity
  8
0
100
AcDbBlockBegin
  2
*Paper_Space0
 70
     0
 10
0.0
 20
0.0
 30
0.0
  3
*Paper_Space0
  1

  0
ENDBLK
  5
25
330
23
100
AcDbEntity
  8
0
100
AcDbBlockEnd
  0
BLOCK
  5
43
330
42
100
AcDbEntity
  8
0
100
AcDbBlockBegin
  2
Dimension1
 70
     0
 10
0.0
 20
0.0
 30
0.0
  3
Dimension1
  1

  0
ENDBLK
  5
44
330
42
100
AcDbEntity
  8
0
100
AcDbBlockEnd
  0
BLOCK
  5
47
330
46
100
AcDbEntity
  8
0
100
AcDbBlockBegin
  2
Dimension2
 70
     0
 10
0.0
 20
0.0
 30
0.0
  3
Dimension2
  1

  0
ENDBLK
  5
48
330
46
100
AcDbEntity
  8
0
100
AcDbBlockEnd
  0
BLOCK
  5
4B
330
4A
100
AcDbEntity
  8
0
100
AcDbBlockBegin
  2
Dimension3
 70
     0
 10
0.0
 20
0.0
 30
0.0
  3
Dimension3
  1

  0
ENDBLK
  5
4C
330
4A
100
AcDbEntity
  8
0
100
AcDbBlockEnd
  0
BLOCK
  5
4F
330
4E
100
AcDbEntity
  8
0
100
AcDbBlockBegin
  2
Dimension4
 70
     0
 10
0.0
 20
0.0
 30
0.0
  3
Dimension4
  1

  0
ENDBLK
  5
50
330
4E
100
AcDbEntity
  8
0
100
AcDbBlockEnd
  0
BLOCK
  5
53
330
52
100
AcDbEntity
  8
0
100
AcDbBlockBegin
  2
Dimension5
 70
     0
 10
0.0
 20
0.0
 30
0.0
  3
Dimension5
  1

  0
ENDBLK
  5
54
330
52
100
AcDbEntity
  8
0
100
AcDbBlockEnd
  0
BLOCK
  5
57
330
56
100
AcDbEntity
  8
0
100
AcDbBlockBegin
  2
Dimension6
 70
     0
 10
0.0
 20
0.0
 30
0.0
  3
Dimension6
  1

  0
ENDBLK
  5
58
330
56
100
AcDbEntity
  8
0
100
AcDbBlockEnd
  0
BLOCK
  5
5B
330
5A
100
AcDbEntity
  8
0
100
AcDbBlockBegin
  2
Dimension7
 70
     0
 10
0.0
 20
0.0
 30
0.0
  3
Dimension7
  1

  0
ENDBLK
  5
5C
330
5A
100
AcDbEntity
  8
0
100
AcDbBlockEnd
  0
BLOCK
  5
5F
330
5E
100
AcDbEntity
  8
0
100
AcDbBlockBegin
  2
Dimension8
 70
     0
 10
0.0
 20
0.0
 30
0.0
  3
Dimension8
  1

  0
ENDBLK
  5
60
330
5E
100
AcDbEntity
  8
0
100
AcDbBlockEnd
  0
BLOCK
  5
63
330
62
100
AcDbEntity
  8
0
100
AcDbBlockBegin
  2
Dimension9
 70
     0
 10
0.0
 20
0.0
 30
0.0
  3
Dimension9
  1

  0
ENDBLK
  5
64
330
62
100
AcDbEntity
  8
0
100
AcDbBlockEnd
  0
BLOCK
  5
73
330
69
100
AcDbEntity
  8
0
100
AcDbBlockBegin
  2
*D10
 70
     1
 10
0.0
 20
0.0
 30
0.0
  3
*D10
  1

  0
LINE
  5
6A
330
69
100
AcDbEntity
  8
MTO-1200-410
  6
Continuous
 62
    18
 48
50.00000038146973
370
    -2
100
AcDbLine
 10
35965.58466392547
 20
-780.2645284825708
 30
0.0
 11
35925.58466483145
 21
-780.2645284825708
 31
0.0
  0
LINE
  5
6B
330
69
100
AcDbEntity
  8
MTO-1200-410
  6
Continuous
 62
    18
 48
50.00000038146973
370
    -2
100
AcDbLine
 10
35965.58466392547
 20
-530.2645284825712
 30
0.0
 11
35925.58466483145
 21
-530.2645284825712
 31
0.0
  0
LINE
  5
6C
330
69
100
AcDbEntity
  8
MTO-1200-410
  6
Continuous
 62
    18
 48
50.00000038146973
370
    -2
100
AcDbLine
 10
35945.58466437846
 20
-771.2645281249429
 30
0.0
 11
35945.58466437846
 21
-539.2645288401991
 31
0.0
  0
INSERT
  5
6D
330
69
100
AcDbEntity
  8
MTO-1200-410
 62
    18
370
    -2
100
AcDbBlockReference
  2
_OPEN30
 10
35945.58466437846
 20
-780.2645284825708
 30
0.0
 41
9.000000357627869
 42
9.000000357627869
 43
9.000000357627869
 50
270.0
  0
INSERT
  5
6E
330
69
100
AcDbEntity
  8
MTO-1200-410
 62
    18
370
    -2
100
AcDbBlockReference
  2
_OPEN30
 10
35945.58466437846
 20
-530.2645284825712
 30
0.0
 41
9.000000357627869
 42
9.000000357627869
 43
9.000000357627869
 50
90.0
  0
MTEXT
  5
6F
330
69
100
AcDbEntity
  8
MTO-1200-410
  6
Continuous
 62
    18
370
    25
100
AcDbMText
 10
35913.58466028958
 20
-655.264528482571
 30
0.0
 40
24.0
 41
0.0
 71
     5
 72
     1
  1
250
  7
ROMAN
 11
0.0
 21
1.0
 31
0.0
 73
     1
 44
1.0
  0
POINT
  5
70
330
69
100
AcDbEntity
  8
Defpoints
 62
     0
100
AcDbPoint
 10
36004.58466437845
 20
-780.2645284825708
 30
0.0
  0
POINT
  5
71
330
69
100
AcDbEntity
  8
Defpoints
 62
     0
100
AcDbPoint
 10
36654.58476127177
 20
-530.2645284825713
 30
0.0
  0
POINT
  5
72
330
69
100
AcDbEntity
  8
Defpoints
 62
     0
100
AcDbPoint
 10
35945.58466437846
 20
-530.2645284825712
 30
0.0
  0
ENDBLK
  5
74
330
69
100
AcDbEntity
  8
0
100
AcDbBlockEnd
  0
BLOCK
  5
76
330
75
100
AcDbEntity
  8
0
100
AcDbBlockBegin
  2
_OPEN30
 70
     0
 10
0.0
 20
0.0
 30
0.0
  3
_OPEN30
  1

  0
LINE
  5
78
330
75
100
AcDbEntity
  8
0
  6
ByBlock
 62
     0
370
    -2
100
AcDbLine
 10
-1.0
 20
0.267949
 30
0.0
 11
0.0
 21
0.0
 31
0.0
  0
LINE
  5
79
330
75
100
AcDbEntity
  8
0
  6
ByBlock
 62
     0
370
    -2
100
AcDbLine
 10
0.0
 20
0.0
 30
0.0
 11
-1.0
 21
-0.267949
 31
0.0
  0
LINE
  5
7A
330
75
100
AcDbEntity
  8
0
  6
ByBlock
 62
     0
370
    -2
100
AcDbLine
 10
0.0
 20
0.0
 30
0.0
 11
-1.0
 21
0.0
 31
0.0
  0
ENDBLK
  5
77
330
75
100
AcDbEntity
  8
0
100
AcDbBlockEnd
  0
BLOCK
  5
86
330
7C
100
AcDbEntity
  8
0
100
AcDbBlockBegin
  2
*D12
 70
     1
 10
0.0
 20
0.0
 30
0.0
  3
*D12
  1

  0
LINE
  5
7D
330
7C
100
AcDbEntity
  8
MTO-1200-410
  6
Continuous
 62
    18
 48
50.00000038146973
370
    -2
100
AcDbLine
 10
35965.58466392547
 20
-530.2645284825713
 30
0.0
 11
35925.58466483145
 21
-530.2645284825713
 31
0.0
  0
LINE
  5
7E
330
7C
100
AcDbEntity
  8
MTO-1200-410
  6
Continuous
 62
    18
 48
50.00000038146973
370
    -2
100
AcDbLine
 10
35965.58466392547
 20
-230.2645284825702
 30
0.0
 11
35925.58466483145
 21
-230.2645284825702
 31
0.0
  0
LINE
  5
7F
330
7C
100
AcDbEntity
  8
MTO-1200-410
  6
Continuous
 62
    18
 48
50.00000038146973
370
    -2
100
AcDbLine
 10
35945.58466437846
 20
-521.2645281249435
 30
0.0
 11
35945.58466437846
 21
-239.2645288401981
 31
0.0
  0
INSERT
  5
80
330
7C
100
AcDbEntity
  8
MTO-1200-410
 62
    18
370
    -2
100
AcDbBlockReference
  2
_OPEN30
 10
35945.58466437846
 20
-530.2645284825713
 30
0.0
 41
9.000000357627869
 42
9.000000357627869
 43
9.000000357627869
 50
270.0
  0
INSERT
  5
81
330
7C
100
AcDbEntity
  8
MTO-1200-410
 62
    18
370
    -2
100
AcDbBlockReference
  2
_OPEN30
 10
35945.58466437846
 20
-230.2645284825702
 30
0.0
 41
9.000000357627869
 42
9.000000357627869
 43
9.000000357627869
 50
90.0
  0
MTEXT
  5
82
330
7C
100
AcDbEntity
  8
MTO-1200-410
  6
Continuous
 62
    18
370
    25
100
AcDbMText
 10
35913.58466028958
 20
-380.2645284825708
 30
0.0
 40
24.0
 41
0.0
 71
     5
 72
     1
  1
300
  7
ROMAN
 11
0.0
 21
1.0
 31
0.0
 73
     1
 44
1.0
  0
POINT
  5
83
330
7C
100
AcDbEntity
  8
Defpoints
 62
     0
100
AcDbPoint
 10
36654.58476127177
 20
-530.2645284825713
 30
0.0
  0
POINT
  5
84
330
7C
100
AcDbEntity
  8
Defpoints
 62
     0
100
AcDbPoint
 10
36004.58466437845
 20
-230.2645284825703
 30
0.0
  0
POINT
  5
85
330
7C
100
AcDbEntity
  8
Defpoints
 62
     0
100
AcDbPoint
 10
35945.58466437846
 20
-230.2645284825702
 30
0.0
  0
ENDBLK
  5
87
330
7C
100
AcDbEntity
  8
0
100
AcDbBlockEnd
  0
BLOCK
  5
93
330
89
100
AcDbEntity
  8
0
100
AcDbBlockBegin
  2
*D13
 70
     1
 10
0.0
 20
0.0
 30
0.0
  3
*D13
  1

  0
LINE
  5
8A
330
89
100
AcDbEntity
  8
MTO-1200-410
  6
Continuous
 62
    18
 48
50.00000038146973
370
    -2
100
AcDbLine
 10
35911.58466392547
 20
-230.2645284825702
 30
0.0
 11
35871.58466483145
 21
-230.2645284825702
 31
0.0
  0
LINE
  5
8B
330
89
100
AcDbEntity
  8
MTO-1200-410
  6
Continuous
 62
    18
 48
50.00000038146973
370
    -2
100
AcDbLine
 10
35911.58466392547
 20
-780.2645284825707
 30
0.0
 11
35871.58466483145
 21
-780.2645284825707
 31
0.0
  0
LINE
  5
8C
330
89
100
AcDbEntity
  8
MTO-1200-410
  6
Continuous
 62
    18
 48
50.00000038146973
370
    -2
100
AcDbLine
 10
35891.58466437846
 20
-239.2645288401981
 30
0.0
 11
35891.58466437846
 21
-771.2645281249428
 31
0.0
  0
INSERT
  5
8D
330
89
100
AcDbEntity
  8
MTO-1200-410
 62
    18
370
    -2
100
AcDbBlockReference
  2
_OPEN30
 10
35891.58466437846
 20
-230.2645284825702
 30
0.0
 41
9.000000357627869
 42
9.000000357627869
 43
9.000000357627869
 50
90.0
  0
INSERT
  5
8E
330
89
100
AcDbEntity
  8
MTO-1200-410
 62
    18
370
    -2
100
AcDbBlockReference
  2
_OPEN30
 10
35891.58466437846
 20
-780.2645284825707
 30
0.0
 41
9.000000357627869
 42
9.000000357627869
 43
9.000000357627869
 50
270.0
  0
MTEXT
  5
8F
330
89
100
AcDbEntity
  8
MTO-1200-410
  6
Continuous
 62
    18
370
    25
100
AcDbMText
 10
35859.58466028958
 20
-505.2645284825704
 30
0.0
 40
24.0
 41
0.0
 71
     5
 72
     1
  1
550
  7
ROMAN
 11
0.0
 21
1.0
 31
0.0
 73
     1
 44
1.0
  0
POINT
  5
90
330
89
100
AcDbEntity
  8
Defpoints
 62
     0
100
AcDbPoint
 10
36004.58466437846
 20
-230.2645284825703
 30
0.0
  0
POINT
  5
91
330
89
100
AcDbEntity
  8
Defpoints
 62
     0
100
AcDbPoint
 10
37304.58466437846
 20
-780.2645284825708
 30
0.0
  0
POINT
  5
92
330
89
100
AcDbEntity
  8
Defpoints
 62
     0
100
AcDbPoint
 10
35891.58466437846
 20
-780.2645284825707
 30
0.0
  0
ENDBLK
  5
94
330
89
100
AcDbEntity
  8
0
100
AcDbBlockEnd
  0
BLOCK
  5
A0
330
96
100
AcDbEntity
  8
0
100
AcDbBlockBegin
  2
*D14
 70
     1
 10
0.0
 20
0.0
 30
0.0
  3
*D14
  1

  0
LINE
  5
97
330
96
100
AcDbEntity
  8
MTO-1200-410
  6
Continuous
 62
    18
 48
50.00000038146973
370
    -2
100
AcDbLine
 10
36004.58466437845
 20
-191.264528029575
 30
0.0
 11
36004.58466437845
 21
-151.2645289355656
 31
0.0
  0
LINE
  5
98
330
96
100
AcDbEntity
  8
MTO-1200-410
  6
Continuous
 62
    18
 48
50.00000038146973
370
    -2
100
AcDbLine
 10
36654.58466437846
 20
-191.264528029575
 30
0.0
 11
36654.58466437846
 21
-151.2645289355656
 31
0.0
  0
LINE
  5
99
330
96
100
AcDbEntity
  8
MTO-1200-410
  6
Continuous
 62
    18
 48
50.00000038146973
370
    -2
100
AcDbLine
 10
36013.58466473608
 20
-171.2645284825703
 30
0.0
 11
36645.58466402083
 21
-171.2645284825703
 31
0.0
  0
INSERT
  5
9A
330
96
100
AcDbEntity
  8
MTO-1200-410
 62
    18
370
    -2
100
AcDbBlockReference
  2
_OPEN30
 10
36004.58466437845
 20
-171.2645284825703
 30
0.0
 41
9.000000357627869
 42
9.000000357627869
 43
9.000000357627869
 50
180.0
  0
INSERT
  5
9B
330
96
100
AcDbEntity
  8
MTO-1200-410
 62
    18
370
    -2
100
AcDbBlockReference
  2
_OPEN30
 10
36654.58466437846
 20
-171.2645284825703
 30
0.0
 41
9.000000357627869
 42
9.000000357627869
 43
9.000000357627869
  0
MTEXT
  5
9C
330
96
100
AcDbEntity
  8
MTO-1200-410
  6
Continuous
 62
    18
370
    25
100
AcDbMText
 10
36329.58466437846
 20
-139.2645243936917
 30
0.0
 40
24.0
 41
0.0
 71
     5
 72
     1
  1
650
  7
ROMAN
 73
     1
 44
1.0
  0
POINT
  5
9D
330
96
100
AcDbEntity
  8
Defpoints
 62
     0
100
AcDbPoint
 10
36004.58466437845
 20
-230.2645284825703
 30
0.0
  0
POINT
  5
9E
330
96
100
AcDbEntity
  8
Defpoints
 62
     0
100
AcDbPoint
 10
36654.58466437846
 20
-530.2645284825713
 30
0.0
  0
POINT
  5
9F
330
96
100
AcDbEntity
  8
Defpoints
 62
     0
100
AcDbPoint
 10
36654.58466437846
 20
-171.2645284825703
 30
0.0
  0
ENDBLK
  5
A1
330
96
100
AcDbEntity
  8
0
100
AcDbBlockEnd
  0
BLOCK
  5
AD
330
A3
100
AcDbEntity
  8
0
100
AcDbBlockBegin
  2
*D15
 70
     1
 10
0.0
 20
0.0
 30
0.0
  3
*D15
  1

  0
LINE
  5
A4
330
A3
100
AcDbEntity
  8
MTO-1200-410
  6
Continuous
 62
    18
 48
50.00000038146973
370
    -2
100
AcDbLine
 10
37304.58466437846
 20
-137.264528029575
 30
0.0
 11
37304.58466437846
 21
-97.26452893556555
 31
0.0
  0
LINE
  5
A5
330
A3
100
AcDbEntity
  8
MTO-1200-410
  6
Continuous
 62
    18
 48
50.00000038146973
370
    -2
100
AcDbLine
 10
36004.58466437846
 20
-137.264528029575
 30
0.0
 11
36004.58466437846
 21
-97.26452893556555
 31
0.0
  0
LINE
  5
A6
330
A3
100
AcDbEntity
  8
MTO-1200-410
  6
Continuous
 62
    18
 48
50.00000038146973
370
    -2
100
AcDbLine
 10
37295.58466402083
 20
-117.2645284825703
 30
0.0
 11
36013.58466473609
 21
-117.2645284825703
 31
0.0
  0
INSERT
  5
A7
330
A3
100
AcDbEntity
  8
MTO-1200-410
 62
    18
370
    -2
100
AcDbBlockReference
  2
_OPEN30
 10
37304.58466437846
 20
-117.2645284825703
 30
0.0
 41
9.000000357627869
 42
9.000000357627869
 43
9.000000357627869
  0
INSERT
  5
A8
330
A3
100
AcDbEntity
  8
MTO-1200-410
 62
    18
370
    -2
100
AcDbBlockReference
  2
_OPEN30
 10
36004.58466437846
 20
-117.2645284825703
 30
0.0
 41
9.000000357627869
 42
9.000000357627869
 43
9.000000357627869
 50
180.0
  0
MTEXT
  5
A9
330
A3
100
AcDbEntity
  8
MTO-1200-410
  6
Continuous
 62
    18
370
    25
100
AcDbMText
 10
36654.58466437846
 20
-85.26452439369163
 30
0.0
 40
24.0
 41
0.0
 71
     5
 72
     1
  1
1300
  7
ROMAN
 73
     1
 44
1.0
  0
POINT
  5
AA
330
A3
100
AcDbEntity
  8
Defpoints
 62
     0
100
AcDbPoint
 10
37304.58466437846
 20
-230.2645284825703
 30
0.0
  0
POINT
  5
AB
330
A3
100
AcDbEntity
  8
Defpoints
 62
     0
100
AcDbPoint
 10
36004.58466437846
 20
-780.2645284825708
 30
0.0
  0
POINT
  5
AC
330
A3
100
AcDbEntity
  8
Defpoints
 62
     0
100
AcDbPoint
 10
36004.58466437846
 20
-117.2645284825703
 30
0.0
  0
ENDBLK
  5
AE
330
A3
100
AcDbEntity
  8
0
100
AcDbBlockEnd
  0
BLOCK
  5
BA
330
B0
100
AcDbEntity
  8
0
100
AcDbBlockBegin
  2
*D16
 70
     1
 10
0.0
 20
0.0
 30
0.0
  3
*D16
  1

  0
LINE
  5
B1
330
B0
100
AcDbEntity
  8
MTO-1200-410
  6
Continuous
 62
    18
 48
50.00000038146973
370
    -2
100
AcDbLine
 10
36654.58466437846
 20
-191.264528029575
 30
0.0
 11
36654.58466437846
 21
-151.2645289355656
 31
0.0
  0
LINE
  5
B2
330
B0
100
AcDbEntity
  8
MTO-1200-410
  6
Continuous
 62
    18
 48
50.00000038146973
370
    -2
100
AcDbLine
 10
37304.58466437845
 20
-191.264528029575
 30
0.0
 11
37304.58466437845
 21
-151.2645289355656
 31
0.0
  0
LINE
  5
B3
330
B0
100
AcDbEntity
  8
MTO-1200-410
  6
Continuous
 62
    18
 48
50.00000038146973
370
    -2
100
AcDbLine
 10
36663.58466473609
 20
-171.2645284825703
 30
0.0
 11
37295.58466402083
 21
-171.2645284825703
 31
0.0
  0
INSERT
  5
B4
330
B0
100
AcDbEntity
  8
MTO-1200-410
 62
    18
370
    -2
100
AcDbBlockReference
  2
_OPEN30
 10
36654.58466437846
 20
-171.2645284825703
 30
0.0
 41
9.000000357627869
 42
9.000000357627869
 43
9.000000357627869
 50
180.0
  0
INSERT
  5
B5
330
B0
100
AcDbEntity
  8
MTO-1200-410
 62
    18
370
    -2
100
AcDbBlockReference
  2
_OPEN30
 10
37304.58466437845
 20
-171.2645284825703
 30
0.0
 41
9.000000357627869
 42
9.000000357627869
 43
9.000000357627869
  0
MTEXT
  5
B6
330
B0
100
AcDbEntity
  8
MTO-1200-410
  6
Continuous
 62
    18
370
    25
100
AcDbMText
 10
36979.58466437846
 20
-139.2645243936917
 30
0.0
 40
24.0
 41
0.0
 71
     5
 72
     1
  1
650
  7
ROMAN
 73
     1
 44
1.0
  0
POINT
  5
B7
330
B0
100
AcDbEntity
  8
Defpoints
 62
     0
100
AcDbPoint
 10
36654.58466437846
 20
-530.2645284825713
 30
0.0
  0
POINT
  5
B8
330
B0
100
AcDbEntity
  8
Defpoints
 62
     0
100
AcDbPoint
 10
37304.58466437845
 20
-230.2645284825703
 30
0.0
  0
POINT
  5
B9
330
B0
100
AcDbEntity
  8
Defpoints
 62
     0
100
AcDbPoint
 10
37304.58466437845
 20
-171.2645284825703
 30
0.0
  0
ENDBLK
  5
BB
330
B0
100
AcDbEntity
  8
0
100
AcDbBlockEnd
  0
BLOCK
  5
C8
330
BE
100
AcDbEntity
  8
0
100
AcDbBlockBegin
  2
*D17
 70
     1
 10
0.0
 20
0.0
 30
0.0
  3
*D17
  1

  0
LINE
  5
BF
330
BE
100
AcDbEntity
  8
MTO-1200-410
  6
Continuous
 62
    18
 48
50.00000038146973
370
    -2
100
AcDbLine
 10
37599.58466437845
 20
-191.264528029575
 30
0.0
 11
37599.58466437845
 21
-151.2645289355656
 31
0.0
  0
LINE
  5
C0
330
BE
100
AcDbEntity
  8
MTO-1200-410
  6
Continuous
 62
    18
 48
50.00000038146973
370
    -2
100
AcDbLine
 10
37504.58466437845
 20
-191.264528029575
 30
0.0
 11
37504.58466437845
 21
-151.2645289355656
 31
0.0
  0
LINE
  5
C1
330
BE
100
AcDbEntity
  8
MTO-1200-410
  6
Continuous
 62
    18
 48
50.00000038146973
370
    -2
100
AcDbLine
 10
37599.58466437845
 20
-171.2645284825703
 30
0.0
 11
37504.58466437845
 21
-171.2645284825703
 31
0.0
  0
LINE
  5
C2
330
BE
100
AcDbEntity
  8
MTO-1200-410
  6
Continuous
 62
    18
 48
50.00000038146973
370
    -2
100
AcDbLine
 10
37614.5846649745
 20
-171.2645284825703
 30
0.0
 11
37629.58466557055
 21
-171.2645284825703
 31
0.0
  0
LINE
  5
C3
330
BE
100
AcDbEntity
  8
MTO-1200-410
  6
Continuous
 62
    18
 48
50.00000038146973
370
    -2
100
AcDbLine
 10
37489.58466378241
 20
-171.2645284825703
 30
0.0
 11
37474.58466318636
 21
-171.2645284825703
 31
0.0
  0
INSERT
  5
C4
330
BE
100
AcDbEntity
  8
MTO-1200-410
 62
    18
370
    -2
100
AcDbBlockReference
  2
_OPEN30
 10
37599.58466437845
 20
-171.2645284825703
 30
0.0
 41
15.00000059604645
 42
15.00000059604645
 43
15.00000059604645
 50
180.0
  0
INSERT
  5
C5
330
BE
100
AcDbEntity
  8
MTO-1200-410
 62
    18
370
    -2
100
AcDbBlockReference
  2
_OPEN30
 10
37504.58466437845
 20
-171.2645284825703
 30
0.0
 41
15.00000059604645
 42
15.00000059604645
 43
15.00000059604645
 50
360.0
  0
MTEXT
  5
C6
330
BE
100
AcDbEntity
  8
MTO-1200-410
  6
Continuous
 62
     0
370
    25
100
AcDbMText
 10
37552.08466437845
 20
-130.8445243936917
 30
0.0
 40
40.0
 41
0.0
 71
     5
 72
     1
  1
95
  7
ARIAL
 73
     1
 44
1.0
  0
POINT
  5
C7
330
BE
100
AcDbEntity
  8
Defpoints
 62
     0
100
AcDbPoint
 10
37599.58466437845
 20
-530.2645284825699
 30
0.0
  0
POINT
  5
CA
330
BE
100
AcDbEntity
  8
Defpoints
 62
     0
100
AcDbPoint
 10
37504.58466437845
 20
-530.2645284825699
 30
0.0
  0
POINT
  5
CB
330
BE
100
AcDbEntity
  8
Defpoints
 62
     0
100
AcDbPoint
 10
37504.58466437845
 20
-171.2645284825703
 30
0.0
  0
ENDBLK
  5
C9
330
BE
100
AcDbEntity
  8
0
100
AcDbBlockEnd
  0
BLOCK
  5
D7
330
CD
100
AcDbEntity
  8
0
100
AcDbBlockBegin
  2
*D18
 70
     1
 10
0.0
 20
0.0
 30
0.0
  3
*D18
  1

  0
LINE
  5
CE
330
CD
100
AcDbEntity
  8
MTO-1200-410
  6
Continuous
 62
    18
 48
50.00000038146973
370
    -2
100
AcDbLine
 10
37343.58466483145
 20
-326.2167213271609
 30
0.0
 11
37383.58466392546
 21
-326.2167213271609
 31
0.0
  0
LINE
  5
CF
330
CD
100
AcDbEntity
  8
MTO-1200-410
  6
Continuous
 62
    18
 48
50.00000038146973
370
    -2
100
AcDbLine
 10
37343.58466483145
 20
-735.2553239887171
 30
0.0
 11
37383.58466392546
 21
-735.2553239887171
 31
0.0
  0
LINE
  5
D0
330
CD
100
AcDbEntity
  8
MTO-1200-410
  6
Continuous
 62
    18
 48
50.00000038146973
370
    -2
100
AcDbLine
 10
37363.58466437845
 20
-341.2167219232073
 30
0.0
 11
37363.58466437845
 21
-720.2553233926707
 31
0.0
  0
INSERT
  5
D1
330
CD
100
AcDbEntity
  8
MTO-1200-410
 62
    18
370
    -2
100
AcDbBlockReference
  2
_OPEN30
 10
37363.58466437845
 20
-326.2167213271609
 30
0.0
 41
15.00000059604645
 42
15.00000059604645
 43
15.00000059604645
 50
90.0
  0
INSERT
  5
D2
330
CD
100
AcDbEntity
  8
MTO-1200-410
 62
    18
370
    -2
100
AcDbBlockReference
  2
_OPEN30
 10
37363.58466437845
 20
-735.2553239887171
 30
0.0
 41
15.00000059604645
 42
15.00000059604645
 43
15.00000059604645
 50
270.0
  0
MTEXT
  5
D3
330
CD
100
AcDbEntity
  8
MTO-1200-410
  6
Continuous
 62
     0
370
    25
100
AcDbMText
 10
37323.16466028958
 20
-530.736022657939
 30
0.0
 40
40.0
 41
0.0
 71
     5
 72
     1
  1
409.039
  7
ARIAL
 11
0.0
 21
1.0
 31
0.0
 73
     1
 44
1.0
  0
POINT
  5
D4
330
CD
100
AcDbEntity
  8
Defpoints
 62
     0
100
AcDbPoint
 10
36654.58798191736
 20
-326.2167213271609
 30
0.0
  0
POINT
  5
D5
330
CD
100
AcDbEntity
  8
Defpoints
 62
     0
100
AcDbPoint
 10
36654.58798191736
 20
-735.2553239887171
 30
0.0
  0
POINT
  5
D6
330
CD
100
AcDbEntity
  8
Defpoints
 62
     0
100
AcDbPoint
 10
37363.58466437845
 20
-735.2553239887171
 30
0.0
  0
ENDBLK
  5
D8
330
CD
100
AcDbEntity
  8
0
100
AcDbBlockEnd
  0
BLOCK
  5
E4
330
DA
100
AcDbEntity
  8
0
100
AcDbBlockBegin
  2
*D19
 70
     1
 10
0.0
 20
0.0
 30
0.0
  3
*D19
  1

  0
LINE
  5
DB
330
DA
100
AcDbEntity
  8
MTO-1200-410
  6
Continuous
 62
    18
 48
50.00000038146973
370
    -2
100
AcDbLine
 10
36059.59433623402
 20
-819.2645289355677
 30
0.0
 11
36059.59433623402
 21
-859.264528029577
 31
0.0
  0
LINE
  5
DC
330
DA
100
AcDbEntity
  8
MTO-1200-410
  6
Continuous
 62
    18
 48
50.00000038146973
370
    -2
100
AcDbLine
 10
37249.5816276007
 20
-819.2645289355677
 30
0.0
 11
37249.5816276007
 21
-859.264528029577
 31
0.0
  0
LINE
  5
DD
330
DA
100
AcDbEntity
  8
MTO-1200-410
  6
Continuous
 62
    18
 48
50.00000038146973
370
    -2
100
AcDbLine
 10
36074.59433683007
 20
-839.2645284825724
 30
0.0
 11
37234.58162700466
 21
-839.2645284825724
 31
0.0
  0
INSERT
  5
DE
330
DA
100
AcDbEntity
  8
MTO-1200-410
 62
    18
370
    -2
100
AcDbBlockReference
  2
_OPEN30
 10
36059.59433623402
 20
-839.2645284825724
 30
0.0
 41
15.00000059604645
 42
15.00000059604645
 43
15.00000059604645
 50
180.0
  0
INSERT
  5
DF
330
DA
100
AcDbEntity
  8
MTO-1200-410
 62
    18
370
    -2
100
AcDbBlockReference
  2
_OPEN30
 10
37249.5816276007
 20
-839.2645284825724
 30
0.0
 41
15.00000059604645
 42
15.00000059604645
 43
15.00000059604645
  0
MTEXT
  5
E0
330
DA
100
AcDbEntity
  8
MTO-1200-410
  6
Continuous
 62
     0
370
    25
100
AcDbMText
 10
36654.58798191736
 20
-798.8445243936937
 30
0.0
 40
40.0
 41
0.0
 71
     5
 72
     1
  1
1189.987
  7
ARIAL
 73
     1
 44
1.0
  0
POINT
  5
E1
330
DA
100
AcDbEntity
  8
Defpoints
 62
     0
100
AcDbPoint
 10
36059.59433623402
 20
-530.7360226579398
 30
0.0
  0
POINT
  5
E2
330
DA
100
AcDbEntity
  8
Defpoints
 62
     0
100
AcDbPoint
 10
37249.5816276007
 20
-530.7360226579398
 30
0.0
  0
POINT
  5
E3
330
DA
100
AcDbEntity
  8
Defpoints
 62
     0
100
AcDbPoint
 10
37249.5816276007
 20
-839.2645284825724
 30
0.0
  0
ENDBLK
  5
E5
330
DA
100
AcDbEntity
  8
0
100
AcDbBlockEnd
  0
BLOCK
  5
E7
330
E6
100
AcDbEntity
  8
0
100
AcDbBlockBegin
  2
Dimension10
 70
     0
 10
0.0
 20
0.0
 30
0.0
  3
Dimension10
  1

  0
ENDBLK
  5
E8
330
E6
100
AcDbEntity
  8
0
100
AcDbBlockEnd
  0
BLOCK
  5
EB
330
EA
100
AcDbEntity
  8
0
100
AcDbBlockBegin
  2
Dimension11
 70
     0
 10
0.0
 20
0.0
 30
0.0
  3
Dimension11
  1

  0
ENDBLK
  5
EC
330
EA
100
AcDbEntity
  8
0
100
AcDbBlockEnd
  0
BLOCK
  5
EF
330
EE
100
AcDbEntity
  8
0
100
AcDbBlockBegin
  2
Dimension12
 70
     0
 10
0.0
 20
0.0
 30
0.0
  3
Dimension12
  1

  0
ENDBLK
  5
F0
330
EE
100
AcDbEntity
  8
0
100
AcDbBlockEnd
  0
BLOCK
  5
276
330
275
100
AcDbEntity
  8
0
100
AcDbBlockBegin
  2
Dimension13
 70
     0
 10
0.0
 20
0.0
 30
0.0
  3
Dimension13
  1

  0
ENDBLK
  5
277
330
275
100
AcDbEntity
  8
0
100
AcDbBlockEnd
  0
BLOCK
  5
27A
330
279
100
AcDbEntity
  8
0
100
AcDbBlockBegin
  2
Dimension14
 70
     0
 10
0.0
 20
0.0
 30
0.0
  3
Dimension14
  1

  0
ENDBLK
  5
27B
330
279
100
AcDbEntity
  8
0
100
AcDbBlockEnd
  0
BLOCK
  5
27E
330
27D
100
AcDbEntity
  8
0
100
AcDbBlockBegin
  2
Dimension15
 70
     0
 10
0.0
 20
0.0
 30
0.0
  3
Dimension15
  1

  0
ENDBLK
  5
27F
330
27D
100
AcDbEntity
  8
0
100
AcDbBlockEnd
  0
BLOCK
  5
282
330
281
100
AcDbEntity
  8
0
100
AcDbBlockBegin
  2
Dimension16
 70
     0
 10
0.0
 20
0.0
 30
0.0
  3
Dimension16
  1

  0
ENDBLK
  5
283
330
281
100
AcDbEntity
  8
0
100
AcDbBlockEnd
  0
BLOCK
  5
286
330
285
100
AcDbEntity
  8
0
100
AcDbBlockBegin
  2
Dimension17
 70
     0
 10
0.0
 20
0.0
 30
0.0
  3
Dimension17
  1

  0
ENDBLK
  5
287
330
285
100
AcDbEntity
  8
0
100
AcDbBlockEnd
  0
BLOCK
  5
28A
330
289
100
AcDbEntity
  8
0
100
AcDbBlockBegin
  2
Dimension18
 70
     0
 10
0.0
 20
0.0
 30
0.0
  3
Dimension18
  1

  0
ENDBLK
  5
28B
330
289
100
AcDbEntity
  8
0
100
AcDbBlockEnd
  0
BLOCK
  5
28E
330
28D
100
AcDbEntity
  8
0
100
AcDbBlockBegin
  2
Dimension19
 70
     0
 10
0.0
 20
0.0
 30
0.0
  3
Dimension19
  1

  0
ENDBLK
  5
28F
330
28D
100
AcDbEntity
  8
0
100
AcDbBlockEnd
  0
BLOCK
  5
292
330
291
100
AcDbEntity
  8
0
100
AcDbBlockBegin
  2
Dimension20
 70
     0
 10
0.0
 20
0.0
 30
0.0
  3
Dimension20
  1

  0
ENDBLK
  5
293
330
291
100
AcDbEntity
  8
0
100
AcDbBlockEnd
  0
BLOCK
  5
296
330
295
100
AcDbEntity
  8
0
100
AcDbBlockBegin
  2
Dimension21
 70
     0
 10
0.0
 20
0.0
 30
0.0
  3
Dimension21
  1

  0
ENDBLK
  5
297
330
295
100
AcDbEntity
  8
0
100
AcDbBlockEnd
  0
BLOCK
  5
29A
330
299
100
AcDbEntity
  8
0
100
AcDbBlockBegin
  2
Dimension22
 70
     0
 10
0.0
 20
0.0
 30
0.0
  3
Dimension22
  1

  0
ENDBLK
  5
29B
330
299
100
AcDbEntity
  8
0
100
AcDbBlockEnd
  0
BLOCK
  5
29E
330
29D
100
AcDbEntity
  8
0
100
AcDbBlockBegin
  2
Dimension23
 70
     0
 10
0.0
 20
0.0
 30
0.0
  3
Dimension23
  1

  0
ENDBLK
  5
29F
330
29D
100
AcDbEntity
  8
0
100
AcDbBlockEnd
  0
BLOCK
  5
2A2
330
2A1
100
AcDbEntity
  8
0
100
AcDbBlockBegin
  2
Dimension24
 70
     0
 10
0.0
 20
0.0
 30
0.0
  3
Dimension24
  1

  0
ENDBLK
  5
2A3
330
2A1
100
AcDbEntity
  8
0
100
AcDbBlockEnd
  0
BLOCK
  5
2A6
330
2A5
100
AcDbEntity
  8
0
100
AcDbBlockBegin
  2
Dimension25
 70
     0
 10
0.0
 20
0.0
 30
0.0
  3
Dimension25
  1

  0
ENDBLK
  5
2A7
330
2A5
100
AcDbEntity
  8
0
100
AcDbBlockEnd
  0
BLOCK
  5
2AA
330
2A9
100
AcDbEntity
  8
0
100
AcDbBlockBegin
  2
Dimension26
 70
     0
 10
0.0
 20
0.0
 30
0.0
  3
Dimension26
  1

  0
ENDBLK
  5
2AB
330
2A9
100
AcDbEntity
  8
0
100
AcDbBlockEnd
  0
BLOCK
  5
2AE
330
2AD
100
AcDbEntity
  8
0
100
AcDbBlockBegin
  2
Dimension27
 70
     0
 10
0.0
 20
0.0
 30
0.0
  3
Dimension27
  1

  0
ENDBLK
  5
2AF
330
2AD
100
AcDbEntity
  8
0
100
AcDbBlockEnd
  0
BLOCK
  5
2B2
330
2B1
100
AcDbEntity
  8
0
100
AcDbBlockBegin
  2
Dimension28
 70
     0
 10
0.0
 20
0.0
 30
0.0
  3
Dimension28
  1

  0
ENDBLK
  5
2B3
330
2B1
100
AcDbEntity
  8
0
100
AcDbBlockEnd
  0
BLOCK
  5
2B6
330
2B5
100
AcDbEntity
  8
0
100
AcDbBlockBegin
  2
Dimension29
 70
     0
 10
0.0
 20
0.0
 30
0.0
  3
Dimension29
  1

  0
ENDBLK
  5
2B7
330
2B5
100
AcDbEntity
  8
0
100
AcDbBlockEnd
  0
BLOCK
  5
2BA
330
2B9
100
AcDbEntity
  8
0
100
AcDbBlockBegin
  2
Dimension30
 70
     0
 10
0.0
 20
0.0
 30
0.0
  3
Dimension30
  1

  0
ENDBLK
  5
2BB
330
2B9
100
AcDbEntity
  8
0
100
AcDbBlockEnd
  0
BLOCK
  5
2BE
330
2BD
100
AcDbEntity
  8
0
100
AcDbBlockBegin
  2
Dimension31
 70
     0
 10
0.0
 20
0.0
 30
0.0
  3
Dimension31
  1

  0
ENDBLK
  5
2BF
330
2BD
100
AcDbEntity
  8
0
100
AcDbBlockEnd
  0
BLOCK
  5
2C2
330
2C1
100
AcDbEntity
  8
0
100
AcDbBlockBegin
  2
Dimension32
 70
     0
 10
0.0
 20
0.0
 30
0.0
  3
Dimension32
  1

  0
ENDBLK
  5
2C3
330
2C1
100
AcDbEntity
  8
0
100
AcDbBlockEnd
  0
BLOCK
  5
2C6
330
2C5
100
AcDbEntity
  8
0
100
AcDbBlockBegin
  2
Dimension33
 70
     0
 10
0.0
 20
0.0
 30
0.0
  3
Dimension33
  1

  0
ENDBLK
  5
2C7
330
2C5
100
AcDbEntity
  8
0
100
AcDbBlockEnd
  0
ENDSEC
  0
SECTION
  2
ENTITIES
  0
INSERT
  5
45
330
1F
100
AcDbEntity
  8
MTO-1200-410
  6
Continuous
 62
    18
420
        0
 48
50.00000038146973
370
    25
100
AcDbBlockReference
  2
Dimension1
 10
0.0
 20
0.0
 30
0.0
  0
INSERT
  5
49
330
1F
100
AcDbEntity
  8
MTO-1200-410
  6
Continuous
 62
    18
420
        0
 48
50.00000038146973
370
    25
100
AcDbBlockReference
  2
Dimension2
 10
0.0
 20
0.0
 30
0.0
  0
INSERT
  5
4D
330
1F
100
AcDbEntity
  8
MTO-1200-410
  6
Continuous
 62
    18
420
        0
 48
50.00000038146973
370
    25
100
AcDbBlockReference
  2
Dimension3
 10
0.0
 20
0.0
 30
0.0
  0
INSERT
  5
51
330
1F
100
AcDbEntity
  8
MTO-1200-410
  6
Continuous
 62
    18
420
        0
 48
50.00000038146973
370
    25
100
AcDbBlockReference
  2
Dimension4
 10
0.0
 20
0.0
 30
0.0
  0
INSERT
  5
55
330
1F
100
AcDbEntity
  8
MTO-1200-410
  6
Continuous
 62
    18
420
        0
 48
50.00000038146973
370
    25
100
AcDbBlockReference
  2
Dimension5
 10
0.0
 20
0.0
 30
0.0
  0
INSERT
  5
59
330
1F
100
AcDbEntity
  8
MTO-1200-410
  6
Continuous
 62
    18
420
        0
 48
50.00000038146973
370
    25
100
AcDbBlockReference
  2
Dimension6
 10
0.0
 20
0.0
 30
0.0
  0
INSERT
  5
5D
330
1F
100
AcDbEntity
  8
MTO-1200-410
  6
Continuous
 62
    18
420
        0
 48
50.00000038146973
370
    25
100
AcDbBlockReference
  2
Dimension7
 10
0.0
 20
0.0
 30
0.0
  0
INSERT
  5
61
330
1F
100
AcDbEntity
  8
MTO-1200-410
  6
Continuous
 62
    18
420
        0
 48
50.00000038146973
370
    25
100
AcDbBlockReference
  2
Dimension8
 10
0.0
 20
0.0
 30
0.0
  0
INSERT
  5
65
330
1F
100
AcDbEntity
  8
MTO-1200-410
  6
Continuous
 62
    18
420
        0
 48
50.00000038146973
370
    25
100
AcDbBlockReference
  2
Dimension9
 10
0.0
 20
0.0
 30
0.0
  0
DIMENSION
  5
67
330
1F
100
AcDbEntity
  8
MTO-1200-410
  6
Continuous
 62
    18
420
        0
 48
50.00000038146973
370
    25
100
AcDbDimension
  2
*D10
 10
35945.58466437846
 20
-530.2645284825712
 30
0.0
 11
35913.58466028958
 21
-655.264528482571
 31
0.0
 70
    32
 71
     5
 42
249.9999999999995
  3
ISO-25
100
AcDbAlignedDimension
 13
36004.58466437845
 23
-780.2645284825708
 33
0.0
 14
36654.58476127177
 24
-530.2645284825713
 34
0.0
 50
90.0
100
AcDbRotatedDimension
1001
ACAD
1000
DSTYLE
1002
{
1070
    69
1070
     0
1070
   271
1070
     3
1070
   177
1070
    18
1070
   176
1070
    18
1070
   140
1040
24.0
1070
    76
1070
     0
1070
    75
1070
     0
1070
   282
1070
     0
1070
   281
1070
     0
1070
   174
1070
     1
1070
    42
1040
0.0
1070
    49
1040
19.9999995470047
1070
   290
1070
     1
1070
    44
1040
19.9999995470047
1070
    46
1040
0.0
1070
    41
1040
9.000000357627869
1070
   173
1070
     1
1070
   342
1005
0
1070
   344
1005
75
1070
   343
1005
75
1070
   147
1040
20.00000408887863
1070
   178
1070
    18
1070
   340
1005
66
1070
   278
1070
    46
1002
}
1001
ACAD_DSTYLE_DIMEXT_ENABLED
1070
   383
1070
     1
1001
ACAD_DSTYLE_DIMEXT_LENGTH
1070
   378
1040
19.9999995470047
  0
DIMENSION
  5
7B
330
1F
100
AcDbEntity
  8
MTO-1200-410
  6
Continuous
 62
    18
420
        0
 48
50.00000038146973
370
    25
100
AcDbDimension
  2
*D12
 10
35945.58466437846
 20
-230.2645284825702
 30
0.0
 11
35913.58466028958
 21
-380.2645284825708
 31
0.0
 70
    32
 71
     5
 42
300.0000000000007
  3
ISO-25
100
AcDbAlignedDimension
 13
36654.58476127177
 23
-530.2645284825713
 33
0.0
 14
36004.58466437845
 24
-230.2645284825703
 34
0.0
 50
90.0
100
AcDbRotatedDimension
1001
ACAD
1000
DSTYLE
1002
{
1070
    69
1070
     0
1070
   271
1070
     3
1070
   177
1070
    18
1070
   176
1070
    18
1070
   140
1040
24.0
1070
    76
1070
     0
1070
    75
1070
     0
1070
   282
1070
     0
1070
   281
1070
     0
1070
   174
1070
     1
1070
    42
1040
0.0
1070
    49
1040
19.9999995470047
1070
   290
1070
     1
1070
    44
1040
19.9999995470047
1070
    46
1040
0.0
1070
    41
1040
9.000000357627869
1070
   173
1070
     1
1070
   342
1005
0
1070
   344
1005
75
1070
   343
1005
75
1070
   147
1040
20.00000408887863
1070
   178
1070
    18
1070
   340
1005
66
1070
   278
1070
    46
1002
}
1001
ACAD_DSTYLE_DIMEXT_ENABLED
1070
   383
1070
     1
1001
ACAD_DSTYLE_DIMEXT_LENGTH
1070
   378
1040
19.9999995470047
  0
DIMENSION
  5
88
330
1F
100
AcDbEntity
  8
MTO-1200-410
  6
Continuous
 62
    18
420
        0
 48
50.00000038146973
370
    25
100
AcDbDimension
  2
*D13
 10
35891.58466437846
 20
-780.2645284825707
 30
0.0
 11
35859.58466028958
 21
-505.2645284825704
 31
0.0
 70
    32
 71
     5
 42
550.0000000000003
  3
ISO-25
100
AcDbAlignedDimension
 13
36004.58466437846
 23
-230.2645284825703
 33
0.0
 14
37304.58466437846
 24
-780.2645284825708
 34
0.0
 50
90.0
100
AcDbRotatedDimension
1001
ACAD
1000
DSTYLE
1002
{
1070
    69
1070
     0
1070
   271
1070
     3
1070
   177
1070
    18
1070
   176
1070
    18
1070
   140
1040
24.0
1070
    76
1070
     0
1070
    75
1070
     0
1070
   282
1070
     0
1070
   281
1070
     0
1070
   174
1070
     1
1070
    42
1040
0.0
1070
    49
1040
19.9999995470047
1070
   290
1070
     1
1070
    44
1040
19.9999995470047
1070
    46
1040
0.0
1070
    41
1040
9.000000357627869
1070
   173
1070
     1
1070
   342
1005
0
1070
   344
1005
75
1070
   343
1005
75
1070
   147
1040
20.00000408887863
1070
   178
1070
    18
1070
   340
1005
66
1070
   278
1070
    46
1002
}
1001
ACAD_DSTYLE_DIMEXT_ENABLED
1070
   383
1070
     1
1001
ACAD_DSTYLE_DIMEXT_LENGTH
1070
   378
1040
19.9999995470047
  0
DIMENSION
  5
95
330
1F
100
AcDbEntity
  8
MTO-1200-410
  6
Continuous
 62
    18
420
        0
 48
50.00000038146973
370
    25
100
AcDbDimension
  2
*D14
 10
36654.58466437846
 20
-171.2645284825703
 30
0.0
 11
36329.58466437846
 21
-139.2645243936917
 31
0.0
 70
    32
 71
     5
 42
650.0000000000073
  3
ISO-25
100
AcDbAlignedDimension
 13
36004.58466437845
 23
-230.2645284825703
 33
0.0
 14
36654.58466437846
 24
-530.2645284825713
 34
0.0
100
AcDbRotatedDimension
1001
ACAD
1000
DSTYLE
1002
{
1070
    69
1070
     0
1070
   271
1070
     3
1070
   177
1070
    18
1070
   176
1070
    18
1070
   140
1040
24.0
1070
    76
1070
     0
1070
    75
1070
     0
1070
   282
1070
     0
1070
   281
1070
     0
1070
   174
1070
     1
1070
    42
1040
0.0
1070
    49
1040
19.9999995470047
1070
   290
1070
     1
1070
    44
1040
19.9999995470047
1070
    46
1040
0.0
1070
    41
1040
9.000000357627869
1070
   173
1070
     1
1070
   342
1005
0
1070
   344
1005
75
1070
   343
1005
75
1070
   147
1040
20.00000408887863
1070
   178
1070
    18
1070
   340
1005
66
1070
   278
1070
    46
1002
}
1001
ACAD_DSTYLE_DIMEXT_ENABLED
1070
   383
1070
     1
1001
ACAD_DSTYLE_DIMEXT_LENGTH
1070
   378
1040
19.9999995470047
  0
DIMENSION
  5
A2
330
1F
100
AcDbEntity
  8
MTO-1200-410
  6
Continuous
 62
    18
420
        0
 48
50.00000038146973
370
    25
100
AcDbDimension
  2
*D15
 10
36004.58466437846
 20
-117.2645284825703
 30
0.0
 11
36654.58466437846
 21
-85.26452439369163
 31
0.0
 70
    32
 71
     5
 42
1300.0
  3
ISO-25
100
AcDbAlignedDimension
 13
37304.58466437846
 23
-230.2645284825703
 33
0.0
 14
36004.58466437846
 24
-780.2645284825708
 34
0.0
100
AcDbRotatedDimension
1001
ACAD
1000
DSTYLE
1002
{
1070
    69
1070
     0
1070
   271
1070
     3
1070
   177
1070
    18
1070
   176
1070
    18
1070
   140
1040
24.0
1070
    76
1070
     0
1070
    75
1070
     0
1070
   282
1070
     0
1070
   281
1070
     0
1070
   174
1070
     1
1070
    42
1040
0.0
1070
    49
1040
19.9999995470047
1070
   290
1070
     1
1070
    44
1040
19.9999995470047
1070
    46
1040
0.0
1070
    41
1040
9.000000357627869
1070
   173
1070
     1
1070
   342
1005
0
1070
   344
1005
75
1070
   343
1005
75
1070
   147
1040
20.00000408887863
1070
   178
1070
    18
1070
   340
1005
66
1070
   278
1070
    46
1002
}
1001
ACAD_DSTYLE_DIMEXT_ENABLED
1070
   383
1070
     1
1001
ACAD_DSTYLE_DIMEXT_LENGTH
1070
   378
1040
19.9999995470047
  0
DIMENSION
  5
AF
330
1F
100
AcDbEntity
  8
MTO-1200-410
  6
Continuous
 62
    18
420
        0
 48
50.00000038146973
370
    25
100
AcDbDimension
  2
*D16
 10
37304.58466437845
 20
-171.2645284825703
 30
0.0
 11
36979.58466437846
 21
-139.2645243936917
 31
0.0
 70
    32
 71
     5
 42
649.9999999999927
  3
ISO-25
100
AcDbAlignedDimension
 13
36654.58466437846
 23
-530.2645284825713
 33
0.0
 14
37304.58466437845
 24
-230.2645284825703
 34
0.0
100
AcDbRotatedDimension
1001
ACAD
1000
DSTYLE
1002
{
1070
    69
1070
     0
1070
   271
1070
     3
1070
   177
1070
    18
1070
   176
1070
    18
1070
   140
1040
24.0
1070
    76
1070
     0
1070
    75
1070
     0
1070
   282
1070
     0
1070
   281
1070
     0
1070
   174
1070
     1
1070
    42
1040
0.0
1070
    49
1040
19.9999995470047
1070
   290
1070
     1
1070
    44
1040
19.9999995470047
1070
    46
1040
0.0
1070
    41
1040
9.000000357627869
1070
   173
1070
     1
1070
   342
1005
0
1070
   344
1005
75
1070
   343
1005
75
1070
   147
1040
20.00000408887863
1070
   178
1070
    18
1070
   340
1005
66
1070
   278
1070
    46
1002
}
1001
ACAD_DSTYLE_DIMEXT_ENABLED
1070
   383
1070
     1
1001
ACAD_DSTYLE_DIMEXT_LENGTH
1070
   378
1040
19.9999995470047
  0
DIMENSION
  5
BD
330
1F
100
AcDbEntity
  8
MTO-1200-410
  6
Continuous
 62
    18
420
        0
 48
50.00000038146973
370
    25
100
AcDbDimension
  2
*D17
 10
37504.58466437845
 20
-171.2645284825703
 30
0.0
 11
37552.08466437845
 21
-130.8445243936917
 31
0.0
 70
    32
 71
     5
 42
95.0
  3
ISO-25
100
AcDbAlignedDimension
 13
37599.58466437845
 23
-530.2645284825699
 33
0.0
 14
37504.58466437845
 24
-530.2645284825699
 34
0.0
 50
180.0
100
AcDbRotatedDimension
1001
ACAD
1000
DSTYLE
1002
{
1070
   271
1070
     3
1070
   177
1070
    18
1070
   176
1070
    18
1070
   140
1040
40.0
1070
    76
1070
     0
1070
    75
1070
     0
1070
   282
1070
     0
1070
   281
1070
     0
1070
   174
1070
     1
1070
    42
1040
0.0
1070
    49
1040
19.9999995470047
1070
   290
1070
     1
1070
    44
1040
19.9999995470047
1070
    46
1040
0.0
1070
    41
1040
15.00000059604645
1070
   173
1070
     1
1070
   342
1005
0
1070
   344
1005
75
1070
   343
1005
75
1070
   147
1040
20.00000408887863
1070
    70
1070
    18
1070
    69
1070
     0
1070
   340
1005
BC
1070
   278
1070
    46
1002
}
1001
ACAD_DSTYLE_DIMEXT_ENABLED
1070
   383
1070
     1
1001
ACAD_DSTYLE_DIMEXT_LENGTH
1070
   378
1040
19.9999995470047
  0
DIMENSION
  5
CC
330
1F
100
AcDbEntity
  8
MTO-1200-410
  6
Continuous
 62
    18
420
        0
 48
50.00000038146973
370
    25
100
AcDbDimension
  2
*D18
 10
37363.58466437845
 20
-735.2553239887171
 30
0.0
 11
37323.16466028958
 21
-530.736022657939
 31
0.0
 70
    32
 71
     5
 42
409.0386026615562
  3
ISO-25
100
AcDbAlignedDimension
 13
36654.58798191736
 23
-326.2167213271609
 33
0.0
 14
36654.58798191736
 24
-735.2553239887171
 34
0.0
 50
-90.0
100
AcDbRotatedDimension
1001
ACAD
1000
DSTYLE
1002
{
1070
   271
1070
     3
1070
   177
1070
    18
1070
   176
1070
    18
1070
   140
1040
40.0
1070
    76
1070
     0
1070
    75
1070
     0
1070
   282
1070
     0
1070
   281
1070
     0
1070
   174
1070
     1
1070
    42
1040
0.0
1070
    49
1040
19.9999995470047
1070
   290
1070
     1
1070
    44
1040
19.9999995470047
1070
    46
1040
0.0
1070
    41
1040
15.00000059604645
1070
   173
1070
     1
1070
   342
1005
0
1070
   344
1005
75
1070
   343
1005
75
1070
   147
1040
20.00000408887863
1070
    70
1070
    18
1070
    69
1070
     0
1070
   340
1005
BC
1070
   278
1070
    46
1002
}
1001
ACAD_DSTYLE_DIMEXT_ENABLED
1070
   383
1070
     1
1001
ACAD_DSTYLE_DIMEXT_LENGTH
1070
   378
1040
19.9999995470047
  0
DIMENSION
  5
D9
330
1F
100
AcDbEntity
  8
MTO-1200-410
  6
Continuous
 62
    18
420
        0
 48
50.00000038146973
370
    25
100
AcDbDimension
  2
*D19
 10
37249.5816276007
 20
-839.2645284825724
 30
0.0
 11
36654.58798191736
 21
-798.8445243936937
 31
0.0
 70
    32
 71
     5
 42
1189.987291366684
  3
ISO-25
100
AcDbAlignedDimension
 13
36059.59433623402
 23
-530.7360226579398
 33
0.0
 14
37249.5816276007
 24
-530.7360226579398
 34
0.0
100
AcDbRotatedDimension
1001
ACAD
1000
DSTYLE
1002
{
1070
   271
1070
     3
1070
   177
1070
    18
1070
   176
1070
    18
1070
   140
1040
40.0
1070
    76
1070
     0
1070
    75
1070
     0
1070
   282
1070
     0
1070
   281
1070
     0
1070
   174
1070
     1
1070
    42
1040
0.0
1070
    49
1040
19.9999995470047
1070
   290
1070
     1
1070
    44
1040
19.9999995470047
1070
    46
1040
0.0
1070
    41
1040
15.00000059604645
1070
   173
1070
     1
1070
   342
1005
0
1070
   344
1005
75
1070
   343
1005
75
1070
   147
1040
20.00000408887863
1070
    70
1070
    18
1070
    69
1070
     0
1070
   340
1005
BC
1070
   278
1070
    46
1002
}
1001
ACAD_DSTYLE_DIMEXT_ENABLED
1070
   383
1070
     1
1001
ACAD_DSTYLE_DIMEXT_LENGTH
1070
   378
1040
19.9999995470047
  0
INSERT
  5
E9
330
1F
100
AcDbEntity
  8
MTO-1200-410
  6
Continuous
 62
    18
420
        0
 48
50.00000038146973
370
    25
100
AcDbBlockReference
  2
Dimension10
 10
0.0
 20
0.0
 30
0.0
  0
INSERT
  5
ED
330
1F
100
AcDbEntity
  8
MTO-1200-410
  6
Continuous
 62
    18
420
        0
 48
50.00000038146973
370
    25
100
AcDbBlockReference
  2
Dimension11
 10
0.0
 20
0.0
 30
0.0
  0
INSERT
  5
F1
330
1F
100
AcDbEntity
  8
MTO-1200-410
  6
Continuous
 62
    18
420
        0
 48
50.00000038146973
370
    25
100
AcDbBlockReference
  2
Dimension12
 10
0.0
 20
0.0
 30
0.0
  0
LINE
  5
F2
330
1F
100
AcDbEntity
  8
MTO-1200-410
  6
Continuous
 62
    18
420
        0
 48
50.00000038146973
370
    25
100
AcDbLine
 10
37304.58466437845
 20
-230.2645284825703
 30
-2.5
 11
37304.58466437845
 21
-780.2645284825708
 31
-2.5
  0
LINE
  5
F3
330
1F
100
AcDbEntity
  8
MTO-1200-410
  6
Continuous
 62
    18
420
        0
 48
50.00000038146973
370
    25
100
AcDbLine
 10
36627.08479255229
 20
-530.2645284825713
 30
0.0
 11
36682.08472999125
 21
-530.2645284825713
 31
0.0
  0
LINE
  5
F4
330
1F
100
AcDbEntity
  8
MTO-1200-410
  6
Continuous
 62
    18
420
        0
 48
50.00000038146973
370
    25
100
AcDbLine
 10
36654.58466437846
 20
-557.764545648709
 30
0.0
 11
36654.58466437846
 21
-502.7645113164336
 31
0.0
  0
LINE
  5
F6
330
1F
100
AcDbEntity
  8
MTO-1200-410
  6
DASHED1
 62
    18
420
        0
 48
15.00000041723251
370
    25
100
AcDbLine
 10
36619.58466437845
 20
-1086.26452848257
 30
-2.5
 11
36689.58466437845
 21
-1086.26452848257
 31
-2.5
  0
LINE
  5
F7
330
1F
100
AcDbEntity
  8
MTO-1200-410
  6
Continuous
 62
    18
420
        0
 48
31.49606382846832
370
    25
100
AcDbLine
 10
36004.58466437845
 20
-992.2645284825695
 30
-2.5
 11
36004.58466437845
 21
-980.2645284825709
 31
-2.5
  0
LINE
  5
F8
330
1F
100
AcDbEntity
  8
MTO-1200-410
  6
Continuous
 62
    18
420
        0
 48
31.49606382846832
370
    25
100
AcDbLine
 10
37304.58466437845
 20
-992.2645284825695
 30
-2.5
 11
37304.58466437845
 21
-980.2645284825709
 31
-2.5
  0
LINE
  5
F9
330
1F
100
AcDbEntity
  8
MTO-1200-410
  6
Continuous
 62
    18
420
        0
 48
31.49606382846832
370
    25
100
AcDbLine
 10
36059.64433623402
 20
-992.2645284825695
 30
-2.5
 11
36004.58466437845
 21
-992.2645284825695
 31
-2.5
  0
LINE
  5
FA
330
1F
100
AcDbEntity
  8
MTO-1200-410
  6
Continuous
 62
    18
420
        0
 48
31.49606382846832
370
    25
100
AcDbLine
 10
36713.58466437845
 20
-1109.26452848257
 30
-2.5
 11
36595.58466437846
 21
-1109.26452848257
 31
-2.5
  0
LINE
  5
FB
330
1F
100
AcDbEntity
  8
MTO-1200-410
  6
DASHED1
 62
    18
420
        0
 48
15.00000041723251
370
    25
100
AcDbLine
 10
36615.58466437845
 20
-1099.264528482571
 30
-2.5
 11
36693.58466437846
 21
-1099.264528482571
 31
-2.5
  0
LINE
  5
FC
330
1F
100
AcDbEntity
  8
MTO-1200-410
  6
DASHED1
 62
    18
420
        0
 48
15.00000041723251
370
    25
100
AcDbLine
 10
36632.08466437845
 20
-1107.264528482571
 30
-2.5
 11
36677.08466437845
 21
-1107.264528482571
 31
-2.5
  0
LINE
  5
FD
330
1F
100
AcDbEntity
  8
MTO-1200-410
  6
DASHED1
 62
    18
420
        0
 48
15.00000041723251
370
    25
100
AcDbLine
 10
36619.58466437845
 20
-1079.947151273218
 30
-2.5
 11
36619.58466437845
 21
-1086.26452848257
 31
-2.5
  0
LINE
  5
FE
330
1F
100
AcDbEntity
  8
MTO-1200-410
  6
DASHED1
 62
    18
420
        0
 48
15.00000041723251
370
    25
100
AcDbLine
 10
36689.58466437845
 20
-1086.26452848257
 30
-2.5
 11
36689.58466437845
 21
-1079.947151273218
 31
-2.5
  0
LINE
  5
FF
330
1F
100
AcDbEntity
  8
MTO-1200-410
  6
DASHED1
 62
    18
420
        0
 48
15.00000041723251
370
    25
100
AcDbLine
 10
36629.58466437846
 20
-1086.26452848257
 30
-2.5
 11
36629.58466437846
 21
-1099.264528482571
 31
-2.5
  0
LINE
  5
100
330
1F
100
AcDbEntity
  8
MTO-1200-410
  6
DASHED1
 62
    18
420
        0
 48
15.00000041723251
370
    25
100
AcDbLine
 10
36679.58466437846
 20
-1099.264528482571
 30
-2.5
 11
36679.58466437846
 21
-1086.26452848257
 31
-2.5
  0
LINE
  5
101
330
1F
100
AcDbEntity
  8
MTO-1200-410
  6
Continuous
 62
    18
420
        0
 48
31.49606382846832
370
    25
100
AcDbLine
 10
36595.58466437846
 20
-1091.299139111042
 30
-2.5
 11
36595.58466437846
 21
-1109.26452848257
 31
-2.5
  0
LINE
  5
102
330
1F
100
AcDbEntity
  8
MTO-1200-410
  6
Continuous
 62
    18
420
        0
 48
31.49606382846832
370
    25
100
AcDbLine
 10
36713.58466437845
 20
-1109.26452848257
 30
-2.5
 11
36713.58466437845
 21
-1091.299463304276
 31
-2.5
  0
LINE
  5
103
330
1F
100
AcDbEntity
  8
MTO-1200-410
  6
DASHED1
 62
    18
420
        0
 48
15.00000041723251
370
    25
100
AcDbLine
 10
36615.58466437845
 20
-1081.801178381055
 30
-2.5
 11
36615.58466437845
 21
-1099.264528482571
 31
-2.5
  0
LINE
  5
104
330
1F
100
AcDbEntity
  8
MTO-1200-410
  6
DASHED1
 62
    18
420
        0
 48
15.00000041723251
370
    25
100
AcDbLine
 10
36693.58466437846
 20
-1099.264528482571
 30
-2.5
 11
36693.58466437846
 21
-1081.801787085076
 31
-2.5
  0
LINE
  5
105
330
1F
100
AcDbEntity
  8
MTO-1200-410
  6
DASHED1
 62
    18
420
        0
 48
15.00000041723251
370
    25
100
AcDbLine
 10
36624.08466437845
 20
-1099.264528482571
 30
-2.5
 11
36632.08466437845
 21
-1107.264528482571
 31
-2.5
  0
LINE
  5
106
330
1F
100
AcDbEntity
  8
MTO-1200-410
  6
DASHED1
 62
    18
420
        0
 48
15.00000041723251
370
    25
100
AcDbLine
 10
36677.08466437845
 20
-1107.264528482571
 30
-2.5
 11
36685.08466437845
 21
-1099.264528482571
 31
-2.5
  0
LINE
  5
107
330
1F
100
AcDbEntity
  8
MTO-1200-410
  6
DASHED1
 62
    18
420
        0
 48
15.00000041723251
370
    25
100
AcDbLine
 10
36677.08466437845
 20
-1109.26452848257
 30
-2.5
 11
36677.08466437845
 21
-1107.264528482571
 31
-2.5
  0
LINE
  5
108
330
1F
100
AcDbEntity
  8
MTO-1200-410
  6
DASHED1
 62
    18
420
        0
 48
15.00000041723251
370
    25
100
AcDbLine
 10
36632.08466437845
 20
-1107.264528482571
 30
-2.5
 11
36632.08466437845
 21
-1109.26452848257
 31
-2.5
  0
LINE
  5
109
330
1F
100
AcDbEntity
  8
MTO-1200-410
  6
Continuous
 62
    18
420
        0
 48
25.00000019073486
370
    25
100
AcDbLine
 10
37304.58466437845
 20
-992.2645284825695
 30
0.0
 11
37249.53162760071
 21
-992.264528482571
 31
0.0
  0
LINE
  5
10A
330
1F
100
AcDbEntity
  8
MTO-1200-410
  6
Continuous
 62
    18
420
        0
 48
25.00000019073486
370
    25
100
AcDbLine
 10
36059.64433623402
 20
-992.2645284825695
 30
0.0
 11
37249.53162760071
 21
-992.264528482571
 31
0.0
  0
LINE
  5
10B
330
1F
100
AcDbEntity
  8
MTO-1200-410
  6
DASHED1
 62
    18
420
        0
 48
15.00000041723251
370
    25
100
AcDbLine
 10
37610.58466437845
 20
-505.2645284825698
 30
0.0
 11
37623.58466437845
 21
-505.2645284825698
 31
0.0
  0
LINE
  5
10C
330
1F
100
AcDbEntity
  8
MTO-1200-410
  6
DASHED1
 62
    18
420
        0
 48
15.00000041723251
370
    25
100
AcDbLine
 10
37623.58466437845
 20
-555.2645284825714
 30
0.0
 11
37610.58466437845
 21
-555.2645284825714
 31
0.0
  0
LINE
  5
10D
330
1F
100
AcDbEntity
  8
MTO-1200-410
  6
DASHED1
 62
    18
420
        0
 48
15.00000041723251
370
    25
100
AcDbLine
 10
37604.2672871691
 20
-495.2645284825707
 30
0.0
 11
37610.58466437845
 21
-495.2645284825707
 31
0.0
  0
LINE
  5
10E
330
1F
100
AcDbEntity
  8
MTO-1200-410
  6
DASHED1
 62
    18
420
        0
 48
15.00000041723251
370
    25
100
AcDbLine
 10
37610.58466437845
 20
-565.2645284825707
 30
0.0
 11
37604.2672871691
 21
-565.2645284825707
 31
0.0
  0
LINE
  5
10F
330
1F
100
AcDbEntity
  8
MTO-1200-410
  6
DASHED1
 62
    18
420
        0
 48
15.00000041723251
370
    25
100
AcDbLine
 10
37610.58466437845
 20
-555.2645284825714
 30
0.0
 11
37610.58466437845
 21
-565.2645284825707
 31
0.0
  0
LINE
  5
110
330
1F
100
AcDbEntity
  8
MTO-1200-410
  6
DASHED1
 62
    18
420
        0
 48
15.00000041723251
370
    25
100
AcDbLine
 10
37610.58466437845
 20
-495.2645284825707
 30
0.0
 11
37610.58466437845
 21
-505.2645284825698
 31
0.0
  0
LINE
  5
111
330
1F
100
AcDbEntity
  8
MTO-1200-410
  6
DASHED1
 62
    18
420
        0
 48
15.00000041723251
370
    25
100
AcDbLine
 10
37623.58466437845
 20
-491.2645284825701
 30
0.0
 11
37623.58466437845
 21
-569.2645284825711
 31
0.0
  0
LINE
  5
112
330
1F
100
AcDbEntity
  8
MTO-1200-410
  6
DASHED1
 62
    18
420
        0
 48
15.00000041723251
370
    25
100
AcDbLine
 10
37623.58466437845
 20
-491.2645284825701
 30
0.0
 11
37602.5904336184
 21
-491.2645284825701
 31
0.0
  0
LINE
  5
113
330
1F
100
AcDbEntity
  8
MTO-1200-410
  6
DASHED1
 62
    18
420
        0
 48
15.00000041723251
370
    25
100
AcDbLine
 10
37602.59043367737
 20
-569.2645284825711
 30
0.0
 11
37623.58466437845
 21
-569.2645284825711
 31
0.0
  0
LINE
  5
114
330
1F
100
AcDbEntity
  8
MTO-1200-410
  6
Continuous
 62
    18
420
        0
 48
31.49606382846832
370
    25
100
AcDbLine
 10
37516.58466437845
 20
-230.2645284825688
 30
0.0
 11
37504.58466437845
 21
-230.2645284825688
 31
0.0
  0
LINE
  5
115
330
1F
100
AcDbEntity
  8
MTO-1200-410
  6
DASHED1
 62
    18
420
        0
 48
15.00000041723251
370
    25
100
AcDbLine
 10
37623.58466437845
 20
-499.7645284825711
 30
0.0
 11
37631.58466437845
 21
-507.7645284825678
 31
0.0
  0
LINE
  5
116
330
1F
100
AcDbEntity
  8
MTO-1200-410
  6
DASHED1
 62
    18
420
        0
 48
15.00000041723251
370
    25
100
AcDbLine
 10
37631.58466437845
 20
-507.7645284825678
 30
0.0
 11
37633.58466437845
 21
-507.7645284825678
 31
0.0
  0
LINE
  5
117
330
1F
100
AcDbEntity
  8
MTO-1200-410
  6
Continuous
 62
    18
420
        0
 48
31.49606382846832
370
    25
100
AcDbLine
 10
37633.58466437845
 20
-589.2645284825709
 30
0.0
 11
37633.58466437845
 21
-471.2645284825703
 31
0.0
  0
LINE
  5
118
330
1F
100
AcDbEntity
  8
MTO-1200-410
  6
Continuous
 62
    18
420
        0
 48
31.49606382846832
370
    25
100
AcDbLine
 10
37608.60976995332
 20
-471.2645284825703
 30
0.0
 11
37633.58466437845
 21
-471.2645284825703
 31
0.0
  0
LINE
  5
119
330
1F
100
AcDbEntity
  8
MTO-1200-410
  6
Continuous
 62
    18
420
        0
 48
31.49606382846832
370
    25
100
AcDbLine
 10
37516.58466437845
 20
-325.273732745092
 30
0.0
 11
37516.58466437845
 21
-230.2645284825688
 31
0.0
  0
LINE
  5
11A
330
1F
100
AcDbEntity
  8
MTO-1200-410
  6
Continuous
 62
    18
420
        0
 48
31.49606382846832
370
    25
100
AcDbLine
 10
37504.58466437845
 20
-780.2645284825708
 30
0.0
 11
37516.58466437845
 21
-780.2645284825708
 31
0.0
  0
LINE
  5
11B
330
1F
100
AcDbEntity
  8
MTO-1200-410
  6
Continuous
 62
    18
420
        0
 48
31.49606382846832
370
    25
100
AcDbLine
 10
37516.58466437845
 20
-780.2645284825708
 30
0.0
 11
37516.58466437845
 21
-735.2553239831656
 31
0.0
  0
LINE
  5
11C
330
1F
100
AcDbEntity
  8
MTO-1200-410
  6
Continuous
 62
    18
420
        0
 48
31.49606382846832
370
    25
100
AcDbLine
 10
37633.58466437845
 20
-589.2645284825709
 30
0.0
 11
37608.60967290749
 21
-589.2645284825709
 31
0.0
  0
LINE
  5
11D
330
1F
100
AcDbEntity
  8
MTO-1200-410
  6
DASHED1
 62
    18
420
        0
 48
15.00000041723251
370
    25
100
AcDbLine
 10
37633.58466437845
 20
-552.7645284825705
 30
0.0
 11
37631.58466437845
 21
-552.7645284825705
 31
0.0
  0
LINE
  5
11E
330
1F
100
AcDbEntity
  8
MTO-1200-410
  6
DASHED1
 62
    18
420
        0
 48
15.00000041723251
370
    25
100
AcDbLine
 10
37631.58466437845
 20
-552.7645284825705
 30
0.0
 11
37623.58466437845
 21
-560.7645284825702
 31
0.0
  0
LINE
  5
11F
330
1F
100
AcDbEntity
  8
MTO-1200-410
  6
DASHED1
 62
    18
420
        0
 48
15.00000041723251
370
    25
100
AcDbLine
 10
37631.58466437845
 20
-507.7645284825678
 30
0.0
 11
37631.58466437845
 21
-552.7645284825705
 31
0.0
  0
LINE
  5
120
330
1F
100
AcDbEntity
  8
MTO-1200-410
  6
Continuous
 62
    18
420
        0
 48
25.00000019073486
370
    25
100
AcDbLine
 10
37516.58466437845
 20
-735.2553239831656
 30
2.5
 11
37516.58466437845
 21
-325.273732745092
 31
2.5
  0
LINE
  5
121
330
1F
100
AcDbEntity
  8
MTO-1200-410
  6
Continuous
 62
    18
420
        0
 48
31.49606382846832
370
    25
100
AcDbLine
 10
36004.58466437845
 20
-230.2645284825703
 30
-2.5
 11
37304.58466437845
 21
-230.2645284825703
 31
-2.5
  0
LINE
  5
122
330
1F
100
AcDbEntity
  8
MTO-1200-410
  6
Continuous
 62
    18
420
        0
 48
31.49606382846832
370
    25
100
AcDbLine
 10
37304.58466437845
 20
-780.2645284825708
 30
-2.5
 11
36004.58466437845
 21
-780.2645284825708
 31
-2.5
  0
LINE
  5
123
330
1F
100
AcDbEntity
  8
MTO-1200-410
  6
Continuous
 62
    18
420
        0
 48
31.49606382846832
370
    25
100
AcDbLine
 10
36004.58466437845
 20
-780.2645284825708
 30
-2.5
 11
36004.58466437845
 21
-230.2645284825703
 31
-2.5
  0
LINE
  5
124
330
1F
100
AcDbEntity
  8
MTO-1200-410
  6
DASHED1
 62
    18
420
        0
 48
15.00000041723251
370
    25
100
AcDbLine
 10
36595.58466437846
 20
-1091.299139111043
 30
-2.5
 11
36615.58466437845
 21
-1091.299139111043
 31
-2.5
  0
LINE
  5
125
330
1F
100
AcDbEntity
  8
MTO-1200-410
  6
DASHED1
 62
    18
420
        0
 48
15.00000041723251
370
    25
100
AcDbLine
 10
36713.58466437845
 20
-1091.299463304274
 30
-2.5
 11
36693.58466437846
 21
-1091.299463304274
 31
-2.5
  0
LINE
  5
126
330
1F
100
AcDbEntity
  8
MTO-1200-410
  6
Continuous
 62
    18
420
        0
 48
100.0000007629395
370
    25
100
AcDbLine
 10
35948.92819015656
 20
-1604.014862181489
 30
0.0
 11
36072.92819015655
 21
-1604.014862181489
 31
0.0
  0
LINE
  5
127
330
1F
100
AcDbEntity
  8
MTO-1200-410
  6
Continuous
 62
    18
420
        0
 48
100.0000007629395
370
    25
100
AcDbLine
 10
35945.92819015655
 20
-1580.014862181494
 30
0.0
 11
36075.92819015651
 21
-1580.014862181494
 31
0.0
  0
LINE
  5
128
330
1F
100
AcDbEntity
  8
MTO-1200-410
  6
Continuous
 62
    18
420
        0
 48
100.0000007629395
370
    25
100
AcDbLine
 10
35945.92819015655
 20
-1578.014862181483
 30
0.0
 11
35945.92819015655
 21
-1580.014862181494
 31
0.0
  0
LINE
  5
129
330
1F
100
AcDbEntity
  8
MTO-1200-410
  6
Continuous
 62
    18
420
        0
 48
100.0000007629395
370
    25
100
AcDbLine
 10
36075.92819015651
 20
-1578.014862181483
 30
0.0
 11
36075.92819015651
 21
-1580.014862181494
 31
0.0
  0
LINE
  5
12A
330
1F
100
AcDbEntity
  8
MTO-1200-410
  6
Continuous
 62
    18
420
        0
 48
100.0000007629395
370
    25
100
AcDbLine
 10
35970.92819015651
 20
-1604.014862181489
 30
0.0
 11
35970.92819015651
 21
-1580.014862181494
 31
0.0
  0
LINE
  5
12B
330
1F
100
AcDbEntity
  8
MTO-1200-410
  6
Continuous
 62
    18
420
        0
 48
100.0000007629395
370
    25
100
AcDbLine
 10
36050.92819015654
 20
-1604.014862181489
 30
0.0
 11
36050.92819015654
 21
-1580.014862181494
 31
0.0
  0
LINE
  5
12C
330
1F
100
AcDbEntity
  8
MTO-1200-410
  6
Continuous
 62
    18
420
        0
 48
100.0000007629395
370
    25
100
AcDbLine
 10
35982.92819015653
 20
-1604.014862181489
 30
0.0
 11
35982.92819015653
 21
-1580.014862181494
 31
0.0
  0
LINE
  5
12D
330
1F
100
AcDbEntity
  8
MTO-1200-410
  6
Continuous
 62
    18
420
        0
 48
100.0000007629395
370
    25
100
AcDbLine
 10
36038.92819015653
 20
-1604.014862181489
 30
0.0
 11
36038.92819015653
 21
-1580.014862181494
 31
0.0
  0
LINE
  5
12E
330
1F
100
AcDbEntity
  8
MTO-1200-410
  6
Continuous
 62
    18
420
        0
 48
100.0000007629395
370
    25
100
AcDbLine
 10
36007.92819015655
 20
-1604.014862181489
 30
0.0
 11
36007.92819015655
 21
-1580.014862181494
 31
0.0
  0
LINE
  5
12F
330
1F
100
AcDbEntity
  8
MTO-1200-410
  6
Continuous
 62
    18
420
        0
 48
100.0000007629395
370
    25
100
AcDbLine
 10
36013.92819015651
 20
-1604.014862181489
 30
0.0
 11
36013.92819015651
 21
-1580.014862181494
 31
0.0
  0
LINE
  5
130
330
1F
100
AcDbEntity
  8
MTO-1200-410
  6
Continuous
 62
    18
420
        0
 48
0.6999999973922968
370
    25
100
AcDbLine
 10
35793.63847692341
 20
-1411.613913412637
 30
0.0
 11
36231.50807797963
 21
-1411.613913412637
 31
0.0
  0
LINE
  5
131
330
1F
100
AcDbEntity
  8
MTO-1200-410
  6
Continuous
 62
    18
420
        0
 48
0.6999999973922968
370
    25
100
AcDbLine
 10
36231.50807797963
 20
-1411.613913412637
 30
0.0
 11
36231.50807797963
 21
-1697.927826226041
 31
0.0
  0
LINE
  5
132
330
1F
100
AcDbEntity
  8
MTO-1200-410
  6
Continuous
 62
    18
420
        0
 48
0.6999999973922968
370
    25
100
AcDbLine
 10
36231.50807797963
 20
-1697.927826226041
 30
0.0
 11
35793.63847692341
 21
-1697.927826226041
 31
0.0
  0
LINE
  5
133
330
1F
100
AcDbEntity
  8
MTO-1200-410
  6
Continuous
 62
    18
420
        0
 48
0.6999999973922968
370
    25
100
AcDbLine
 10
35793.63847692341
 20
-1697.927826226041
 30
0.0
 11
35793.63847692341
 21
-1411.613913412637
 31
0.0
  0
LINE
  5
134
330
1F
100
AcDbEntity
  8
MTO-1200-410
  6
Continuous
 62
    18
420
        0
 48
100.0000007629395
370
    25
100
AcDbLine
 10
36603.79779121275
 20
-1649.759640576794
 30
0.0
 11
36554.79779121275
 21
-1649.759640576794
 31
0.0
  0
LINE
  5
135
330
1F
100
AcDbEntity
  8
MTO-1200-410
  6
Continuous
 62
    18
420
        0
 48
100.0000007629395
370
    25
100
AcDbLine
 10
36442.79779121277
 20
-1649.759640576794
 30
0.0
 11
36393.79779121277
 21
-1649.759640576794
 31
0.0
  0
LINE
  5
136
330
1F
100
AcDbEntity
  8
MTO-1200-410
  6
Continuous
 62
    18
420
        0
 48
0.6999999973922968
370
    25
100
AcDbLine
 10
36281.50807797963
 20
-1411.613913412637
 30
0.0
 11
36719.37767903586
 21
-1411.613913412637
 31
0.0
  0
LINE
  5
137
330
1F
100
AcDbEntity
  8
MTO-1200-410
  6
Continuous
 62
    18
420
        0
 48
0.6999999973922968
370
    25
100
AcDbLine
 10
36719.37767903586
 20
-1411.613913412637
 30
0.0
 11
36719.37767903586
 21
-1697.927826226041
 31
0.0
  0
LINE
  5
138
330
1F
100
AcDbEntity
  8
MTO-1200-410
  6
Continuous
 62
    18
420
        0
 48
0.6999999973922968
370
    25
100
AcDbLine
 10
36719.37767903586
 20
-1697.927826226041
 30
0.0
 11
36281.50807797963
 21
-1697.927826226041
 31
0.0
  0
LINE
  5
139
330
1F
100
AcDbEntity
  8
MTO-1200-410
  6
Continuous
 62
    18
420
        0
 48
0.6999999973922968
370
    25
100
AcDbLine
 10
36281.50807797963
 20
-1697.927826226041
 30
0.0
 11
36281.50807797963
 21
-1411.613913412637
 31
0.0
  0
LINE
  5
13A
330
1F
100
AcDbEntity
  8
MTO-1200-410
  6
Continuous
 62
    18
420
        0
 48
100.0000007629395
370
    25
100
AcDbLine
 10
37091.66739226898
 20
-1649.759640576817
 30
0.0
 11
37062.667392269
 21
-1649.759640576817
 31
0.0
  0
LINE
  5
13B
330
1F
100
AcDbEntity
  8
MTO-1200-410
  6
Continuous
 62
    18
420
        0
 48
100.0000007629395
370
    25
100
AcDbLine
 10
36910.66739226898
 20
-1649.759640576817
 30
0.0
 11
36881.667392269
 21
-1649.759640576817
 31
0.0
  0
LINE
  5
13C
330
1F
100
AcDbEntity
  8
MTO-1200-410
  6
Continuous
 62
    18
420
        0
 48
0.6999999973922968
370
    25
100
AcDbLine
 10
36769.37767903586
 20
-1411.613913412637
 30
0.0
 11
37207.2472800921
 21
-1411.613913412637
 31
0.0
  0
LINE
  5
13D
330
1F
100
AcDbEntity
  8
MTO-1200-410
  6
Continuous
 62
    18
420
        0
 48
0.6999999973922968
370
    25
100
AcDbLine
 10
37207.2472800921
 20
-1411.613913412637
 30
0.0
 11
37207.2472800921
 21
-1697.927826226041
 31
0.0
  0
LINE
  5
13E
330
1F
100
AcDbEntity
  8
MTO-1200-410
  6
Continuous
 62
    18
420
        0
 48
0.6999999973922968
370
    25
100
AcDbLine
 10
37207.2472800921
 20
-1697.927826226041
 30
0.0
 11
36769.37767903586
 21
-1697.927826226041
 31
0.0
  0
LINE
  5
13F
330
1F
100
AcDbEntity
  8
MTO-1200-410
  6
Continuous
 62
    18
420
        0
 48
0.6999999973922968
370
    25
100
AcDbLine
 10
36769.37767903586
 20
-1697.927826226041
 30
0.0
 11
36769.37767903586
 21
-1411.613913412637
 31
0.0
  0
LINE
  5
140
330
1F
100
AcDbEntity
  8
MTO-1200-410
  6
Continuous
 62
    18
420
        0
 48
30.00000083446503
370
    25
100
AcDbLine
 10
36055.92819015653
 20
-1621.014862181479
 30
0.0
 11
36055.92819015653
 21
-1649.759640576817
 31
0.0
  0
LINE
  5
141
330
1F
100
AcDbEntity
  8
MTO-1200-410
  6
Continuous
 62
    18
420
        0
 48
30.00000083446503
370
    25
100
AcDbLine
 10
35965.92819015652
 20
-1621.014862181479
 30
0.0
 11
35965.92819015652
 21
-1649.759640576817
 31
0.0
  0
LINE
  5
142
330
1F
100
AcDbEntity
  8
MTO-1200-410
  6
Continuous
 62
    18
420
        0
 48
30.00000083446503
370
    25
100
AcDbLine
 10
36078.25421029046
 20
-1598.688842047577
 30
0.0
 11
36055.92819015653
 21
-1621.014862181479
 31
0.0
  0
LINE
  5
143
330
1F
100
AcDbEntity
  8
MTO-1200-410
  6
Continuous
 62
    18
420
        0
 48
30.00000083446503
370
    25
100
AcDbLine
 10
35943.60494936474
 20
-1598.691621389725
 30
0.0
 11
35965.92819015652
 21
-1621.014862181479
 31
0.0
  0
LINE
  5
144
330
1F
100
AcDbEntity
  8
MTO-1200-410
  6
Continuous
 62
    18
420
        0
 48
100.0000007629395
370
    25
100
AcDbLine
 10
36115.92819015655
 20
-1649.759640576817
 30
0.0
 11
35905.92819015651
 21
-1649.759640576817
 31
0.0
  0
LINE
  5
145
330
1F
100
AcDbEntity
  8
MTO-1200-410
  6
Continuous
 62
    18
420
        0
 48
100.0000007629395
370
    25
100
AcDbLine
 10
35905.92819015651
 20
-1611.759640576814
 30
0.0
 11
35905.92819015651
 21
-1649.759640576817
 31
0.0
  0
LINE
  5
146
330
1F
100
AcDbEntity
  8
MTO-1200-410
  6
Continuous
 62
    18
420
        0
 48
100.0000007629395
370
    25
100
AcDbLine
 10
36115.92819015655
 20
-1611.759640576814
 30
0.0
 11
36115.92819015655
 21
-1649.759640576817
 31
0.0
  0
LINE
  5
147
330
1F
100
AcDbEntity
  8
MTO-1200-410
  6
Continuous
 62
   250
420
   986895
 48
1.999999992549419
370
    25
100
AcDbLine
 10
35905.92819015651
 20
-1611.759640576814
 30
0.0
 11
35956.67296855186
 21
-1611.759640576814
 31
0.0
  0
LINE
  5
148
330
1F
100
AcDbEntity
  8
MTO-1200-410
  6
Continuous
 62
    18
420
        0
 48
100.0000007629395
370
    25
100
AcDbLine
 10
36115.92819015655
 20
-1611.759640576814
 30
0.0
 11
36065.1834117612
 21
-1611.759640576814
 31
0.0
  0
LINE
  5
149
330
1F
100
AcDbEntity
  8
MTO-1200-410
  6
Continuous
 62
    12
420
 14745600
 48
100.0000007629395
370
    18
100
AcDbLine
 10
36168.17765680405
 20
-1612.359640663011
 30
0.0
 11
36166.97765663166
 21
-1611.159640490618
 31
0.0
  0
LINE
  5
14A
330
1F
100
AcDbEntity
  8
MTO-1200-410
  6
Continuous
 62
    12
420
 14745600
 48
100.0000007629395
370
    18
100
AcDbLine
 10
36166.97765663166
 20
-1649.159640490621
 30
0.0
 11
36168.17765680405
 21
-1650.359640663014
 31
0.0
  0
LINE
  5
14B
330
1F
100
AcDbEntity
  8
MTO-1200-410
  6
Continuous
 62
    18
420
        0
 48
100.0000007629395
370
    25
100
AcDbLine
 10
36167.57765671785
 20
-1610.359640487408
 30
0.0
 11
36167.57765671785
 21
-1621.845353714843
 31
0.0
  0
LINE
  5
14C
330
1F
100
AcDbEntity
  8
MTO-1200-410
  6
Continuous
 62
    18
420
        0
 48
100.0000007629395
370
    25
100
AcDbLine
 10
36167.57765671785
 20
-1651.159640666225
 30
0.0
 11
36167.57765671785
 21
-1639.673927438789
 31
0.0
  0
LINE
  5
14D
330
1F
100
AcDbEntity
  8
MTO-1200-410
  6
Continuous
 62
    18
420
        0
 48
100.0000007629395
370
    25
100
AcDbLine
 10
36168.97765680726
 20
-1611.759640576814
 30
0.0
 11
36167.57765671785
 21
-1611.759640576814
 31
0.0
  0
LINE
  5
14E
330
1F
100
AcDbEntity
  8
MTO-1200-410
  6
Continuous
 62
    18
420
        0
 48
100.0000007629395
370
    25
100
AcDbLine
 10
36166.17765662845
 20
-1611.759640576814
 30
0.0
 11
36167.57765671785
 21
-1611.759640576814
 31
0.0
  0
LINE
  5
14F
330
1F
100
AcDbEntity
  8
MTO-1200-410
  6
Continuous
 62
    18
420
        0
 48
100.0000007629395
370
    25
100
AcDbLine
 10
36166.17765662845
 20
-1649.759640576817
 30
0.0
 11
36167.57765671785
 21
-1649.759640576817
 31
0.0
  0
LINE
  5
150
330
1F
100
AcDbEntity
  8
MTO-1200-410
  6
Continuous
 62
    18
420
        0
 48
100.0000007629395
370
    25
100
AcDbLine
 10
36168.97765680726
 20
-1649.759640576817
 30
0.0
 11
36167.57765671785
 21
-1649.759640576817
 31
0.0
  0
LINE
  5
151
330
1F
100
AcDbEntity
  8
MTO-1200-410
  6
Continuous
 62
    18
420
        0
 48
30.00000083446503
370
    25
100
AcDbLine
 10
36576.79779121275
 20
-1600.036916448184
 30
0.0
 11
36576.79779121275
 21
-1633.759640576798
 31
0.0
  0
LINE
  5
152
330
1F
100
AcDbEntity
  8
MTO-1200-410
  6
Continuous
 62
    18
420
        0
 48
30.00000083446503
370
    25
100
AcDbLine
 10
36420.79779121277
 20
-1600.039858438661
 30
0.0
 11
36420.79779121277
 21
-1633.759640576798
 31
0.0
  0
LINE
  5
153
330
1F
100
AcDbEntity
  8
MTO-1200-410
  6
Continuous
 62
    18
420
        0
 48
30.00000083446503
370
    25
100
AcDbLine
 10
36428.79779121276
 20
-1600.759640576811
 30
0.0
 11
36428.79779121276
 21
-1613.759640576802
 31
0.0
  0
LINE
  5
154
330
1F
100
AcDbEntity
  8
MTO-1200-410
  6
Continuous
 62
    18
420
        0
 48
100.0000007629395
370
    25
100
AcDbLine
 10
36568.79779121275
 20
-1600.759640576811
 30
0.0
 11
36568.79779121275
 21
-1613.759640576802
 31
0.0
  0
LINE
  5
155
330
1F
100
AcDbEntity
  8
MTO-1200-410
  6
Continuous
 62
    18
420
        0
 48
30.00000083446503
370
    25
100
AcDbLine
 10
36566.79779121277
 20
-1643.759640576807
 30
0.0
 11
36430.79779121275
 21
-1643.759640576807
 31
0.0
  0
LINE
  5
156
330
1F
100
AcDbEntity
  8
MTO-1200-410
  6
Continuous
 62
    18
420
        0
 48
30.00000083446503
370
    25
100
AcDbLine
 10
36568.79779121275
 20
-1613.759640576802
 30
0.0
 11
36428.79779121276
 21
-1613.759640576802
 31
0.0
  0
LINE
  5
157
330
1F
100
AcDbEntity
  8
MTO-1200-410
  6
Continuous
 62
    18
420
        0
 48
100.0000007629395
370
    25
100
AcDbLine
 10
36548.79779121278
 20
-1613.759640576802
 30
0.0
 11
36548.79779121278
 21
-1643.759640576807
 31
0.0
  0
LINE
  5
158
330
1F
100
AcDbEntity
  8
MTO-1200-410
  6
Continuous
 62
    18
420
        0
 48
100.0000007629395
370
    25
100
AcDbLine
 10
36448.79779121273
 20
-1613.759640576802
 30
0.0
 11
36448.79779121273
 21
-1643.759640576807
 31
0.0
  0
LINE
  5
159
330
1F
100
AcDbEntity
  8
MTO-1200-410
  6
Continuous
 62
    18
420
        0
 48
30.00000083446503
370
    25
100
AcDbLine
 10
36543.79779121274
 20
-1660.759640576798
 30
0.0
 11
36543.79779121274
 21
-1673.759640576812
 31
0.0
  0
LINE
  5
15A
330
1F
100
AcDbEntity
  8
MTO-1200-410
  6
Continuous
 62
    18
420
        0
 48
30.00000083446503
370
    25
100
AcDbLine
 10
36453.79779121278
 20
-1660.759640576798
 30
0.0
 11
36453.79779121278
 21
-1673.759640576812
 31
0.0
  0
LINE
  5
15B
330
1F
100
AcDbEntity
  8
MTO-1200-410
  6
Continuous
 62
    18
420
        0
 48
30.00000083446503
370
    25
100
AcDbLine
 10
36560.79779121275
 20
-1643.759640576807
 30
0.0
 11
36543.79779121274
 21
-1660.759640576798
 31
0.0
  0
LINE
  5
15C
330
1F
100
AcDbEntity
  8
MTO-1200-410
  6
Continuous
 62
    18
420
        0
 48
30.00000083446503
370
    25
100
AcDbLine
 10
36436.79779121276
 20
-1643.759640576807
 30
0.0
 11
36453.79779121278
 21
-1660.759640576798
 31
0.0
  0
LINE
  5
15D
330
1F
100
AcDbEntity
  8
MTO-1200-410
  6
Continuous
 62
    18
420
        0
 48
100.0000007629395
370
    25
100
AcDbLine
 10
36603.79779121275
 20
-1673.759640576812
 30
0.0
 11
36393.79779121277
 21
-1673.759640576812
 31
0.0
  0
LINE
  5
15E
330
1F
100
AcDbEntity
  8
MTO-1200-410
  6
Continuous
 62
    18
420
        0
 48
100.0000007629395
370
    25
100
AcDbLine
 10
36393.79779121277
 20
-1611.759640576814
 30
0.0
 11
36393.79779121277
 21
-1673.759640576812
 31
0.0
  0
LINE
  5
15F
330
1F
100
AcDbEntity
  8
MTO-1200-410
  6
Continuous
 62
    18
420
        0
 48
100.0000007629395
370
    25
100
AcDbLine
 10
36603.79779121275
 20
-1611.759640576814
 30
0.0
 11
36603.79779121275
 21
-1673.759640576812
 31
0.0
  0
LINE
  5
160
330
1F
100
AcDbEntity
  8
MTO-1200-410
  6
Continuous
 62
   250
420
   986895
 48
1.999999992549419
370
    25
100
AcDbLine
 10
36393.79779121277
 20
-1611.759640576814
 30
0.0
 11
36420.79779121277
 21
-1611.759640576814
 31
0.0
  0
LINE
  5
161
330
1F
100
AcDbEntity
  8
MTO-1200-410
  6
Continuous
 62
    18
420
        0
 48
100.0000007629395
370
    25
100
AcDbLine
 10
36603.79779121275
 20
-1611.759640576814
 30
0.0
 11
36576.79779121275
 21
-1611.759640576814
 31
0.0
  0
LINE
  5
162
330
1F
100
AcDbEntity
  8
MTO-1200-410
  6
Continuous
 62
    12
420
 14745600
 48
100.0000007629395
370
    18
100
AcDbLine
 10
36662.62106444263
 20
-1612.359640663011
 30
0.0
 11
36661.42106427024
 21
-1611.159640490618
 31
0.0
  0
LINE
  5
163
330
1F
100
AcDbEntity
  8
MTO-1200-410
  6
Continuous
 62
    12
420
 14745600
 48
100.0000007629395
370
    18
100
AcDbLine
 10
36661.42106427024
 20
-1649.159640490598
 30
0.0
 11
36662.62106444263
 21
-1650.35964066299
 31
0.0
  0
LINE
  5
164
330
1F
100
AcDbEntity
  8
MTO-1200-410
  6
Continuous
 62
    18
420
        0
 48
100.0000007629395
370
    25
100
AcDbLine
 10
36662.02106435644
 20
-1610.359640487408
 30
0.0
 11
36662.02106435644
 21
-1621.84535371482
 31
0.0
  0
LINE
  5
165
330
1F
100
AcDbEntity
  8
MTO-1200-410
  6
Continuous
 62
    18
420
        0
 48
100.0000007629395
370
    25
100
AcDbLine
 10
36662.02106435644
 20
-1651.159640666201
 30
0.0
 11
36662.02106435644
 21
-1639.673927438766
 31
0.0
  0
LINE
  5
166
330
1F
100
AcDbEntity
  8
MTO-1200-410
  6
Continuous
 62
    18
420
        0
 48
100.0000007629395
370
    25
100
AcDbLine
 10
36663.42106444584
 20
-1611.759640576814
 30
0.0
 11
36662.02106435644
 21
-1611.759640576814
 31
0.0
  0
LINE
  5
167
330
1F
100
AcDbEntity
  8
MTO-1200-410
  6
Continuous
 62
    18
420
        0
 48
100.0000007629395
370
    25
100
AcDbLine
 10
36660.62106426703
 20
-1611.759640576814
 30
0.0
 11
36662.02106435644
 21
-1611.759640576814
 31
0.0
  0
LINE
  5
168
330
1F
100
AcDbEntity
  8
MTO-1200-410
  6
Continuous
 62
    18
420
        0
 48
100.0000007629395
370
    25
100
AcDbLine
 10
36660.62106426703
 20
-1649.759640576794
 30
0.0
 11
36662.02106435644
 21
-1649.759640576794
 31
0.0
  0
LINE
  5
169
330
1F
100
AcDbEntity
  8
MTO-1200-410
  6
Continuous
 62
    18
420
        0
 48
100.0000007629395
370
    25
100
AcDbLine
 10
36663.42106444584
 20
-1649.759640576794
 30
0.0
 11
36662.02106435644
 21
-1649.759640576794
 31
0.0
  0
LINE
  5
16A
330
1F
100
AcDbEntity
  8
MTO-1200-410
  6
Continuous
 62
    12
420
 14745600
 48
100.0000007629395
370
    18
100
AcDbLine
 10
36662.62106444263
 20
-1650.35964066299
 30
0.0
 11
36661.42106427024
 21
-1649.159640490598
 31
0.0
  0
LINE
  5
16B
330
1F
100
AcDbEntity
  8
MTO-1200-410
  6
Continuous
 62
    12
420
 14745600
 48
100.0000007629395
370
    18
100
AcDbLine
 10
36661.42106427024
 20
-1673.159640490616
 30
0.0
 11
36662.62106444263
 21
-1674.359640663008
 31
0.0
  0
LINE
  5
16C
330
1F
100
AcDbEntity
  8
MTO-1200-410
  6
Continuous
 62
    18
420
        0
 48
100.0000007629395
370
    25
100
AcDbLine
 10
36662.02106435644
 20
-1648.359640487387
 30
0.0
 11
36662.02106435644
 21
-1652.845353714842
 31
0.0
  0
LINE
  5
16D
330
1F
100
AcDbEntity
  8
MTO-1200-410
  6
Continuous
 62
    18
420
        0
 48
100.0000007629395
370
    25
100
AcDbLine
 10
36662.02106435644
 20
-1675.159640666219
 30
0.0
 11
36662.02106435644
 21
-1670.673927438787
 31
0.0
  0
LINE
  5
16E
330
1F
100
AcDbEntity
  8
MTO-1200-410
  6
Continuous
 62
    18
420
        0
 48
100.0000007629395
370
    25
100
AcDbLine
 10
36663.42106444584
 20
-1649.759640576794
 30
0.0
 11
36662.02106435644
 21
-1649.759640576794
 31
0.0
  0
LINE
  5
16F
330
1F
100
AcDbEntity
  8
MTO-1200-410
  6
Continuous
 62
    18
420
        0
 48
100.0000007629395
370
    25
100
AcDbLine
 10
36660.62106426703
 20
-1649.759640576794
 30
0.0
 11
36662.02106435644
 21
-1649.759640576794
 31
0.0
  0
LINE
  5
170
330
1F
100
AcDbEntity
  8
MTO-1200-410
  6
Continuous
 62
    18
420
        0
 48
100.0000007629395
370
    25
100
AcDbLine
 10
36660.62106426703
 20
-1673.759640576812
 30
0.0
 11
36662.02106435644
 21
-1673.759640576812
 31
0.0
  0
LINE
  5
171
330
1F
100
AcDbEntity
  8
MTO-1200-410
  6
Continuous
 62
    18
420
        0
 48
100.0000007629395
370
    25
100
AcDbLine
 10
36663.42106444584
 20
-1673.759640576812
 30
0.0
 11
36662.02106435644
 21
-1673.759640576812
 31
0.0
  0
LINE
  5
172
330
1F
100
AcDbEntity
  8
MTO-1200-410
  6
Continuous
 62
    18
420
        0
 48
30.00000083446503
370
    25
100
AcDbLine
 10
37064.66739226898
 20
-1600.036916448207
 30
0.0
 11
37064.66739226898
 21
-1643.75964057683
 31
0.0
  0
LINE
  5
173
330
1F
100
AcDbEntity
  8
MTO-1200-410
  6
Continuous
 62
    18
420
        0
 48
30.00000083446503
370
    25
100
AcDbLine
 10
36908.667392269
 20
-1600.039858438684
 30
0.0
 11
36908.667392269
 21
-1643.75964057683
 31
0.0
  0
LINE
  5
174
330
1F
100
AcDbEntity
  8
MTO-1200-410
  6
Continuous
 62
    18
420
        0
 48
30.00000083446503
370
    25
100
AcDbLine
 10
36916.667392269
 20
-1600.759640576811
 30
0.0
 11
36916.667392269
 21
-1613.759640576826
 31
0.0
  0
LINE
  5
175
330
1F
100
AcDbEntity
  8
MTO-1200-410
  6
Continuous
 62
    18
420
        0
 48
100.0000007629395
370
    25
100
AcDbLine
 10
37056.66739226898
 20
-1600.759640576811
 30
0.0
 11
37056.66739226898
 21
-1613.759640576826
 31
0.0
  0
LINE
  5
176
330
1F
100
AcDbEntity
  8
MTO-1200-410
  6
Continuous
 62
    18
420
        0
 48
30.00000083446503
370
    25
100
AcDbLine
 10
37054.667392269
 20
-1653.759640576817
 30
0.0
 11
36918.66739226898
 21
-1653.759640576817
 31
0.0
  0
LINE
  5
177
330
1F
100
AcDbEntity
  8
MTO-1200-410
  6
Continuous
 62
    18
420
        0
 48
30.00000083446503
370
    25
100
AcDbLine
 10
37056.66739226898
 20
-1613.759640576826
 30
0.0
 11
36916.667392269
 21
-1613.759640576826
 31
0.0
  0
LINE
  5
178
330
1F
100
AcDbEntity
  8
MTO-1200-410
  6
Continuous
 62
    18
420
        0
 48
100.0000007629395
370
    25
100
AcDbLine
 10
37036.66739226897
 20
-1613.759640576826
 30
0.0
 11
37036.66739226897
 21
-1653.759640576817
 31
0.0
  0
LINE
  5
179
330
1F
100
AcDbEntity
  8
MTO-1200-410
  6
Continuous
 62
    18
420
        0
 48
100.0000007629395
370
    25
100
AcDbLine
 10
36936.66739226897
 20
-1613.759640576826
 30
0.0
 11
36936.66739226897
 21
-1653.759640576817
 31
0.0
  0
LINE
  5
17A
330
1F
100
AcDbEntity
  8
MTO-1200-410
  6
Continuous
 62
    18
420
        0
 48
30.00000083446503
370
    25
100
AcDbLine
 10
37031.66739226897
 20
-1670.759640576807
 30
0.0
 11
37031.66739226897
 21
-1673.759640576812
 31
0.0
  0
LINE
  5
17B
330
1F
100
AcDbEntity
  8
MTO-1200-410
  6
Continuous
 62
    18
420
        0
 48
30.00000083446503
370
    25
100
AcDbLine
 10
36941.66739226896
 20
-1670.759640576807
 30
0.0
 11
36941.66739226896
 21
-1673.759640576812
 31
0.0
  0
LINE
  5
17C
330
1F
100
AcDbEntity
  8
MTO-1200-410
  6
Continuous
 62
    18
420
        0
 48
30.00000083446503
370
    25
100
AcDbLine
 10
37048.66739226899
 20
-1653.759640576817
 30
0.0
 11
37031.66739226897
 21
-1670.759640576807
 31
0.0
  0
LINE
  5
17D
330
1F
100
AcDbEntity
  8
MTO-1200-410
  6
Continuous
 62
    18
420
        0
 48
30.00000083446503
370
    25
100
AcDbLine
 10
36924.66739226899
 20
-1653.759640576817
 30
0.0
 11
36941.66739226896
 21
-1670.759640576807
 31
0.0
  0
LINE
  5
17E
330
1F
100
AcDbEntity
  8
MTO-1200-410
  6
Continuous
 62
    18
420
        0
 48
100.0000007629395
370
    25
100
AcDbLine
 10
37091.66739226898
 20
-1673.759640576812
 30
0.0
 11
36881.667392269
 21
-1673.759640576812
 31
0.0
  0
LINE
  5
17F
330
1F
100
AcDbEntity
  8
MTO-1200-410
  6
Continuous
 62
    18
420
        0
 48
100.0000007629395
370
    25
100
AcDbLine
 10
36881.667392269
 20
-1611.759640576814
 30
0.0
 11
36881.667392269
 21
-1673.759640576812
 31
0.0
  0
LINE
  5
180
330
1F
100
AcDbEntity
  8
MTO-1200-410
  6
Continuous
 62
    18
420
        0
 48
100.0000007629395
370
    25
100
AcDbLine
 10
37091.66739226898
 20
-1611.759640576814
 30
0.0
 11
37091.66739226898
 21
-1673.759640576812
 31
0.0
  0
LINE
  5
181
330
1F
100
AcDbEntity
  8
MTO-1200-410
  6
Continuous
 62
   250
420
   986895
 48
1.999999992549419
370
    25
100
AcDbLine
 10
36881.667392269
 20
-1611.759640576814
 30
0.0
 11
36908.667392269
 21
-1611.759640576814
 31
0.0
  0
LINE
  5
182
330
1F
100
AcDbEntity
  8
MTO-1200-410
  6
Continuous
 62
    18
420
        0
 48
100.0000007629395
370
    25
100
AcDbLine
 10
37091.66739226898
 20
-1611.759640576814
 30
0.0
 11
37064.66739226898
 21
-1611.759640576814
 31
0.0
  0
LINE
  5
183
330
1F
100
AcDbEntity
  8
MTO-1200-410
  6
Continuous
 62
    12
420
 14745600
 48
100.0000007629395
370
    18
100
AcDbLine
 10
37169.64678442541
 20
-1612.359640663011
 30
0.0
 11
37168.44678425301
 21
-1611.159640490618
 31
0.0
  0
LINE
  5
184
330
1F
100
AcDbEntity
  8
MTO-1200-410
  6
Continuous
 62
    12
420
 14745600
 48
100.0000007629395
370
    18
100
AcDbLine
 10
37168.44678425301
 20
-1649.159640490621
 30
0.0
 11
37169.64678442541
 21
-1650.359640663014
 31
0.0
  0
LINE
  5
185
330
1F
100
AcDbEntity
  8
MTO-1200-410
  6
Continuous
 62
    18
420
        0
 48
100.0000007629395
370
    25
100
AcDbLine
 10
37169.04678433921
 20
-1610.359640487408
 30
0.0
 11
37169.04678433921
 21
-1621.845353714843
 31
0.0
  0
LINE
  5
186
330
1F
100
AcDbEntity
  8
MTO-1200-410
  6
Continuous
 62
    18
420
        0
 48
100.0000007629395
370
    25
100
AcDbLine
 10
37169.04678433921
 20
-1651.159640666225
 30
0.0
 11
37169.04678433921
 21
-1639.673927438789
 31
0.0
  0
LINE
  5
187
330
1F
100
AcDbEntity
  8
MTO-1200-410
  6
Continuous
 62
    18
420
        0
 48
100.0000007629395
370
    25
100
AcDbLine
 10
37170.44678442862
 20
-1611.759640576814
 30
0.0
 11
37169.04678433921
 21
-1611.759640576814
 31
0.0
  0
LINE
  5
188
330
1F
100
AcDbEntity
  8
MTO-1200-410
  6
Continuous
 62
    18
420
        0
 48
100.0000007629395
370
    25
100
AcDbLine
 10
37167.64678424981
 20
-1611.759640576814
 30
0.0
 11
37169.04678433921
 21
-1611.759640576814
 31
0.0
  0
LINE
  5
189
330
1F
100
AcDbEntity
  8
MTO-1200-410
  6
Continuous
 62
    18
420
        0
 48
100.0000007629395
370
    25
100
AcDbLine
 10
37167.64678424981
 20
-1649.759640576817
 30
0.0
 11
37169.04678433921
 21
-1649.759640576817
 31
0.0
  0
LINE
  5
18A
330
1F
100
AcDbEntity
  8
MTO-1200-410
  6
Continuous
 62
    18
420
        0
 48
100.0000007629395
370
    25
100
AcDbLine
 10
37170.44678442862
 20
-1649.759640576817
 30
0.0
 11
37169.04678433921
 21
-1649.759640576817
 31
0.0
  0
LINE
  5
18B
330
1F
100
AcDbEntity
  8
MTO-1200-410
  6
Continuous
 62
    12
420
 14745600
 48
100.0000007629395
370
    18
100
AcDbLine
 10
37169.64678442541
 20
-1650.359640663014
 30
0.0
 11
37168.44678425301
 21
-1649.159640490621
 31
0.0
  0
LINE
  5
18C
330
1F
100
AcDbEntity
  8
MTO-1200-410
  6
Continuous
 62
    12
420
 14745600
 48
100.0000007629395
370
    18
100
AcDbLine
 10
37168.44678425301
 20
-1673.159640490616
 30
0.0
 11
37169.64678442541
 21
-1674.359640663008
 31
0.0
  0
LINE
  5
18D
330
1F
100
AcDbEntity
  8
MTO-1200-410
  6
Continuous
 62
    18
420
        0
 48
100.0000007629395
370
    25
100
AcDbLine
 10
37169.04678433921
 20
-1648.35964048741
 30
0.0
 11
37169.04678433921
 21
-1652.845353714842
 31
0.0
  0
LINE
  5
18E
330
1F
100
AcDbEntity
  8
MTO-1200-410
  6
Continuous
 62
    18
420
        0
 48
100.0000007629395
370
    25
100
AcDbLine
 10
37169.04678433921
 20
-1675.159640666219
 30
0.0
 11
37169.04678433921
 21
-1670.673927438787
 31
0.0
  0
LINE
  5
18F
330
1F
100
AcDbEntity
  8
MTO-1200-410
  6
Continuous
 62
    18
420
        0
 48
100.0000007629395
370
    25
100
AcDbLine
 10
37170.44678442862
 20
-1649.759640576817
 30
0.0
 11
37169.04678433921
 21
-1649.759640576817
 31
0.0
  0
LINE
  5
190
330
1F
100
AcDbEntity
  8
MTO-1200-410
  6
Continuous
 62
    18
420
        0
 48
100.0000007629395
370
    25
100
AcDbLine
 10
37167.64678424981
 20
-1649.759640576817
 30
0.0
 11
37169.04678433921
 21
-1649.759640576817
 31
0.0
  0
LINE
  5
191
330
1F
100
AcDbEntity
  8
MTO-1200-410
  6
Continuous
 62
    18
420
        0
 48
100.0000007629395
370
    25
100
AcDbLine
 10
37167.64678424981
 20
-1673.759640576812
 30
0.0
 11
37169.04678433921
 21
-1673.759640576812
 31
0.0
  0
LINE
  5
192
330
1F
100
AcDbEntity
  8
MTO-1200-410
  6
Continuous
 62
    18
420
        0
 48
100.0000007629395
370
    25
100
AcDbLine
 10
37170.44678442862
 20
-1673.759640576812
 30
0.0
 11
37169.04678433921
 21
-1673.759640576812
 31
0.0
  0
LINE
  5
193
330
1F
100
AcDbEntity
  8
MTO-1200-410
  6
Continuous
 62
    18
420
        0
 48
100.0000007629395
370
    25
100
AcDbLine
 10
37579.53699332521
 20
-1649.759640576817
 30
0.0
 11
37552.53699332521
 21
-1649.759640576817
 31
0.0
  0
LINE
  5
194
330
1F
100
AcDbEntity
  8
MTO-1200-410
  6
Continuous
 62
    18
420
        0
 48
100.0000007629395
370
    25
100
AcDbLine
 10
37396.53699332522
 20
-1649.759640576817
 30
0.0
 11
37369.53699332522
 21
-1649.759640576817
 31
0.0
  0
LINE
  5
195
330
1F
100
AcDbEntity
  8
MTO-1200-410
  6
Continuous
 62
    18
420
        0
 48
0.6999999973922968
370
    25
100
AcDbLine
 10
37257.2472800921
 20
-1411.613913412637
 30
0.0
 11
37695.11688114832
 21
-1411.613913412637
 31
0.0
  0
LINE
  5
196
330
1F
100
AcDbEntity
  8
MTO-1200-410
  6
Continuous
 62
    18
420
        0
 48
0.6999999973922968
370
    25
100
AcDbLine
 10
37695.11688114832
 20
-1411.613913412637
 30
0.0
 11
37695.11688114832
 21
-1697.927826226041
 31
0.0
  0
LINE
  5
197
330
1F
100
AcDbEntity
  8
MTO-1200-410
  6
Continuous
 62
    18
420
        0
 48
0.6999999973922968
370
    25
100
AcDbLine
 10
37695.11688114832
 20
-1697.927826226041
 30
0.0
 11
37257.2472800921
 21
-1697.927826226041
 31
0.0
  0
LINE
  5
198
330
1F
100
AcDbEntity
  8
MTO-1200-410
  6
Continuous
 62
    18
420
        0
 48
0.6999999973922968
370
    25
100
AcDbLine
 10
37257.2472800921
 20
-1697.927826226041
 30
0.0
 11
37257.2472800921
 21
-1411.613913412637
 31
0.0
  0
LINE
  5
199
330
1F
100
AcDbEntity
  8
MTO-1200-410
  6
Continuous
 62
    18
420
        0
 48
30.00000083446503
370
    25
100
AcDbLine
 10
37552.53699332521
 20
-1600.036916448207
 30
0.0
 11
37552.53699332521
 21
-1657.75964057683
 31
0.0
  0
LINE
  5
19A
330
1F
100
AcDbEntity
  8
MTO-1200-410
  6
Continuous
 62
    18
420
        0
 48
30.00000083446503
370
    25
100
AcDbLine
 10
37396.53699332522
 20
-1600.039858438684
 30
0.0
 11
37396.53699332522
 21
-1657.75964057683
 31
0.0
  0
LINE
  5
19B
330
1F
100
AcDbEntity
  8
MTO-1200-410
  6
Continuous
 62
    18
420
        0
 48
30.00000083446503
370
    25
100
AcDbLine
 10
37404.53699332522
 20
-1600.759640576811
 30
0.0
 11
37404.53699332522
 21
-1613.759640576826
 31
0.0
  0
LINE
  5
19C
330
1F
100
AcDbEntity
  8
MTO-1200-410
  6
Continuous
 62
    18
420
        0
 48
100.0000007629395
370
    25
100
AcDbLine
 10
37544.53699332522
 20
-1600.759640576811
 30
0.0
 11
37544.53699332522
 21
-1613.759640576826
 31
0.0
  0
LINE
  5
19D
330
1F
100
AcDbEntity
  8
MTO-1200-410
  6
Continuous
 62
    18
420
        0
 48
30.00000083446503
370
    25
100
AcDbLine
 10
37542.53699332522
 20
-1667.759640576816
 30
0.0
 11
37406.53699332521
 21
-1667.759640576816
 31
0.0
  0
LINE
  5
19E
330
1F
100
AcDbEntity
  8
MTO-1200-410
  6
Continuous
 62
    18
420
        0
 48
30.00000083446503
370
    25
100
AcDbLine
 10
37544.53699332522
 20
-1613.759640576826
 30
0.0
 11
37404.53699332522
 21
-1613.759640576826
 31
0.0
  0
LINE
  5
19F
330
1F
100
AcDbEntity
  8
MTO-1200-410
  6
Continuous
 62
    18
420
        0
 48
100.0000007629395
370
    25
100
AcDbLine
 10
37524.53699332519
 20
-1613.759640576826
 30
0.0
 11
37524.53699332519
 21
-1667.759640576816
 31
0.0
  0
LINE
  5
1A0
330
1F
100
AcDbEntity
  8
MTO-1200-410
  6
Continuous
 62
    18
420
        0
 48
100.0000007629395
370
    25
100
AcDbLine
 10
37424.53699332519
 20
-1613.759640576826
 30
0.0
 11
37424.53699332519
 21
-1667.759640576816
 31
0.0
  0
LINE
  5
1A1
330
1F
100
AcDbEntity
  8
MTO-1200-410
  6
Continuous
 62
    18
420
        0
 48
30.00000083446503
370
    25
100
AcDbLine
 10
37519.5369933252
 20
-1684.759640576807
 30
0.0
 11
37519.5369933252
 21
-1687.759640576812
 31
0.0
  0
LINE
  5
1A2
330
1F
100
AcDbEntity
  8
MTO-1200-410
  6
Continuous
 62
    18
420
        0
 48
30.00000083446503
370
    25
100
AcDbLine
 10
37429.53699332519
 20
-1684.759640576807
 30
0.0
 11
37429.53699332519
 21
-1687.759640576812
 31
0.0
  0
LINE
  5
1A3
330
1F
100
AcDbEntity
  8
MTO-1200-410
  6
Continuous
 62
    18
420
        0
 48
30.00000083446503
370
    25
100
AcDbLine
 10
37536.53699332522
 20
-1667.759640576816
 30
0.0
 11
37519.5369933252
 21
-1684.759640576807
 31
0.0
  0
LINE
  5
1A4
330
1F
100
AcDbEntity
  8
MTO-1200-410
  6
Continuous
 62
    18
420
        0
 48
30.00000083446503
370
    25
100
AcDbLine
 10
37412.53699332522
 20
-1667.759640576816
 30
0.0
 11
37429.53699332519
 21
-1684.759640576807
 31
0.0
  0
LINE
  5
1A5
330
1F
100
AcDbEntity
  8
MTO-1200-410
  6
Continuous
 62
    18
420
        0
 48
100.0000007629395
370
    25
100
AcDbLine
 10
37579.53699332521
 20
-1687.759640576812
 30
0.0
 11
37369.53699332522
 21
-1687.759640576812
 31
0.0
  0
LINE
  5
1A6
330
1F
100
AcDbEntity
  8
MTO-1200-410
  6
Continuous
 62
    18
420
        0
 48
100.0000007629395
370
    25
100
AcDbLine
 10
37369.53699332522
 20
-1611.759640576814
 30
0.0
 11
37369.53699332522
 21
-1687.759640576812
 31
0.0
  0
LINE
  5
1A7
330
1F
100
AcDbEntity
  8
MTO-1200-410
  6
Continuous
 62
    18
420
        0
 48
100.0000007629395
370
    25
100
AcDbLine
 10
37579.53699332521
 20
-1611.759640576814
 30
0.0
 11
37579.53699332521
 21
-1687.759640576812
 31
0.0
  0
LINE
  5
1A8
330
1F
100
AcDbEntity
  8
MTO-1200-410
  6
Continuous
 62
   250
420
   986895
 48
1.999999992549419
370
    25
100
AcDbLine
 10
37369.53699332522
 20
-1611.759640576814
 30
0.0
 11
37396.53699332522
 21
-1611.759640576814
 31
0.0
  0
LINE
  5
1A9
330
1F
100
AcDbEntity
  8
MTO-1200-410
  6
Continuous
 62
    18
420
        0
 48
100.0000007629395
370
    25
100
AcDbLine
 10
37579.53699332521
 20
-1611.759640576814
 30
0.0
 11
37552.53699332521
 21
-1611.759640576814
 31
0.0
  0
LINE
  5
1AA
330
1F
100
AcDbEntity
  8
MTO-1200-410
  6
Continuous
 62
    12
420
 14745600
 48
100.0000007629395
370
    18
100
AcDbLine
 10
37657.51638548164
 20
-1612.359640663011
 30
0.0
 11
37656.31638530925
 21
-1611.159640490618
 31
0.0
  0
LINE
  5
1AB
330
1F
100
AcDbEntity
  8
MTO-1200-410
  6
Continuous
 62
    12
420
 14745600
 48
100.0000007629395
370
    18
100
AcDbLine
 10
37656.31638530925
 20
-1649.159640490621
 30
0.0
 11
37657.51638548164
 21
-1650.359640663014
 31
0.0
  0
LINE
  5
1AC
330
1F
100
AcDbEntity
  8
MTO-1200-410
  6
Continuous
 62
    18
420
        0
 48
100.0000007629395
370
    25
100
AcDbLine
 10
37656.91638539545
 20
-1610.359640487408
 30
0.0
 11
37656.91638539545
 21
-1621.845353714843
 31
0.0
  0
LINE
  5
1AD
330
1F
100
AcDbEntity
  8
MTO-1200-410
  6
Continuous
 62
    18
420
        0
 48
100.0000007629395
370
    25
100
AcDbLine
 10
37656.91638539545
 20
-1651.159640666225
 30
0.0
 11
37656.91638539545
 21
-1639.673927438789
 31
0.0
  0
LINE
  5
1AE
330
1F
100
AcDbEntity
  8
MTO-1200-410
  6
Continuous
 62
    18
420
        0
 48
100.0000007629395
370
    25
100
AcDbLine
 10
37658.31638548485
 20
-1611.759640576814
 30
0.0
 11
37656.91638539545
 21
-1611.759640576814
 31
0.0
  0
LINE
  5
1AF
330
1F
100
AcDbEntity
  8
MTO-1200-410
  6
Continuous
 62
    18
420
        0
 48
100.0000007629395
370
    25
100
AcDbLine
 10
37655.51638530604
 20
-1611.759640576814
 30
0.0
 11
37656.91638539545
 21
-1611.759640576814
 31
0.0
  0
LINE
  5
1B0
330
1F
100
AcDbEntity
  8
MTO-1200-410
  6
Continuous
 62
    18
420
        0
 48
100.0000007629395
370
    25
100
AcDbLine
 10
37655.51638530604
 20
-1649.759640576817
 30
0.0
 11
37656.91638539545
 21
-1649.759640576817
 31
0.0
  0
LINE
  5
1B1
330
1F
100
AcDbEntity
  8
MTO-1200-410
  6
Continuous
 62
    18
420
        0
 48
100.0000007629395
370
    25
100
AcDbLine
 10
37658.31638548485
 20
-1649.759640576817
 30
0.0
 11
37656.91638539545
 21
-1649.759640576817
 31
0.0
  0
LINE
  5
1B2
330
1F
100
AcDbEntity
  8
MTO-1200-410
  6
Continuous
 62
    12
420
 14745600
 48
100.0000007629395
370
    18
100
AcDbLine
 10
37657.51638548164
 20
-1650.359640663014
 30
0.0
 11
37656.31638530925
 21
-1649.159640490621
 31
0.0
  0
LINE
  5
1B3
330
1F
100
AcDbEntity
  8
MTO-1200-410
  6
Continuous
 62
    12
420
 14745600
 48
100.0000007629395
370
    18
100
AcDbLine
 10
37656.31638530925
 20
-1687.159640490616
 30
0.0
 11
37657.51638548164
 21
-1688.359640663008
 31
0.0
  0
LINE
  5
1B4
330
1F
100
AcDbEntity
  8
MTO-1200-410
  6
Continuous
 62
    18
420
        0
 48
100.0000007629395
370
    25
100
AcDbLine
 10
37656.91638539545
 20
-1648.35964048741
 30
0.0
 11
37656.91638539545
 21
-1661.796890958967
 31
0.0
  0
LINE
  5
1B5
330
1F
100
AcDbEntity
  8
MTO-1200-410
  6
Continuous
 62
    18
420
        0
 48
100.0000007629395
370
    25
100
AcDbLine
 10
37656.91638539545
 20
-1689.159640666219
 30
0.0
 11
37656.91638539545
 21
-1675.575985872864
 31
0.0
  0
LINE
  5
1B6
330
1F
100
AcDbEntity
  8
MTO-1200-410
  6
Continuous
 62
    18
420
        0
 48
100.0000007629395
370
    25
100
AcDbLine
 10
37658.31638548485
 20
-1649.759640576817
 30
0.0
 11
37656.91638539545
 21
-1649.759640576817
 31
0.0
  0
LINE
  5
1B7
330
1F
100
AcDbEntity
  8
MTO-1200-410
  6
Continuous
 62
    18
420
        0
 48
100.0000007629395
370
    25
100
AcDbLine
 10
37655.51638530604
 20
-1649.759640576817
 30
0.0
 11
37656.91638539545
 21
-1649.759640576817
 31
0.0
  0
LINE
  5
1B8
330
1F
100
AcDbEntity
  8
MTO-1200-410
  6
Continuous
 62
    18
420
        0
 48
100.0000007629395
370
    25
100
AcDbLine
 10
37655.51638530604
 20
-1687.759640576812
 30
0.0
 11
37656.91638539545
 21
-1687.759640576812
 31
0.0
  0
LINE
  5
1B9
330
1F
100
AcDbEntity
  8
MTO-1200-410
  6
Continuous
 62
    18
420
        0
 48
100.0000007629395
370
    25
100
AcDbLine
 10
37658.31638548485
 20
-1687.759640576812
 30
0.0
 11
37656.91638539545
 21
-1687.759640576812
 31
0.0
  0
LINE
  5
1BA
330
1F
100
AcDbEntity
  8
MTO-1200-410
  6
Continuous
 62
    18
420
        0
 48
50.00000038146973
370
    25
100
AcDbLine
 10
38539.63840368122
 20
-1837.92820683746
 30
0.0
 11
38539.63840368122
 21
162.0718084213288
 31
0.0
  0
LINE
  5
1BB
330
1F
100
AcDbEntity
  8
MTO-1200-410
  6
Continuous
 62
    18
420
        0
 48
50.00000038146973
370
    25
100
AcDbLine
 10
38539.63840368122
 20
162.0718084213288
 30
0.0
 11
35669.63839147418
 21
162.0718084213288
 31
0.0
  0
LINE
  5
1BC
330
1F
100
AcDbEntity
  8
MTO-1200-410
  6
Continuous
 62
    18
420
        0
 48
50.00000038146973
370
    25
100
AcDbLine
 10
35669.63839147418
 20
162.0718084213288
 30
0.0
 11
35669.63839147418
 21
-1837.92820683746
 31
0.0
  0
LINE
  5
1BD
330
1F
100
AcDbEntity
  8
MTO-1200-410
  6
Continuous
 62
    18
420
        0
 48
50.00000038146973
370
    25
100
AcDbLine
 10
35669.63839147418
 20
-1837.92820683746
 30
0.0
 11
38539.63840368122
 21
-1837.92820683746
 31
0.0
  0
LINE
  5
1BE
330
1F
100
AcDbEntity
  8
MTO-1200-410
  6
Continuous
 62
    18
420
        0
 48
50.00000038146973
370
    25
100
AcDbLine
 10
35693.63847692341
 20
-7.928280079647727
 30
0.0
 11
35693.63847692341
 21
-1797.927826226041
 31
0.0
  0
LINE
  5
1BF
330
1F
100
AcDbEntity
  8
MTO-1200-410
  6
Continuous
 62
    18
420
        0
 48
50.00000038146973
370
    25
100
AcDbLine
 10
38515.638318232
 20
-1797.927826226041
 30
0.0
 11
38515.638318232
 21
-7.928280079647727
 31
0.0
  0
LINE
  5
1C0
330
1F
100
AcDbEntity
  8
MTO-1200-410
  6
Continuous
 62
    18
420
        0
 48
50.00000038146973
370
    25
100
AcDbLine
 10
35693.63847692341
 20
-1797.927826226041
 30
0.0
 11
38515.638318232
 21
-1797.927826226041
 31
0.0
  0
LINE
  5
1C1
330
1F
100
AcDbEntity
  8
MTO-1200-410
  6
Continuous
 62
    18
420
        0
 48
50.00000038146973
370
    25
100
AcDbLine
 10
38515.638318232
 20
-7.928280079647727
 30
0.0
 11
35693.63847692341
 21
-7.928280079647727
 31
0.0
  0
LINE
  5
1C2
330
1F
100
AcDbEntity
  8
MTO-1200-410
  6
Continuous
 62
    18
420
        0
 48
755.9999786376953
370
    25
100
AcDbLine
 10
38515.638318232
 20
-1797.927826226041
 30
0.0
 11
38515.638318232
 21
-1352.427826226041
 31
0.0
  0
LINE
  5
1C3
330
1F
100
AcDbEntity
  8
MTO-1200-410
  6
Continuous
 62
    18
420
        0
 48
755.9999786376953
370
    25
100
AcDbLine
 10
37767.63831823199
 20
-1797.927826226041
 30
0.0
 11
37767.63831823199
 21
-1572.427826226043
 31
0.0
  0
LINE
  5
1C4
330
1F
100
AcDbEntity
  8
MTO-1200-410
  6
Continuous
 62
    18
420
        0
 48
50.00000038146973
370
    25
100
AcDbLine
 10
37767.63831823199
 20
-1572.427826226043
 30
0.0
 11
38515.638318232
 21
-1572.427826226043
 31
0.0
  0
LINE
  5
1C5
330
1F
100
AcDbEntity
  8
MTO-1200-410
  6
Continuous
 62
    18
420
        0
 48
134.9999961853027
370
    25
100
AcDbLine
 10
37898.66000891961
 20
-1632.210392729504
 30
0.0
 11
37957.91100526042
 21
-1632.206556812726
 31
0.0
  0
LINE
  5
1C6
330
1F
100
AcDbEntity
  8
MTO-1200-410
  6
Continuous
 62
    18
420
        0
 48
134.9999961853027
370
    25
100
AcDbLine
 10
37891.00455002185
 20
-1650.725024046623
 30
0.0
 11
37965.56294605114
 21
-1650.722786950334
 31
0.0
  0
LINE
  5
1C7
330
1F
100
AcDbEntity
  8
MTO-1200-410
  6
Continuous
 62
    18
420
        0
 48
134.9999961853027
370
    25
100
AcDbLine
 10
37963.20589848531
 20
-1641.468511549273
 30
0.0
 11
37893.3644229967
 21
-1641.466319890968
 31
0.0
  0
LINE
  5
1C8
330
1F
100
AcDbEntity
  8
MTO-1200-410
  6
Continuous
 62
    18
420
        0
 48
134.9999961853027
370
    25
100
AcDbLine
 10
37893.36825921408
 20
-1669.115562260715
 30
0.0
 11
37963.20504331818
 21
-1669.109654650676
 31
0.0
  0
LINE
  5
1C9
330
1F
100
AcDbEntity
  8
MTO-1200-410
  6
Continuous
 62
    18
420
        0
 48
134.9999961853027
370
    25
100
AcDbLine
 10
37965.56491578693
 20
-1659.84860567696
 30
0.0
 11
37891.00652026375
 21
-1659.85318759131
 31
0.0
  0
LINE
  5
1CA
330
1F
100
AcDbEntity
  8
MTO-1200-410
  6
Continuous
 62
    18
420
        0
 48
134.9999961853027
370
    25
100
AcDbLine
 10
37957.91414781357
 20
-1678.369204609648
 30
0.0
 11
37898.65824784318
 21
-1678.369204609648
 31
0.0
  0
LINE
  5
1CB
330
1F
100
AcDbEntity
  8
MTO-1200-410
  6
Continuous
 62
    18
420
        0
 48
134.9999961853027
370
    25
100
AcDbLine
 10
37971.44184862998
 20
-1678.45474835702
 30
0.0
 11
38008.19388944066
 21
-1678.456194992403
 31
0.0
  0
LINE
  5
1CC
330
1F
100
AcDbEntity
  8
MTO-1200-410
  6
Continuous
 62
    18
420
        0
 48
134.9999961853027
370
    25
100
AcDbLine
 10
38008.19021145257
 20
-1650.552433234424
 30
0.0
 11
37985.19138150457
 21
-1650.549297068995
 31
0.0
  0
LINE
  5
1CD
330
1F
100
AcDbEntity
  8
MTO-1200-410
  6
Continuous
 62
    18
420
        0
 48
134.9999961853027
370
    25
100
AcDbLine
 10
37984.98231450002
 20
-1641.883960065113
 30
0.0
 11
38021.93941952618
 21
-1641.881738629105
 31
0.0
  0
LINE
  5
1CE
330
1F
100
AcDbEntity
  8
MTO-1200-410
  6
Continuous
 62
    18
420
        0
 48
134.9999961853027
370
    25
100
AcDbLine
 10
38021.93941952618
 20
-1641.881738629105
 30
0.0
 11
38021.94182241659
 21
-1632.274804903279
 31
0.0
  0
LINE
  5
1CF
330
1F
100
AcDbEntity
  8
MTO-1200-410
  6
Continuous
 62
    18
420
        0
 48
134.9999961853027
370
    25
100
AcDbLine
 10
38021.94182241659
 20
-1632.274804903279
 30
0.0
 11
37984.98258546158
 21
-1632.275747807712
 31
0.0
  0
LINE
  5
1D0
330
1F
100
AcDbEntity
  8
MTO-1200-410
  6
Continuous
 62
    18
420
        0
 48
134.9999961853027
370
    25
100
AcDbLine
 10
37984.98625944679
 20
-1660.160964186482
 30
0.0
 11
38007.98509238545
 21
-1660.177956095007
 31
0.0
  0
LINE
  5
1D1
330
1F
100
AcDbEntity
  8
MTO-1200-410
  6
Continuous
 62
    18
420
        0
 48
134.9999961853027
370
    25
100
AcDbLine
 10
38008.19181530809
 20
-1668.846704249445
 30
0.0
 11
37971.44212009765
 21
-1668.848880917682
 31
0.0
  0
LINE
  5
1D2
330
1F
100
AcDbEntity
  8
MTO-1200-410
  6
Continuous
 62
    18
420
        0
 48
134.9999961853027
370
    25
100
AcDbLine
 10
37971.44212009765
 20
-1668.848880917682
 30
0.0
 11
37971.44184862998
 21
-1678.45474835702
 31
0.0
  0
LINE
  5
1D3
330
1F
100
AcDbEntity
  8
MTO-1200-410
  6
Continuous
 62
    18
420
        0
 48
134.9999961853027
370
    25
100
AcDbLine
 10
38048.47999335035
 20
-1678.438120282853
 30
0.0
 11
38078.52564106634
 21
-1678.439735448411
 31
0.0
  0
LINE
  5
1D4
330
1F
100
AcDbEntity
  8
MTO-1200-410
  6
Continuous
 62
    18
420
        0
 48
134.9999961853027
370
    25
100
AcDbLine
 10
38078.52564106634
 20
-1678.439735448411
 30
0.0
 11
38078.52591179783
 21
-1668.830457364628
 31
0.0
  0
LINE
  5
1D5
330
1F
100
AcDbEntity
  8
MTO-1200-410
  6
Continuous
 62
    18
420
        0
 48
134.9999961853027
370
    25
100
AcDbLine
 10
38078.52591179783
 20
-1668.830457364628
 30
0.0
 11
38048.47791976991
 21
-1668.831187523245
 31
0.0
  0
LINE
  5
1D6
330
1F
100
AcDbEntity
  8
MTO-1200-410
  6
Continuous
 62
    18
420
        0
 48
134.9999961853027
370
    25
100
AcDbLine
 10
38037.3494328154
 20
-1660.035831745829
 30
0.0
 11
38078.52635791962
 21
-1660.033765321483
 31
0.0
  0
LINE
  5
1D7
330
1F
100
AcDbEntity
  8
MTO-1200-410
  6
Continuous
 62
    18
420
        0
 48
134.9999961853027
370
    25
100
AcDbLine
 10
38078.52635791962
 20
-1660.033765321483
 30
0.0
 11
38078.52428484528
 21
-1650.429177379925
 31
0.0
  0
LINE
  5
1D8
330
1F
100
AcDbEntity
  8
MTO-1200-410
  6
Continuous
 62
    18
420
        0
 48
134.9999961853027
370
    25
100
AcDbLine
 10
38078.52428484528
 20
-1650.429177379925
 30
0.0
 11
38037.34970451312
 21
-1650.431030132884
 31
0.0
  0
LINE
  5
1D9
330
1F
100
AcDbEntity
  8
MTO-1200-410
  6
Continuous
 62
    18
420
        0
 48
134.9999961853027
370
    25
100
AcDbLine
 10
38048.47418044967
 20
-1641.630871229463
 30
0.0
 11
38078.52707504896
 21
-1641.629074186224
 31
0.0
  0
LINE
  5
1DA
330
1F
100
AcDbEntity
  8
MTO-1200-410
  6
Continuous
 62
    18
420
        0
 48
134.9999961853027
370
    25
100
AcDbLine
 10
38078.52707504896
 20
-1641.629074186224
 30
0.0
 11
38078.52713335134
 21
-1632.023206792891
 31
0.0
  0
LINE
  5
1DB
330
1F
100
AcDbEntity
  8
MTO-1200-410
  6
Continuous
 62
    18
420
        0
 48
134.9999961853027
370
    25
100
AcDbLine
 10
38078.52713335134
 20
-1632.023206792891
 30
0.0
 11
38048.47892788207
 21
-1632.022658005856
 31
0.0
  0
LINE
  5
1DC
330
1F
100
AcDbEntity
  8
MTO-1200-410
  6
Continuous
 62
    18
420
        0
 48
134.9999961853027
370
    25
100
AcDbLine
 10
38085.44604041383
 20
-1678.385376743482
 30
0.0
 11
38095.65623114091
 21
-1678.38423878102
 31
0.0
  0
LINE
  5
1DD
330
1F
100
AcDbEntity
  8
MTO-1200-410
  6
Continuous
 62
    18
420
        0
 48
134.9999961853027
370
    25
100
AcDbLine
 10
38095.65623114091
 20
-1678.38423878102
 30
0.0
 11
38095.65751232342
 21
-1641.853250409886
 31
0.0
  0
LINE
  5
1DE
330
1F
100
AcDbEntity
  8
MTO-1200-410
  6
Continuous
 62
    18
420
        0
 48
134.9999961853027
370
    25
100
AcDbLine
 10
38095.65751232342
 20
-1641.853250409886
 30
0.0
 11
38120.5582026078
 21
-1641.85469708208
 31
0.0
  0
LINE
  5
1DF
330
1F
100
AcDbEntity
  8
MTO-1200-410
  6
Continuous
 62
    18
420
        0
 48
134.9999961853027
370
    25
100
AcDbLine
 10
38120.76726915225
 20
-1650.517902433177
 30
0.0
 11
38098.59466957108
 21
-1650.522688213407
 31
0.0
  0
LINE
  5
1E0
330
1F
100
AcDbEntity
  8
MTO-1200-410
  6
Continuous
 62
    18
420
        0
 48
134.9999961853027
370
    25
100
AcDbLine
 10
38098.59466957108
 20
-1650.522688213407
 30
0.0
 11
38098.59462093079
 21
-1660.173320315161
 31
0.0
  0
LINE
  5
1E1
330
1F
100
AcDbEntity
  8
MTO-1200-410
  6
Continuous
 62
    18
420
        0
 48
134.9999961853027
370
    25
100
AcDbLine
 10
38098.59462093079
 20
-1660.173320315161
 30
0.0
 11
38110.87443362035
 21
-1660.173014632905
 31
0.0
  0
LINE
  5
1E2
330
1F
100
AcDbEntity
  8
MTO-1200-410
  6
Continuous
 62
    18
420
        0
 48
134.9999961853027
370
    25
100
AcDbLine
 10
38110.87443362035
 20
-1660.173014632905
 30
0.0
 11
38123.38157457322
 21
-1678.385288939464
 31
0.0
  0
LINE
  5
1E3
330
1F
100
AcDbEntity
  8
MTO-1200-410
  6
Continuous
 62
    18
420
        0
 48
134.9999961853027
370
    25
100
AcDbLine
 10
38123.38157457322
 20
-1678.385288939464
 30
0.0
 11
38135.88926016304
 21
-1678.381310262739
 31
0.0
  0
LINE
  5
1E4
330
1F
100
AcDbEntity
  8
MTO-1200-410
  6
Continuous
 62
    18
420
        0
 48
134.9999961853027
370
    25
100
AcDbLine
 10
38135.88926016304
 20
-1678.381310262739
 30
0.0
 11
38123.06682245812
 21
-1660.051863101993
 31
0.0
  0
LINE
  5
1E5
330
1F
100
AcDbEntity
  8
MTO-1200-410
  6
Continuous
 62
    18
420
        0
 48
134.9999961853027
370
    25
100
AcDbLine
 10
38120.76545682447
 20
-1632.245374322539
 30
0.0
 11
38085.4475925579
 21
-1632.246176114958
 31
0.0
  0
LINE
  5
1E6
330
1F
100
AcDbEntity
  8
MTO-1200-410
  6
Continuous
 62
    18
420
        0
 48
134.9999961853027
370
    25
100
AcDbLine
 10
38085.4475925579
 20
-1632.246176114958
 30
0.0
 11
38085.44604041383
 21
-1678.385376743482
 31
0.0
  0
LINE
  5
1E7
330
1F
100
AcDbEntity
  8
MTO-1200-410
  6
Continuous
 62
    18
420
        0
 48
134.9999961853027
370
    25
100
AcDbLine
 10
37826.51481790668
 20
-1678.44808628892
 30
0.0
 11
37826.51065341611
 21
-1638.41436707801
 31
0.0
  0
LINE
  5
1E8
330
1F
100
AcDbEntity
  8
MTO-1200-410
  6
Continuous
 62
    18
420
        0
 48
134.9999961853027
370
    25
100
AcDbLine
 10
37838.73908550021
 20
-1635.415263211888
 30
0.0
 11
37855.13207777259
 21
-1662.799840633933
 31
0.0
  0
LINE
  5
1E9
330
1F
100
AcDbEntity
  8
MTO-1200-410
  6
Continuous
 62
    18
420
        0
 48
134.9999961853027
370
    25
100
AcDbLine
 10
37855.13207777259
 20
-1662.799840633933
 30
0.0
 11
37871.52220148927
 21
-1635.415221690119
 31
0.0
  0
LINE
  5
1EA
330
1F
100
AcDbEntity
  8
MTO-1200-410
  6
Continuous
 62
    18
420
        0
 48
134.9999961853027
370
    25
100
AcDbLine
 10
37883.74745131892
 20
-1638.412244901762
 30
0.0
 11
37883.75161585549
 21
-1678.446177277947
 31
0.0
  0
LINE
  5
1EB
330
1F
100
AcDbEntity
  8
MTO-1200-410
  6
Continuous
 62
    18
420
        0
 48
134.9999961853027
370
    25
100
AcDbLine
 10
37883.75161585549
 20
-1678.446177277947
 30
0.0
 11
37873.73476575972
 21
-1678.445994517639
 31
0.0
  0
LINE
  5
1EC
330
1F
100
AcDbEntity
  8
MTO-1200-410
  6
Continuous
 62
    18
420
        0
 48
134.9999961853027
370
    25
100
AcDbLine
 10
37873.73476575972
 20
-1678.445994517639
 30
0.0
 11
37873.73362840842
 21
-1651.449463677728
 31
0.0
  0
LINE
  5
1ED
330
1F
100
AcDbEntity
  8
MTO-1200-410
  6
Continuous
 62
    18
420
        0
 48
134.9999961853027
370
    25
100
AcDbLine
 10
37873.73362840842
 20
-1651.449463677728
 30
0.0
 11
37860.35337997427
 21
-1673.809979782787
 31
0.0
  0
LINE
  5
1EE
330
1F
100
AcDbEntity
  8
MTO-1200-410
  6
Continuous
 62
    18
420
        0
 48
134.9999961853027
370
    25
100
AcDbLine
 10
37849.91083955401
 20
-1673.813299548978
 30
0.0
 11
37836.530317992
 21
-1651.454083073395
 31
0.0
  0
LINE
  5
1EF
330
1F
100
AcDbEntity
  8
MTO-1200-410
  6
Continuous
 62
    18
420
        0
 48
134.9999961853027
370
    25
100
AcDbLine
 10
37836.530317992
 20
-1651.454083073395
 30
0.0
 11
37836.52932341445
 21
-1678.449335381732
 31
0.0
  0
LINE
  5
1F0
330
1F
100
AcDbEntity
  8
MTO-1200-410
  6
Continuous
 62
    18
420
        0
 48
134.9999961853027
370
    25
100
AcDbLine
 10
37836.52932341445
 20
-1678.449335381732
 30
0.0
 11
37826.51481790668
 21
-1678.44808628892
 31
0.0
  0
LINE
  5
1F1
330
1F
100
AcDbEntity
  8
MTO-1200-410
  6
Continuous
 62
    18
420
        0
 48
50.00000038146973
370
    25
100
AcDbLine
 10
37767.63831823199
 20
-1797.927826226041
 30
0.0
 11
38515.638318232
 21
-1797.927826226041
 31
0.0
  0
LINE
  5
1F2
330
1F
100
AcDbEntity
  8
MTO-1200-410
  6
Continuous
 62
    18
420
        0
 48
31.49606382846832
370
    25
100
AcDbLine
 10
37304.58466437845
 20
-980.2645284825709
 30
-2.5
 11
36004.58466437845
 21
-980.2645284825709
 31
-2.5
  0
LINE
  5
1F3
330
1F
100
AcDbEntity
  8
MTO-1200-410
  6
Continuous
 62
    18
420
        0
 48
50.00000038146973
370
    25
100
AcDbLine
 10
37504.58466437845
 20
-230.2645284825703
 30
-2.5
 11
37504.58466437845
 21
-780.2645284825708
 31
-2.5
  0
CIRCLE
  5
1F4
330
1F
100
AcDbEntity
  8
MTO-1200-410
  6
DASHED1
 62
    18
420
        0
 48
9.99999977350235
370
    25
100
AcDbCircle
 10
36654.58466437846
 20
-530.2645284825713
 30
0.0
 40
20.79538159370422
  0
CIRCLE
  5
1F5
330
1F
100
AcDbEntity
  8
MTO-1200-410
  6
Continuous
 62
    18
420
        0
 48
0.9999999962747097
370
    25
100
AcDbCircle
 10
36654.58466437846
 20
-530.2645284825713
 30
0.0
 40
38.99990310668925
  0
CIRCLE
  5
1F6
330
1F
100
AcDbEntity
  8
MTO-1200-410
  6
Continuous
 62
    18
420
        0
 48
0.9999999962747097
370
    25
100
AcDbCircle
 10
36654.58476127177
 20
-530.2645284825713
 30
0.0
 40
35.0000000000007
  0
ELLIPSE
  5
1F7
330
1F
100
AcDbEntity
  8
MTO-1200-410
  6
Continuous
 62
    18
420
        0
 48
25.00000019073486
370
    25
100
AcDbEllipse
 10
36654.58758196908
 20
-530.4998134645119
 30
0.0
 11
586.7694251987872
 21
0.0
 31
0.0
210
0.0
220
0.0
230
1.0
 40
0.3153698566246377
 41
0.0
 42
6.283185307179586
  0
ELLIPSE
  5
1F8
330
1F
100
AcDbEntity
  8
MTO-1200-410
  6
Continuous
 62
     9
420
 12237498
 48
25.00000019073486
370
    25
100
AcDbEllipse
 10
36654.58798191736
 20
-530.7360226579398
 30
0.0
 11
594.9436456833411
 21
0.0
 31
0.0
210
0.0
220
0.0
230
1.0
 40
0.3437624770256543
 41
0.0
 42
6.283185307179586
  0
ELLIPSE
  5
1F9
330
1F
100
AcDbEntity
  8
MTO-1200-410
  6
Continuous
 62
     9
420
 12237498
 48
25.00000019073486
370
    25
100
AcDbEllipse
 10
36654.58718202079
 20
-530.2636042710857
 30
0.0
 11
578.595204714233
 21
0.0
 31
0.0
210
0.0
220
0.0
230
1.0
 40
0.2861749912779282
 41
0.0
 42
6.283185307179586
  0
ARC
  5
1FA
330
1F
100
AcDbEntity
  8
MTO-1200-410
  6
Continuous
 62
    18
420
        0
 48
31.49606382846832
370
    25
100
AcDbCircle
 10
36687.58466437845
 20
-1079.947151273219
 30
-2.5
 40
2.00000000000024
100
AcDbArc
 50
0.0000000000103406
 51
87.62994982695278
  0
ARC
  5
1FB
330
1F
100
AcDbEntity
  8
MTO-1200-410
  6
Continuous
 62
    18
420
        0
 48
31.49606382846832
370
    25
100
AcDbCircle
 10
36621.58466437845
 20
-1079.947151273219
 30
-2.5
 40
2.00000000000061
100
AcDbArc
 50
92.3700501730468
 51
179.9999999999948
  0
ARC
  5
1FC
330
1F
100
AcDbEntity
  8
MTO-1200-410
  6
DASHED1
 62
    18
420
        0
 48
15.00000041723251
370
    25
100
AcDbCircle
 10
36654.58466437846
 20
-1877.264528482595
 30
-2.5
 40
800.000000000025
100
AcDbArc
 50
87.62994982692571
 51
92.37005017307429
  0
ARC
  5
1FD
330
1F
100
AcDbEntity
  8
MTO-1200-410
  6
DASHED1
 62
    18
420
        0
 48
15.00000041723251
370
    25
100
AcDbCircle
 10
36695.58466437845
 20
-1081.801787085077
 30
-2.5
 40
1.999999999998491
100
AcDbArc
 50
91.32710974114619
 51
179.9999999999897
  0
ARC
  5
1FE
330
1F
100
AcDbEntity
  8
MTO-1200-410
  6
Continuous
 62
    18
420
        0
 48
31.49606382846832
370
    25
100
AcDbCircle
 10
36613.58466437845
 20
-1081.802158079983
 30
-2.5
 40
1.999999999998881
100
AcDbArc
 50
359.9999999999535
 51
88.67236918079261
  0
ARC
  5
1FF
330
1F
100
AcDbEntity
  8
MTO-1200-410
  6
Continuous
 62
    18
420
        0
 48
31.49606382846832
370
    25
100
AcDbCircle
 10
36654.62064402684
 20
689.4845203408092
 30
-2.5
 40
1781.76196184108
100
AcDbArc
 50
250.916071859574
 51
268.1012437383196
  0
ARC
  5
200
330
1F
100
AcDbEntity
  8
MTO-1200-410
  6
Continuous
 62
    18
420
        0
 48
31.49606382846832
370
    25
100
AcDbCircle
 10
36654.62962586877
 20
689.0813434005868
 30
-2.5
 40
1781.356649705143
100
AcDbArc
 50
271.8965836141483
 51
289.0858679920162
  0
ARC
  5
201
330
1F
100
AcDbEntity
  8
MTO-1200-410
  6
DASHED1
 62
    18
420
        0
 48
15.00000041723251
370
    25
100
AcDbCircle
 10
36059.64433623402
 20
-1030.264528482571
 30
-2.5
 40
49.99999999999928
100
AcDbArc
 50
70.91607185957395
 51
90.0
  0
ARC
  5
202
330
1F
100
AcDbEntity
  8
MTO-1200-410
  6
DASHED1
 62
    18
420
        0
 48
15.00000041723251
370
    25
100
AcDbCircle
 10
37249.5316276007
 20
-1030.264528482573
 30
-2.5
 40
50.00000000000269
100
AcDbArc
 50
90.0
 51
109.0858679920163
  0
ARC
  5
203
330
1F
100
AcDbEntity
  8
MTO-1200-410
  6
Continuous
 62
    18
420
        0
 48
31.49606382846832
370
    25
100
AcDbCircle
 10
36059.64433623402
 20
-1030.264528482571
 30
-2.5
 40
38.00000000000016
100
AcDbArc
 50
70.91607185957402
 51
90.0
  0
ARC
  5
204
330
1F
100
AcDbEntity
  8
MTO-1200-410
  6
Continuous
 62
    18
420
        0
 48
25.00000019073486
370
    25
100
AcDbCircle
 10
37249.53162760071
 20
-1030.264528482563
 30
0.0
 40
37.999999999993
100
AcDbArc
 50
90.0
 51
109.0858679920164
  0
ARC
  5
205
330
1F
100
AcDbEntity
  8
MTO-1200-410
  6
DASHED1
 62
    18
420
        0
 48
15.00000041723251
370
    25
100
AcDbCircle
 10
37604.2672871691
 20
-563.26452848257
 30
0.0
 40
2.000000000000023
100
AcDbArc
 50
182.3700501730582
 51
270.0
  0
ARC
  5
206
330
1F
100
AcDbEntity
  8
MTO-1200-410
  6
DASHED1
 62
    18
420
        0
 48
15.00000041723251
370
    25
100
AcDbCircle
 10
37604.2672871691
 20
-497.2645284825688
 30
0.0
 40
1.999999999999737
100
AcDbArc
 50
90.0
 51
177.6299498268901
  0
ARC
  5
207
330
1F
100
AcDbEntity
  8
MTO-1200-410
  6
DASHED1
 62
    18
420
        0
 48
15.00000041723251
370
    25
100
AcDbCircle
 10
38401.58466437845
 20
-530.2645284825703
 30
0.0
 40
799.9999999999965
100
AcDbArc
 50
177.6299498269258
 51
182.3700501730742
  0
ARC
  5
208
330
1F
100
AcDbEntity
  8
MTO-1200-410
  6
Continuous
 62
    18
420
        0
 48
31.49606382846832
370
    25
100
AcDbCircle
 10
37394.65494072745
 20
-530.155690646202
 30
0.0
 40
221.911779610849
100
AcDbArc
 50
15.38959100808137
 51
52.02459846409473
  0
ARC
  5
209
330
1F
100
AcDbEntity
  8
MTO-1200-410
  6
Continuous
 62
    18
420
        0
 48
31.49606382846832
370
    25
100
AcDbCircle
 10
37394.64036267078
 20
-530.3638199295762
 30
0.0
 40
221.9282748800076
100
AcDbArc
 50
307.9766398077808
 51
344.609024901761
  0
ARC
  5
20A
330
1F
100
AcDbEntity
  8
MTO-1200-410
  6
DASHED1
 62
    18
420
        0
 48
15.00000041723251
370
    25
100
AcDbCircle
 10
37394.5699744017
 20
-530.2184364920712
 30
0.0
 40
210.0135232337358
100
AcDbArc
 50
11.13763487675798
 51
52.01834729766958
  0
ARC
  5
20B
330
1F
100
AcDbEntity
  8
MTO-1200-410
  6
DASHED1
 62
    18
420
        0
 48
15.00000041723251
370
    25
100
AcDbCircle
 10
37394.60808420507
 20
-530.334046115282
 30
0.0
 40
209.9716067751512
100
AcDbArc
 50
307.9782096305304
 51
348.8665879872296
  0
ARC
  5
20C
330
1F
100
AcDbEntity
  8
MTO-1200-410
  6
DASHED1
 62
    18
420
        0
 48
15.00000041723251
370
    25
100
AcDbCircle
 10
37554.58466437845
 20
-325.2737335693985
 30
0.0
 40
49.99999999999972
100
AcDbArc
 50
179.9999999999992
 51
232.0183472976659
  0
ARC
  5
20D
330
1F
100
AcDbEntity
  8
MTO-1200-410
  6
DASHED1
 62
    18
420
        0
 48
15.00000041723251
370
    25
100
AcDbCircle
 10
37554.58466437845
 20
-735.2553239887186
 30
0.0
 40
50.00000000000002
100
AcDbArc
 50
127.9782096305314
 51
179.9999999999999
  0
ARC
  5
20E
330
1F
100
AcDbEntity
  8
MTO-1200-410
  6
Continuous
 62
    18
420
        0
 48
31.49606382846832
370
    25
100
AcDbCircle
 10
37554.58466437845
 20
-735.2553239831628
 30
0.0
 40
37.99999999999871
100
AcDbArc
 50
127.9766398077826
 51
180.0000000000041
  0
ARC
  5
20F
330
1F
100
AcDbEntity
  8
MTO-1200-410
  6
Continuous
 62
    18
420
        0
 48
31.49606382846832
370
    25
100
AcDbCircle
 10
37554.58466437845
 20
-325.2737327450949
 30
0.0
 40
37.99999999999861
100
AcDbArc
 50
179.9999999999957
 51
232.0245984640919
  0
ARC
  5
210
330
1F
100
AcDbEntity
  8
MTO-1200-410
  6
DASHED1
 62
    18
420
        0
 48
15.00000041723251
370
    25
100
AcDbCircle
 10
37602.5904336184
 20
-489.2645284825678
 30
0.0
 40
2.000000000001379
100
AcDbArc
 50
191.1376348767688
 51
270.0
  0
ARC
  5
211
330
1F
100
AcDbEntity
  8
MTO-1200-410
  6
DASHED1
 62
    18
420
        0
 48
15.00000041723251
370
    25
100
AcDbCircle
 10
37602.59043367737
 20
-571.2645284825695
 30
0.0
 40
1.999999999998791
100
AcDbArc
 50
90.0
 51
168.8665879872412
  0
ARC
  5
212
330
1F
100
AcDbEntity
  8
MTO-1200-410
  6
Continuous
 62
   250
420
   986895
 48
30.00000083446503
370
    25
100
AcDbCircle
 10
36082.49685097757
 20
-1602.931482734688
 30
0.0
 40
5.999999999995813
100
AcDbArc
 50
94.52592625980786
 51
135.0
  0
ARC
  5
213
330
1F
100
AcDbEntity
  8
MTO-1200-410
  6
Continuous
 62
   250
420
   986895
 48
30.00000083446503
370
    25
100
AcDbCircle
 10
35939.36230867764
 20
-1602.934262076835
 30
0.0
 40
6.000000000003936
100
AcDbArc
 50
45.0
 51
85.47629934644826
  0
ARC
  5
214
330
1F
100
AcDbEntity
  8
MTO-1200-410
  6
Continuous
 62
    18
420
        0
 48
100.0000007629395
370
    25
100
AcDbCircle
 10
36010.9281901565
 20
-2104.139862181371
 30
0.0
 40
530.1249999998774
100
AcDbArc
 50
82.95709324615424
 51
97.04290675384577
  0
ARC
  5
215
330
1F
100
AcDbEntity
  8
MTO-1200-410
  6
Continuous
 62
    18
420
        0
 48
30.00000083446503
370
    25
100
AcDbCircle
 10
36430.79779121275
 20
-1633.759640576799
 30
0.0
 40
9.99999999999845
100
AcDbArc
 50
179.9999999999876
 51
270.0
  0
ARC
  5
216
330
1F
100
AcDbEntity
  8
MTO-1200-410
  6
Continuous
 62
    18
420
        0
 48
30.00000083446503
370
    25
100
AcDbCircle
 10
36566.79779121277
 20
-1633.759640576799
 30
0.0
 40
9.999999999998447
100
AcDbArc
 50
270.0
 51
0.0000000000124169
  0
ARC
  5
217
330
1F
100
AcDbEntity
  8
MTO-1200-410
  6
Continuous
 62
    18
420
        0
 48
30.00000083446503
370
    25
100
AcDbCircle
 10
36918.66739226898
 20
-1643.75964057683
 30
0.0
 40
9.999999999997545
100
AcDbArc
 50
180.0
 51
270.0
  0
ARC
  5
218
330
1F
100
AcDbEntity
  8
MTO-1200-410
  6
Continuous
 62
    18
420
        0
 48
30.00000083446503
370
    25
100
AcDbCircle
 10
37054.667392269
 20
-1643.75964057683
 30
0.0
 40
9.999999999997545
100
AcDbArc
 50
270.0
 51
0.0
  0
ARC
  5
219
330
1F
100
AcDbEntity
  8
MTO-1200-410
  6
Continuous
 62
   250
420
   986895
 48
30.00000083446503
370
    25
100
AcDbCircle
 10
36010.9281901565
 20
-698.7961726782297
 30
0.0
 40
900.9634678985719
100
AcDbArc
 50
274.5259262597905
 51
282.8256239106193
  0
ARC
  5
21A
330
1F
100
AcDbEntity
  8
MTO-1200-410
  6
Continuous
 62
   250
420
   986895
 48
1.999999992549419
370
    25
100
AcDbCircle
 10
36010.93360057873
 20
-698.7601422832877
 30
0.0
 40
924.9970076465684
100
AcDbArc
 50
276.517578075469
 51
282.4865876116818
  0
ARC
  5
21B
330
1F
100
AcDbEntity
  8
MTO-1200-410
  6
Continuous
 62
   250
420
   986895
 48
30.00000083446503
370
    25
100
AcDbCircle
 10
36010.89584907135
 20
-698.7961726782528
 30
0.0
 40
900.963467898566
100
AcDbArc
 50
257.1764854034744
 51
265.4762993464273
  0
ARC
  5
21C
330
1F
100
AcDbEntity
  8
MTO-1200-410
  6
Continuous
 62
   250
420
   986895
 48
1.999999992549419
370
    25
100
AcDbCircle
 10
36010.89043864913
 20
-698.7601422833104
 30
0.0
 40
924.9970076465598
100
AcDbArc
 50
257.5154641699237
 51
263.4844382096295
  0
ARC
  5
21D
330
1F
100
AcDbEntity
  8
MTO-1200-410
  6
Continuous
 62
   250
420
   986895
 48
30.00000083446503
370
    25
100
AcDbCircle
 10
36498.79779121276
 20
-698.7961726782296
 30
0.0
 40
900.9634678985705
100
AcDbArc
 50
275.198781019442
 51
282.8256239106197
  0
ARC
  5
21E
330
1F
100
AcDbEntity
  8
MTO-1200-410
  6
Continuous
 62
   250
420
   986895
 48
1.999999992549419
370
    25
100
AcDbCircle
 10
36498.80320163498
 20
-698.7601422832872
 30
0.0
 40
924.9970076465684
100
AcDbArc
 50
276.517578075469
 51
282.4865876116818
  0
ARC
  5
21F
330
1F
100
AcDbEntity
  8
MTO-1200-410
  6
Continuous
 62
   250
420
   986895
 48
30.00000083446503
370
    25
100
AcDbCircle
 10
36498.76545012755
 20
-698.7961726782528
 30
0.0
 40
900.9634678985651
100
AcDbArc
 50
257.1764854034744
 51
264.8032750401348
  0
ARC
  5
220
330
1F
100
AcDbEntity
  8
MTO-1200-410
  6
Continuous
 62
   250
420
   986895
 48
1.999999992549419
370
    25
100
AcDbCircle
 10
36498.76003970538
 20
-698.7601422832873
 30
0.0
 40
924.9970076465598
100
AcDbArc
 50
257.5154641699237
 51
263.4844382096295
  0
ARC
  5
221
330
1F
100
AcDbEntity
  8
MTO-1200-410
  6
Continuous
 62
   250
420
   986895
 48
1.999999992549419
370
    25
100
AcDbCircle
 10
36416.79779121274
 20
-1600.039858438661
 30
0.0
 40
3.999999999999415
100
AcDbArc
 50
359.9999999999949
 51
84.80327504014411
  0
ARC
  5
222
330
1F
100
AcDbEntity
  8
MTO-1200-410
  6
Continuous
 62
    18
420
        0
 48
100.0000007629395
370
    25
100
AcDbCircle
 10
36432.79779121274
 20
-1600.759640576811
 30
0.0
 40
3.999999999999542
100
AcDbArc
 50
90.0
 51
180.0000000000078
  0
ARC
  5
223
330
1F
100
AcDbEntity
  8
MTO-1200-410
  6
Continuous
 62
   250
420
   986895
 48
1.999999992549419
370
    25
100
AcDbCircle
 10
36580.79779121278
 20
-1600.036916448184
 30
0.0
 40
3.999999999999721
100
AcDbArc
 50
95.19878101941426
 51
180.0000000000078
  0
ARC
  5
224
330
1F
100
AcDbEntity
  8
MTO-1200-410
  6
Continuous
 62
    18
420
        0
 48
100.0000007629395
370
    25
100
AcDbCircle
 10
36564.79779121278
 20
-1600.759640576811
 30
0.0
 40
3.999999999999542
100
AcDbArc
 50
359.9999999999923
 51
90.0
  0
ARC
  5
225
330
1F
100
AcDbEntity
  8
MTO-1200-410
  6
Continuous
 62
   250
420
   986895
 48
30.00000083446503
370
    25
100
AcDbCircle
 10
36498.79779121276
 20
-3774.25950983338
 30
0.0
 40
2178.499869316603
100
AcDbArc
 50
88.263896996332
 51
91.736103003668
  0
ARC
  5
226
330
1F
100
AcDbEntity
  8
MTO-1200-410
  6
Continuous
 62
   250
420
   986895
 48
30.00000083446503
370
    25
100
AcDbCircle
 10
36986.66739226894
 20
-698.7961726782526
 30
0.0
 40
900.9634678985722
100
AcDbArc
 50
275.1987810194427
 51
282.8256239106204
  0
ARC
  5
227
330
1F
100
AcDbEntity
  8
MTO-1200-410
  6
Continuous
 62
   250
420
   986895
 48
1.999999992549419
370
    25
100
AcDbCircle
 10
36986.67280269116
 20
-698.7601422833103
 30
0.0
 40
924.9970076465684
100
AcDbArc
 50
276.517578075469
 51
282.4865876116818
  0
ARC
  5
228
330
1F
100
AcDbEntity
  8
MTO-1200-410
  6
Continuous
 62
   250
420
   986895
 48
30.00000083446503
370
    25
100
AcDbCircle
 10
36986.63505118378
 20
-698.7961726782528
 30
0.0
 40
900.9634678985651
100
AcDbArc
 50
257.1764854034744
 51
264.8032750401348
  0
ARC
  5
229
330
1F
100
AcDbEntity
  8
MTO-1200-410
  6
Continuous
 62
   250
420
   986895
 48
1.999999992549419
370
    25
100
AcDbCircle
 10
36986.62964076157
 20
-698.7601422833104
 30
0.0
 40
924.9970076465598
100
AcDbArc
 50
257.5154641699237
 51
263.4844382096295
  0
ARC
  5
22A
330
1F
100
AcDbEntity
  8
MTO-1200-410
  6
Continuous
 62
   250
420
   986895
 48
1.999999992549419
370
    25
100
AcDbCircle
 10
36904.66739226897
 20
-1600.039858438683
 30
0.0
 40
3.999999999999775
100
AcDbArc
 50
359.9999999999794
 51
84.80327504014463
  0
ARC
  5
22B
330
1F
100
AcDbEntity
  8
MTO-1200-410
  6
Continuous
 62
    18
420
        0
 48
100.0000007629395
370
    25
100
AcDbCircle
 10
36920.66739226897
 20
-1600.759640576811
 30
0.0
 40
3.999999999999541
100
AcDbArc
 50
90.0
 51
180.0000000000181
  0
ARC
  5
22C
330
1F
100
AcDbEntity
  8
MTO-1200-410
  6
Continuous
 62
   250
420
   986895
 48
1.999999992549419
370
    25
100
AcDbCircle
 10
37068.66739226896
 20
-1600.036916448207
 30
0.0
 40
3.999999999999685
100
AcDbArc
 50
95.1987810194145
 51
180.0
  0
ARC
  5
22D
330
1F
100
AcDbEntity
  8
MTO-1200-410
  6
Continuous
 62
    18
420
        0
 48
100.0000007629395
370
    25
100
AcDbCircle
 10
37052.66739226896
 20
-1600.759640576811
 30
0.0
 40
3.999999999999543
100
AcDbArc
 50
359.9999999999845
 51
90.0
  0
ARC
  5
22E
330
1F
100
AcDbEntity
  8
MTO-1200-410
  6
Continuous
 62
   250
420
   986895
 48
30.00000083446503
370
    25
100
AcDbCircle
 10
36986.66739226899
 20
-3774.259509833403
 30
0.0
 40
2178.499869316603
100
AcDbArc
 50
88.263896996332
 51
91.736103003668
  0
ARC
  5
22F
330
1F
100
AcDbEntity
  8
MTO-1200-410
  6
Continuous
 62
    18
420
        0
 48
30.00000083446503
370
    25
100
AcDbCircle
 10
37406.53699332521
 20
-1657.75964057683
 30
0.0
 40
9.999999999997726
100
AcDbArc
 50
180.0
 51
270.0
  0
ARC
  5
230
330
1F
100
AcDbEntity
  8
MTO-1200-410
  6
Continuous
 62
    18
420
        0
 48
30.00000083446503
370
    25
100
AcDbCircle
 10
37542.53699332522
 20
-1657.75964057683
 30
0.0
 40
9.999999999997726
100
AcDbArc
 50
270.0
 51
0.0
  0
ARC
  5
231
330
1F
100
AcDbEntity
  8
MTO-1200-410
  6
Continuous
 62
   250
420
   986895
 48
30.00000083446503
370
    25
100
AcDbCircle
 10
37474.53699332517
 20
-698.7961726782526
 30
0.0
 40
900.9634678985722
100
AcDbArc
 50
275.1987810194427
 51
282.8256239106204
  0
ARC
  5
232
330
1F
100
AcDbEntity
  8
MTO-1200-410
  6
Continuous
 62
   250
420
   986895
 48
1.999999992549419
370
    25
100
AcDbCircle
 10
37474.54240374739
 20
-698.7601422833103
 30
0.0
 40
924.9970076465684
100
AcDbArc
 50
276.517578075469
 51
282.4865876116818
  0
ARC
  5
233
330
1F
100
AcDbEntity
  8
MTO-1200-410
  6
Continuous
 62
   250
420
   986895
 48
30.00000083446503
370
    25
100
AcDbCircle
 10
37474.50465224001
 20
-698.7961726782528
 30
0.0
 40
900.9634678985651
100
AcDbArc
 50
257.1764854034744
 51
264.8032750401348
  0
ARC
  5
234
330
1F
100
AcDbEntity
  8
MTO-1200-410
  6
Continuous
 62
   250
420
   986895
 48
1.999999992549419
370
    25
100
AcDbCircle
 10
37474.49924181779
 20
-698.7601422833104
 30
0.0
 40
924.9970076465598
100
AcDbArc
 50
257.5154641699237
 51
263.4844382096295
  0
ARC
  5
235
330
1F
100
AcDbEntity
  8
MTO-1200-410
  6
Continuous
 62
   250
420
   986895
 48
1.999999992549419
370
    25
100
AcDbCircle
 10
37392.5369933252
 20
-1600.039858438683
 30
0.0
 40
3.999999999999775
100
AcDbArc
 50
359.9999999999794
 51
84.80327504014463
  0
ARC
  5
236
330
1F
100
AcDbEntity
  8
MTO-1200-410
  6
Continuous
 62
    18
420
        0
 48
100.0000007629395
370
    25
100
AcDbCircle
 10
37408.5369933252
 20
-1600.759640576811
 30
0.0
 40
3.999999999999541
100
AcDbArc
 50
90.0
 51
180.0000000000181
  0
ARC
  5
237
330
1F
100
AcDbEntity
  8
MTO-1200-410
  6
Continuous
 62
   250
420
   986895
 48
1.999999992549419
370
    25
100
AcDbCircle
 10
37556.53699332519
 20
-1600.036916448207
 30
0.0
 40
3.999999999999685
100
AcDbArc
 50
95.1987810194145
 51
180.0
  0
ARC
  5
238
330
1F
100
AcDbEntity
  8
MTO-1200-410
  6
Continuous
 62
    18
420
        0
 48
100.0000007629395
370
    25
100
AcDbCircle
 10
37540.53699332519
 20
-1600.759640576811
 30
0.0
 40
3.999999999999543
100
AcDbArc
 50
359.9999999999845
 51
90.0
  0
ARC
  5
239
330
1F
100
AcDbEntity
  8
MTO-1200-410
  6
Continuous
 62
   250
420
   986895
 48
30.00000083446503
370
    25
100
AcDbCircle
 10
37474.53699332522
 20
-3774.259509833403
 30
0.0
 40
2178.499869316603
100
AcDbArc
 50
88.263896996332
 51
91.736103003668
  0
ARC
  5
23A
330
1F
100
AcDbEntity
  8
MTO-1200-410
  6
Continuous
 62
    18
420
        0
 48
134.9999961853027
370
    25
100
AcDbCircle
 10
37928.28700121518
 20
-1655.287287461957
 30
0.0
 40
37.55398438214829
100
AcDbArc
 50
37.92296160428458
 51
142.0844570672994
  0
ARC
  5
23B
330
1F
100
AcDbEntity
  8
MTO-1200-410
  6
Continuous
 62
    18
420
        0
 48
134.9999961853027
370
    25
100
AcDbCircle
 10
37928.28143999368
 20
-1655.296119846849
 30
0.0
 40
37.55611059183879
100
AcDbArc
 50
158.3926594911999
 51
173.0089805633584
  0
ARC
  5
23C
330
1F
100
AcDbEntity
  8
MTO-1200-410
  6
Continuous
 62
    18
420
        0
 48
134.9999961853027
370
    25
100
AcDbCircle
 10
37928.30480309022
 20
-1655.285064398388
 30
0.0
 40
37.53643020333
100
AcDbArc
 50
6.981142041195228
 51
21.59749032313828
  0
ARC
  5
23D
330
1F
100
AcDbEntity
  8
MTO-1200-410
  6
Continuous
 62
    18
420
        0
 48
134.9999961853027
370
    25
100
AcDbCircle
 10
37928.29885735233
 20
-1655.276600174906
 30
0.0
 40
37.57211143798229
100
AcDbArc
 50
186.9964645332871
 51
201.6127039760929
  0
ARC
  5
23E
330
1F
100
AcDbEntity
  8
MTO-1200-410
  6
Continuous
 62
    18
420
        0
 48
134.9999961853027
370
    25
100
AcDbCircle
 10
37928.27888431495
 20
-1655.278684258963
 30
0.0
 40
37.56504125774282
100
AcDbArc
 50
338.396134446184
 51
353.0124555183428
  0
ARC
  5
23F
330
1F
100
AcDbEntity
  8
MTO-1200-410
  6
Continuous
 62
    18
420
        0
 48
134.9999961853027
370
    25
100
AcDbCircle
 10
37928.28619782838
 20
-1655.288665171537
 30
0.0
 40
37.55697965863395
100
AcDbArc
 50
217.9190317150164
 51
322.0809682849819
  0
ARC
  5
240
330
1F
100
AcDbEntity
  8
MTO-1200-410
  6
Continuous
 62
    18
420
        0
 48
134.9999961853027
370
    25
100
AcDbCircle
 10
38008.5749355045
 20
-1664.504263645424
 30
0.0
 40
13.95713381799809
100
AcDbArc
 50
268.4355638780454
 51
91.57954040753705
  0
ARC
  5
241
330
1F
100
AcDbEntity
  8
MTO-1200-410
  6
Continuous
 62
    18
420
        0
 48
134.9999961853027
370
    25
100
AcDbCircle
 10
37985.67303773062
 20
-1646.202485674451
 30
0.0
 40
4.373415372430031
100
AcDbArc
 50
99.0871609740975
 51
263.6770323930704
  0
ARC
  5
242
330
1F
100
AcDbEntity
  8
MTO-1200-410
  6
Continuous
 62
    18
420
        0
 48
134.9999961853027
370
    25
100
AcDbCircle
 10
37984.60182745875
 20
-1646.218406405474
 30
0.0
 40
13.94785666080401
100
AcDbArc
 50
88.43570681812285
 51
271.5793910633275
  0
ARC
  5
243
330
1F
100
AcDbEntity
  8
MTO-1200-410
  6
Continuous
 62
    18
420
        0
 48
134.9999961853027
370
    25
100
AcDbCircle
 10
38007.50198204561
 20
-1664.526315716919
 30
0.0
 40
4.375114513013793
100
AcDbArc
 50
279.0717992649402
 51
83.66033837570173
  0
ARC
  5
244
330
1F
100
AcDbEntity
  8
MTO-1200-410
  6
Continuous
 62
    18
420
        0
 48
134.9999961853027
370
    25
100
AcDbCircle
 10
38049.16009150116
 20
-1656.530116989663
 30
0.0
 40
12.31997136940597
100
AcDbArc
 50
196.5322763668857
 51
266.8258399252974
  0
ARC
  5
245
330
1F
100
AcDbEntity
  8
MTO-1200-410
  6
Continuous
 62
    18
420
        0
 48
134.9999961853027
370
    25
100
AcDbCircle
 10
38049.16176524839
 20
-1653.931490176228
 30
0.0
 40
12.31982140004576
100
AcDbArc
 50
93.1994122908088
 51
163.4930068869717
  0
ARC
  5
246
330
1F
100
AcDbEntity
  8
MTO-1200-410
  6
Continuous
 62
    18
420
        0
 48
134.9999961853027
370
    25
100
AcDbCircle
 10
38048.14498963591
 20
-1653.637120958181
 30
0.0
 40
21.61704243114226
100
AcDbArc
 50
89.11486442916687
 51
136.5283713875571
  0
ARC
  5
247
330
1F
100
AcDbEntity
  8
MTO-1200-410
  6
Continuous
 62
    18
420
        0
 48
134.9999961853027
370
    25
100
AcDbCircle
 10
38049.88980542509
 20
-1653.833631908782
 30
0.0
 40
23.04277337332432
100
AcDbArc
 50
139.1595473476369
 51
183.4766818662659
  0
ARC
  5
248
330
1F
100
AcDbEntity
  8
MTO-1200-410
  6
Continuous
 62
    18
420
        0
 48
134.9999961853027
370
    25
100
AcDbCircle
 10
38049.89021990123
 20
-1656.628063508014
 30
0.0
 40
23.04316873491946
100
AcDbArc
 50
176.5241317976972
 51
220.8411051562291
  0
ARC
  5
249
330
1F
100
AcDbEntity
  8
MTO-1200-410
  6
Continuous
 62
    18
420
        0
 48
134.9999961853027
370
    25
100
AcDbCircle
 10
38048.14412609424
 20
-1656.823398585841
 30
0.0
 40
21.61733102982757
100
AcDbArc
 50
223.4768675460031
 51
270.8902371222273
  0
ARC
  5
24A
330
1F
100
AcDbEntity
  8
MTO-1200-410
  6
Continuous
 62
    18
420
        0
 48
134.9999961853027
370
    25
100
AcDbCircle
 10
38120.0765338164
 20
-1646.200446396757
 30
0.0
 40
4.372361139090782
100
AcDbArc
 50
279.0895312175839
 51
83.67533595583595
  0
ARC
  5
24B
330
1F
100
AcDbEntity
  8
MTO-1200-410
  6
Continuous
 62
    18
420
        0
 48
134.9999961853027
370
    25
100
AcDbCircle
 10
38121.29221974525
 20
-1647.4365840297
 30
0.0
 40
12.7394851097002
100
AcDbArc
 50
278.007307950625
 51
5.572465930760586
  0
ARC
  5
24C
330
1F
100
AcDbEntity
  8
MTO-1200-410
  6
Continuous
 62
    18
420
        0
 48
134.9999961853027
370
    25
100
AcDbCircle
 10
38121.29536706871
 20
-1644.969970379416
 30
0.0
 40
12.7356252173813
100
AcDbArc
 50
354.4597953776603
 51
92.38467978670954
  0
ARC
  5
24D
330
1F
100
AcDbEntity
  8
MTO-1200-410
  6
Continuous
 62
    18
420
        0
 48
134.9999961853027
370
    25
100
AcDbCircle
 10
37832.95755447205
 20
-1638.271292372588
 30
0.0
 40
6.448488473775077
100
AcDbArc
 50
26.28899618673575
 51
181.2713443682059
  0
ARC
  5
24E
330
1F
100
AcDbEntity
  8
MTO-1200-410
  6
Continuous
 62
    18
420
        0
 48
134.9999961853027
370
    25
100
AcDbCircle
 10
37877.3023173523
 20
-1638.270081225761
 30
0.0
 40
6.446701665065165
100
AcDbArc
 50
358.7364020576921
 51
153.7147532945632
  0
ARC
  5
24F
330
1F
100
AcDbEntity
  8
MTO-1200-410
  6
Continuous
 62
    18
420
        0
 48
134.9999961853027
370
    25
100
AcDbCircle
 10
37855.13135493016
 20
-1671.437260329744
 30
0.0
 40
5.735794902544429
100
AcDbArc
 50
204.4719426219853
 51
335.5644869397248
  0
TEXT
  5
251
330
1F
100
AcDbEntity
  8
MTO-1200-410
  6
Continuous
 62
    18
420
        0
 48
100.0000007629395
370
    25
100
AcDbText
 10
35807.65384767958
 20
-1445.902422391008
 30
0.0
 40
24.0
  1
Ablaufvariante 1
 41
0.8125
  7
CENTURY GOTHIC
100
AcDbText
  0
TEXT
  5
252
330
1F
100
AcDbEntity
  8
MTO-1200-410
  6
Continuous
 62
    18
420
        0
 48
100.0000007629395
370
    25
100
AcDbText
 10
35818.08794556717
 20
-1483.261794951604
 30
0.0
 40
16.0
  1
Clouablauf mit Chromdeckel
 41
0.8125
  7
CENTURY GOTHIC
100
AcDbText
  0
TEXT
  5
253
330
1F
100
AcDbEntity
  8
MTO-1200-410
  6
Continuous
 62
    18
420
        0
 48
100.0000007629395
370
    25
100
AcDbText
 10
35818.08794556717
 20
-1508.261794951592
 30
0.0
 40
16.0
  1
Deckel steht zu Beckenboden vor
 41
0.8125
  7
CENTURY GOTHIC
100
AcDbText
  0
TEXT
  5
254
330
1F
100
AcDbEntity
  8
MTO-1200-410
  6
Continuous
 62
    18
420
        0
 48
100.0000007629395
370
    25
100
AcDbText
 10
35818.08794556717
 20
-1533.261794951604
 30
0.0
 40
16.0
  1
Ablauf ist über Clou verschließbar
 41
0.8125
  7
CENTURY GOTHIC
100
AcDbText
  0
TEXT
  5
255
330
1F
100
AcDbEntity
  8
MTO-1200-410
  6
Continuous
 62
    18
420
        0
 48
100.0000007629395
370
    25
100
AcDbText
 10
35818.08794556717
 20
-1558.261794951592
 30
0.0
 40
16.0
  1
Becken ohne Überlauf
 41
0.8125
  7
CENTURY GOTHIC
100
AcDbText
  0
TEXT
  5
256
330
1F
100
AcDbEntity
  8
MTO-1200-410
  6
Continuous
 62
    18
420
        0
 48
100.0000007629395
370
    25
100
AcDbText
 10
36295.52344873582
 20
-1445.902422390984
 30
0.0
 40
24.0
  1
Ablaufvariante 2
 41
0.8125
  7
CENTURY GOTHIC
100
AcDbText
  0
TEXT
  5
257
330
1F
100
AcDbEntity
  8
MTO-1200-410
  6
Continuous
 62
    18
420
        0
 48
100.0000007629395
370
    25
100
AcDbText
 10
36305.95754662342
 20
-1483.261794951604
 30
0.0
 40
16.0
  1
Clouablauf mit Coriandeckel
 41
0.8125
  7
CENTURY GOTHIC
100
AcDbText
  0
TEXT
  5
258
330
1F
100
AcDbEntity
  8
MTO-1200-410
  6
Continuous
 62
    18
420
        0
 48
100.0000007629395
370
    25
100
AcDbText
 10
36305.95754662342
 20
-1508.261794951592
 30
0.0
 40
16.0
  1
Deckel ist mit Beckenboden bündig
 41
0.8125
  7
CENTURY GOTHIC
100
AcDbText
  0
TEXT
  5
259
330
1F
100
AcDbEntity
  8
MTO-1200-410
  6
Continuous
 62
    18
420
        0
 48
100.0000007629395
370
    25
100
AcDbText
 10
36305.95754662342
 20
-1533.261794951581
 30
0.0
 40
16.0
  1
Ablauf ist über Clou verschließbar
 41
0.8125
  7
CENTURY GOTHIC
100
AcDbText
  0
TEXT
  5
25A
330
1F
100
AcDbEntity
  8
MTO-1200-410
  6
Continuous
 62
    18
420
        0
 48
100.0000007629395
370
    25
100
AcDbText
 10
36305.95754662342
 20
-1558.261794951592
 30
0.0
 40
16.0
  1
Becken ohne Überlauf
 41
0.8125
  7
CENTURY GOTHIC
100
AcDbText
  0
TEXT
  5
25B
330
1F
100
AcDbEntity
  8
MTO-1200-410
  6
Continuous
 62
    18
420
        0
 48
100.0000007629395
370
    25
100
AcDbText
 10
36783.39304979201
 20
-1445.902422391008
 30
0.0
 40
24.0
  1
Ablaufvariante 3
 41
0.8125
  7
CENTURY GOTHIC
100
AcDbText
  0
TEXT
  5
25C
330
1F
100
AcDbEntity
  8
MTO-1200-410
  6
Continuous
 62
    18
420
        0
 48
100.0000007629395
370
    25
100
AcDbText
 10
36793.82714767961
 20
-1483.261794951604
 30
0.0
 40
16.0
  1
Ablauf ASW (107503) mit Coriandeckel
 41
0.8125
  7
CENTURY GOTHIC
100
AcDbText
  0
TEXT
  5
25D
330
1F
100
AcDbEntity
  8
MTO-1200-410
  6
Continuous
 62
    18
420
        0
 48
100.0000007629395
370
    25
100
AcDbText
 10
36793.82714767961
 20
-1508.261794951592
 30
0.0
 40
16.0
  1
Deckel ist mit Beckenboden bündig
 41
0.8125
  7
CENTURY GOTHIC
100
AcDbText
  0
TEXT
  5
25E
330
1F
100
AcDbEntity
  8
MTO-1200-410
  6
Continuous
 62
    18
420
        0
 48
100.0000007629395
370
    25
100
AcDbText
 10
36793.82714767961
 20
-1533.261794951604
 30
0.0
 40
16.0
  1
Ablauf ist nicht verschließbar
 41
0.8125
  7
CENTURY GOTHIC
100
AcDbText
  0
TEXT
  5
25F
330
1F
100
AcDbEntity
  8
MTO-1200-410
  6
Continuous
 62
    18
420
        0
 48
100.0000007629395
370
    25
100
AcDbText
 10
36793.82714767961
 20
-1558.261794951616
 30
0.0
 40
16.0
  1
Becken ohne Überlauf
 41
0.8125
  7
CENTURY GOTHIC
100
AcDbText
  0
TEXT
  5
260
330
1F
100
AcDbEntity
  8
MTO-1200-410
  6
Continuous
 62
    12
420
 14745600
 48
100.0000007629395
370
    18
100
AcDbText
 10
36170.57765710411
 20
-1636.416784162303
 30
0.0
 40
4.800000617980957
  1
19,0
 50
90.0
 41
0.65
  7
ROMAN
100
AcDbText
  0
TEXT
  5
261
330
1F
100
AcDbEntity
  8
MTO-1200-410
  6
Continuous
 62
    12
420
 14745600
 48
100.0000007629395
370
    18
100
AcDbText
 10
36665.02106474269
 20
-1636.41678416228
 30
0.0
 40
4.800000617980957
  1
19,0
 50
90.0
 41
0.65
  7
ROMAN
100
AcDbText
  0
TEXT
  5
262
330
1F
100
AcDbEntity
  8
MTO-1200-410
  6
Continuous
 62
    12
420
 14745600
 48
100.0000007629395
370
    18
100
AcDbText
 10
36665.02106474269
 20
-1667.416784162301
 30
0.0
 40
4.800000617980957
  1
12,0
 50
90.0
 41
0.65
  7
ROMAN
100
AcDbText
  0
TEXT
  5
263
330
1F
100
AcDbEntity
  8
MTO-1200-410
  6
Continuous
 62
    12
420
 14745600
 48
100.0000007629395
370
    18
100
AcDbText
 10
37172.04678472547
 20
-1636.416784162303
 30
0.0
 40
4.800000617980957
  1
19,0
 50
90.0
 41
0.65
  7
ROMAN
100
AcDbText
  0
TEXT
  5
264
330
1F
100
AcDbEntity
  8
MTO-1200-410
  6
Continuous
 62
    12
420
 14745600
 48
100.0000007629395
370
    18
100
AcDbText
 10
37172.04678472547
 20
-1667.416784162301
 30
0.0
 40
4.800000617980957
  1
12,0
 50
90.0
 41
0.65
  7
ROMAN
100
AcDbText
  0
TEXT
  5
265
330
1F
100
AcDbEntity
  8
MTO-1200-410
  6
Continuous
 62
    18
420
        0
 48
100.0000007629395
370
    25
100
AcDbText
 10
37271.26265084824
 20
-1445.902422391008
 30
0.0
 40
24.0
  1
Ablaufvariante 4
 41
0.8125
  7
CENTURY GOTHIC
100
AcDbText
  0
TEXT
  5
266
330
1F
100
AcDbEntity
  8
MTO-1200-410
  6
Continuous
 62
    18
420
        0
 48
100.0000007629395
370
    25
100
AcDbText
 10
37281.69674873583
 20
-1483.261794951604
 30
0.0
 40
16.0
  1
Ablauf ASW (105509) mit Coriandeckel
 41
0.8125
  7
CENTURY GOTHIC
100
AcDbText
  0
TEXT
  5
267
330
1F
100
AcDbEntity
  8
MTO-1200-410
  6
Continuous
 62
    18
420
        0
 48
100.0000007629395
370
    25
100
AcDbText
 10
37281.69674873583
 20
-1508.261794951592
 30
0.0
 40
16.0
  1
Deckel ist mit Beckenboden bündig
 41
0.8125
  7
CENTURY GOTHIC
100
AcDbText
  0
TEXT
  5
268
330
1F
100
AcDbEntity
  8
MTO-1200-410
  6
Continuous
 62
    18
420
        0
 48
100.0000007629395
370
    25
100
AcDbText
 10
37281.69674873583
 20
-1533.261794951604
 30
0.0
 40
16.0
  1
Ablauf verschließbar mit Push to Open
 41
0.8125
  7
CENTURY GOTHIC
100
AcDbText
  0
TEXT
  5
269
330
1F
100
AcDbEntity
  8
MTO-1200-410
  6
Continuous
 62
    18
420
        0
 48
100.0000007629395
370
    25
100
AcDbText
 10
37281.69674873583
 20
-1558.261794951616
 30
0.0
 40
16.0
  1
Achtung: Becken ist ohne Überlauf !!!!
 41
0.8125
  7
CENTURY GOTHIC
100
AcDbText
  0
TEXT
  5
26A
330
1F
100
AcDbEntity
  8
MTO-1200-410
  6
Continuous
 62
    12
420
 14745600
 48
100.0000007629395
370
    18
100
AcDbText
 10
37659.9163857817
 20
-1636.416784162303
 30
0.0
 40
4.800000617980957
  1
19,0
 50
90.0
 41
0.65
  7
ROMAN
100
AcDbText
  0
TEXT
  5
26B
330
1F
100
AcDbEntity
  8
MTO-1200-410
  6
Continuous
 62
    12
420
 14745600
 48
100.0000007629395
370
    18
100
AcDbText
 10
37659.9163857817
 20
-1674.194695433606
 30
0.0
 40
4.800000617980957
  1
19,0
 50
90.0
 41
0.65
  7
ROMAN
100
AcDbText
  0
TEXT
  5
26D
330
1F
100
AcDbEntity
  8
MTO-1200-410
  6
Continuous
 62
    18
420
        0
 48
755.9999786376953
370
    25
100
AcDbText
 10
38231.06392519462
 20
-1653.071486876456
 30
0.0
 40
38.4
  1
Moser GmbH
 41
0.8125
  7
HLV-L
100
AcDbText
  0
TEXT
  5
26E
330
1F
100
AcDbEntity
  8
MTO-1200-410
  6
Continuous
 62
    18
420
        0
 48
755.9999786376953
370
    25
100
AcDbText
 10
38231.06392519462
 20
-1694.321445626455
 30
0.0
 40
38.4
  1
Im Mühlegrün 13
 41
0.8125
  7
HLV-L
100
AcDbText
  0
TEXT
  5
26F
330
1F
100
AcDbEntity
  8
MTO-1200-410
  6
Continuous
 62
    18
420
        0
 48
755.9999786376953
370
    25
100
AcDbText
 10
38231.06392519462
 20
-1735.571404376455
 30
0.0
 40
38.4
  1
77716 Haslach
 41
0.8125
  7
HLV-L
100
AcDbText
  0
TEXT
  5
270
330
1F
100
AcDbEntity
  8
MTO-1200-410
  6
Continuous
 62
    18
420
        0
 48
755.9999786376953
370
    25
100
AcDbText
 10
38231.06392519462
 20
-1776.821363126455
 30
0.0
 40
38.4
  1
www.moser.gmbh
 41
0.8125
  7
HLV-L
100
AcDbText
  0
TEXT
  5
271
330
1F
100
AcDbEntity
  8
MTO-1200-410
  6
Continuous
 62
    18
420
        0
 48
34.72222046852112
370
    25
100
AcDbText
 10
37770.24873190042
 20
-1490.976273291493
 30
0.0
 40
64.00000000000001
  1
MTO-1200-410
 41
0.8125
  7
ARIAL
100
AcDbText
  0
TEXT
  5
273
330
1F
100
AcDbEntity
  8
MTO-1200-410
  6
Continuous
 62
    18
420
        0
 48
14.12239682674408
370
    25
100
AcDbText
 10
37824.10999120796
 20
-1756.202369758321
 30
0.0
 40
21.72839828681946
  1
Mineralwerkstoffe
 41
0.8125
  7
HELV-HFT
100
AcDbText
  0
INSERT
  5
278
330
1F
100
AcDbEntity
  8
MTQ-550-410
  6
Continuous
 62
    18
420
        0
 48
50.00000038146973
370
    25
100
AcDbBlockReference
  2
Dimension13
 10
0.0
 20
0.0
 30
0.0
  0
INSERT
  5
27C
330
1F
100
AcDbEntity
  8
MTQ-550-410
  6
Continuous
 62
    18
420
        0
 48
50.00000038146973
370
    25
100
AcDbBlockReference
  2
Dimension14
 10
0.0
 20
0.0
 30
0.0
  0
INSERT
  5
280
330
1F
100
AcDbEntity
  8
MTQ-550-410
  6
Continuous
 62
    18
420
        0
 48
50.00000038146973
370
    25
100
AcDbBlockReference
  2
Dimension15
 10
0.0
 20
0.0
 30
0.0
  0
INSERT
  5
284
330
1F
100
AcDbEntity
  8
MTQ-550-410
  6
Continuous
 62
    18
420
        0
 48
50.00000038146973
370
    25
100
AcDbBlockReference
  2
Dimension16
 10
0.0
 20
0.0
 30
0.0
  0
INSERT
  5
288
330
1F
100
AcDbEntity
  8
MTQ-550-410
  6
Continuous
 62
    18
420
        0
 48
50.00000038146973
370
    25
100
AcDbBlockReference
  2
Dimension17
 10
0.0
 20
0.0
 30
0.0
  0
INSERT
  5
28C
330
1F
100
AcDbEntity
  8
MTQ-550-410
  6
Continuous
 62
    18
420
        0
 48
50.00000038146973
370
    25
100
AcDbBlockReference
  2
Dimension18
 10
0.0
 20
0.0
 30
0.0
  0
INSERT
  5
290
330
1F
100
AcDbEntity
  8
MTQ-550-410
  6
Continuous
 62
    18
420
        0
 48
50.00000038146973
370
    25
100
AcDbBlockReference
  2
Dimension19
 10
0.0
 20
0.0
 30
0.0
  0
INSERT
  5
294
330
1F
100
AcDbEntity
  8
MTQ-550-410
  6
Continuous
 62
    18
420
        0
 48
50.00000038146973
370
    25
100
AcDbBlockReference
  2
Dimension20
 10
0.0
 20
0.0
 30
0.0
  0
INSERT
  5
298
330
1F
100
AcDbEntity
  8
MTQ-550-410
  6
Continuous
 62
    18
420
        0
 48
50.00000038146973
370
    25
100
AcDbBlockReference
  2
Dimension21
 10
0.0
 20
0.0
 30
0.0
  0
INSERT
  5
29C
330
1F
100
AcDbEntity
  8
MTQ-550-410
  6
Continuous
 62
    18
420
        0
 48
50.00000038146973
370
    25
100
AcDbBlockReference
  2
Dimension22
 10
0.0
 20
0.0
 30
0.0
  0
INSERT
  5
2A0
330
1F
100
AcDbEntity
  8
MTQ-550-410
  6
Continuous
 62
    18
420
        0
 48
50.00000038146973
370
    25
100
AcDbBlockReference
  2
Dimension23
 10
0.0
 20
0.0
 30
0.0
  0
INSERT
  5
2A4
330
1F
100
AcDbEntity
  8
MTQ-550-410
  6
Continuous
 62
    18
420
        0
 48
50.00000038146973
370
    25
100
AcDbBlockReference
  2
Dimension24
 10
0.0
 20
0.0
 30
0.0
  0
INSERT
  5
2A8
330
1F
100
AcDbEntity
  8
MTQ-550-410
  6
Continuous
 62
    18
420
        0
 48
50.00000038146973
370
    25
100
AcDbBlockReference
  2
Dimension25
 10
0.0
 20
0.0
 30
0.0
  0
INSERT
  5
2AC
330
1F
100
AcDbEntity
  8
MTQ-550-410
  6
Continuous
 62
    18
420
        0
 48
50.00000038146973
370
    25
100
AcDbBlockReference
  2
Dimension26
 10
0.0
 20
0.0
 30
0.0
  0
INSERT
  5
2B0
330
1F
100
AcDbEntity
  8
MTQ-550-410
  6
Continuous
 62
    18
420
        0
 48
50.00000038146973
370
    25
100
AcDbBlockReference
  2
Dimension27
 10
0.0
 20
0.0
 30
0.0
  0
INSERT
  5
2B4
330
1F
100
AcDbEntity
  8
MTQ-550-410
  6
Continuous
 62
    18
420
        0
 48
50.00000038146973
370
    25
100
AcDbBlockReference
  2
Dimension28
 10
0.0
 20
0.0
 30
0.0
  0
INSERT
  5
2B8
330
1F
100
AcDbEntity
  8
MTQ-550-410
  6
Continuous
 62
    18
420
        0
 48
50.00000038146973
370
    25
100
AcDbBlockReference
  2
Dimension29
 10
0.0
 20
0.0
 30
0.0
  0
INSERT
  5
2BC
330
1F
100
AcDbEntity
  8
MTQ-550-410
  6
Continuous
 62
    18
420
        0
 48
50.00000038146973
370
    25
100
AcDbBlockReference
  2
Dimension30
 10
0.0
 20
0.0
 30
0.0
  0
INSERT
  5
2C0
330
1F
100
AcDbEntity
  8
MTQ-550-410
  6
Continuous
 62
    18
420
        0
 48
50.00000038146973
370
    25
100
AcDbBlockReference
  2
Dimension31
 10
0.0
 20
0.0
 30
0.0
  0
INSERT
  5
2C4
330
1F
100
AcDbEntity
  8
MTQ-550-410
  6
Continuous
 62
    18
420
        0
 48
50.00000038146973
370
    25
100
AcDbBlockReference
  2
Dimension32
 10
0.0
 20
0.0
 30
0.0
  0
INSERT
  5
2C8
330
1F
100
AcDbEntity
  8
MTQ-550-410
  6
Continuous
 62
    18
420
        0
 48
50.00000038146973
370
    25
100
AcDbBlockReference
  2
Dimension33
 10
0.0
 20
0.0
 30
0.0
  0
ENDSEC
  0
SECTION
  2
OBJECTS
  0
DICTIONARY
  5
C
330
0
100
AcDbDictionary
281
     1
  3
ACAD_GROUP
350
D
  3
ACAD_LAYOUT
350
1A
  3
ACAD_MATERIAL
350
3B
  3
ACAD_MLEADERSTYLE
350
316
  3
ACAD_MLINESTYLE
350
17
  3
ACAD_PLOTSETTINGS
350
19
  3
ACAD_PLOTSTYLENAME
350
E
  3
ACAD_SCALELIST
350
2C9
  3
ACAD_TABLESTYLE
350
315
  3
ACAD_VISUALSTYLE
350
2A
  3
AcDbVariableDictionary
350
2ED
  0
DICTIONARY
  5
D
102
{ACAD_REACTORS
330
C
102
}
330
C
100
AcDbDictionary
281
     1
  0
DICTIONARY
  5
1A
102
{ACAD_REACTORS
330
C
102
}
330
C
100
AcDbDictionary
281
     1
  3
Layout1
350
1E
  3
Layout2
350
26
  3
Model
350
22
  0
DICTIONARY
  5
3B
102
{ACAD_REACTORS
330
C
102
}
330
C
100
AcDbDictionary
281
     1
  3
ByBlock
350
3D
  3
ByLayer
350
3C
  3
Global
350
3E
  0
DICTIONARY
  5
316
102
{ACAD_REACTORS
330
C
102
}
330
C
100
AcDbDictionary
281
     1
  0
DICTIONARY
  5
17
102
{ACAD_REACTORS
330
C
102
}
330
C
100
AcDbDictionary
281
     1
  3
Standard
350
18
  0
DICTIONARY
  5
19
102
{ACAD_REACTORS
330
C
102
}
330
C
100
AcDbDictionary
281
     1
  0
ACDBDICTIONARYWDFLT
  5
E
102
{ACAD_REACTORS
330
C
102
}
330
C
100
AcDbDictionary
281
     1
  3
Normal
350
F
100
AcDbDictionaryWithDefault
340
F
  0
DICTIONARY
  5
2C9
102
{ACAD_REACTORS
330
C
102
}
330
C
100
AcDbDictionary
281
     1
  3
A0
350
2CA
  3
A1
350
2CB
  3
A2
350
2CC
  3
A3
350
2CD
  3
A4
350
2CE
  3
A5
350
2CF
  3
A6
350
2D0
  3
A7
350
2D1
  3
A8
350
2D2
  3
A9
350
2D3
  3
B0
350
2D4
  3
B1
350
2D5
  3
B2
350
2D6
  3
B3
350
2D7
  3
B4
350
2D8
  3
B5
350
2D9
  3
B6
350
2DA
  3
B7
350
2DB
  3
B8
350
2DC
  3
B9
350
2DD
  3
C0
350
2DE
  3
C1
350
2DF
  3
C2
350
2E0
  3
C3
350
2E1
  3
C4
350
2E2
  3
C5
350
2E3
  3
C6
350
2E4
  3
C7
350
2E5
  3
C8
350
2E6
  3
C9
350
2E7
  3
D0
350
2E8
  3
D1
350
2E9
  3
D2
350
2EA
  0
DICTIONARY
  5
315
102
{ACAD_REACTORS
330
C
102
}
330
C
100
AcDbDictionary
281
     1
  0
DICTIONARY
  5
2A
102
{ACAD_REACTORS
330
C
102
}
330
C
100
AcDbDictionary
281
     1
  3
2dWireframe
350
2F
  3
3D Hidden
350
31
  3
3dWireframe
350
30
  3
Basic
350
32
  3
Brighten
350
36
  3
ColorChange
350
3A
  3
Conceptual
350
34
  3
Dim
350
35
  3
Facepattern
350
39
  3
Flat
350
2B
  3
FlatWithEdges
350
2C
  3
Gouraud
350
2D
  3
GouraudWithEdges
350
2E
  3
Linepattern
350
38
  3
Realistic
350
33
  3
Thicken
350
37
  0
DICTIONARY
  5
2ED
102
{ACAD_REACTORS
330
C
102
}
330
C
100
AcDbDictionary
281
     1
  3
CANNOSCALE
350
2EE
  0
LAYOUT
  5
1E
102
{ACAD_REACTORS
330
1A
102
}
330
1A
100
AcDbPlotSettings
  1

  2
none_device
  4

  6

 40
0.0
 41
0.0
 42
0.0
 43
0.0
 44
0.0
 45
0.0
 46
0.0
 47
0.0
 48
0.0
 49
0.0
140
0.0
141
0.0
142
1.0
143
1.0
 70
   688
 72
     0
 73
     0
 74
     5
  7

 75
    16
 76
     0
 77
     2
 78
   300
147
1.0
148
0.0
149
0.0
100
AcDbLayout
  1
Layout1
 70
     1
 71
     1
 10
0.0
 20
0.0
 11
420.0
 21
297.0
 12
0.0
 22
0.0
 32
0.0
 14
1.000000000000000E+20
 24
1.000000000000000E+20
 34
1.000000000000000E+20
 15
-1.000000000000000E+20
 25
-1.000000000000000E+20
 35
-1.000000000000000E+20
146
0.0
 13
0.0
 23
0.0
 33
0.0
 16
1.0
 26
0.0
 36
0.0
 17
0.0
 27
1.0
 37
0.0
 76
     0
330
1B
  0
LAYOUT
  5
26
102
{ACAD_REACTORS
330
1A
102
}
330
1A
100
AcDbPlotSettings
  1

  2
none_device
  4

  6

 40
0.0
 41
0.0
 42
0.0
 43
0.0
 44
0.0
 45
0.0
 46
0.0
 47
0.0
 48
0.0
 49
0.0
140
0.0
141
0.0
142
1.0
143
1.0
 70
   688
 72
     0
 73
     0
 74
     5
  7

 75
    16
 76
     0
 77
     2
 78
   300
147
1.0
148
0.0
149
0.0
100
AcDbLayout
  1
Layout2
 70
     1
 71
     2
 10
0.0
 20
0.0
 11
0.0
 21
0.0
 12
0.0
 22
0.0
 32
0.0
 14
0.0
 24
0.0
 34
0.0
 15
0.0
 25
0.0
 35
0.0
146
0.0
 13
0.0
 23
0.0
 33
0.0
 16
1.0
 26
0.0
 36
0.0
 17
0.0
 27
1.0
 37
0.0
 76
     0
330
23
  0
LAYOUT
  5
22
102
{ACAD_REACTORS
330
1A
102
}
330
1A
100
AcDbPlotSettings
  1

  2
none_device
  4

  6

 40
0.0
 41
0.0
 42
0.0
 43
0.0
 44
0.0
 45
0.0
 46
0.0
 47
0.0
 48
0.0
 49
0.0
140
0.0
141
0.0
142
1.0
143
1.0
 70
  1712
 72
     0
 73
     0
 74
     0
  7

 75
     0
 76
     0
 77
     2
 78
   300
147
1.0
148
0.0
149
0.0
100
AcDbLayout
  1
Model
 70
     1
 71
     0
 10
0.0
 20
0.0
 11
420.0
 21
297.0
 12
0.0
 22
0.0
 32
0.0
 14
72478.60263392073
 24
-2824.356406045526
 34
-2.5
 15
75445.62816764117
 25
-824.3563907867369
 35
2.5
146
0.0
 13
0.0
 23
0.0
 33
0.0
 16
1.0
 26
0.0
 36
0.0
 17
0.0
 27
1.0
 37
0.0
 76
     0
330
1F
331
29
  0
MATERIAL
  5
3D
102
{ACAD_REACTORS
330
3B
102
}
102
{ACAD_XDICTIONARY
360
311
102
}
330
3B
100
AcDbMaterial
  1
ByBlock
  0
MATERIAL
  5
3C
102
{ACAD_REACTORS
330
3B
102
}
102
{ACAD_XDICTIONARY
360
30F
102
}
330
3B
100
AcDbMaterial
  1
ByLayer
  0
MATERIAL
  5
3E
102
{ACAD_REACTORS
330
3B
102
}
102
{ACAD_XDICTIONARY
360
313
102
}
330
3B
100
AcDbMaterial
  1
Global
  0
MLINESTYLE
  5
18
102
{ACAD_REACTORS
330
17
102
}
330
17
100
AcDbMlineStyle
  2
Standard
 70
     0
  3

 62
   256
 51
90.0
 52
90.0
 71
     2
 49
0.5
 62
   256
  6
BYLAYER
 49
-0.5
 62
   256
  6
BYLAYER
  0
ACDBPLACEHOLDER
  5
F
102
{ACAD_REACTORS
330
E
102
}
330
E
  0
SCALE
  5
2CA
102
{ACAD_REACTORS
330
2C9
102
}
330
2C9
100
AcDbScale
 70
     0
300
1:1
140
1.0
141
1.0
290
     1
  0
SCALE
  5
2CB
102
{ACAD_REACTORS
330
2C9
102
}
330
2C9
100
AcDbScale
 70
     0
300
1:2
140
1.0
141
2.0
290
     0
  0
SCALE
  5
2CC
102
{ACAD_REACTORS
330
2C9
102
}
330
2C9
100
AcDbScale
 70
     0
300
1:4
140
1.0
141
4.0
290
     0
  0
SCALE
  5
2CD
102
{ACAD_REACTORS
330
2C9
102
}
330
2C9
100
AcDbScale
 70
     0
300
1:5
140
1.0
141
5.0
290
     0
  0
SCALE
  5
2CE
102
{ACAD_REACTORS
330
2C9
102
}
330
2C9
100
AcDbScale
 70
     0
300
1:8
140
1.0
141
8.0
290
     0
  0
SCALE
  5
2CF
102
{ACAD_REACTORS
330
2C9
102
}
330
2C9
100
AcDbScale
 70
     0
300
1:10
140
1.0
141
10.0
290
     0
  0
SCALE
  5
2D0
102
{ACAD_REACTORS
330
2C9
102
}
330
2C9
100
AcDbScale
 70
     0
300
1:16
140
1.0
141
16.0
290
     0
  0
SCALE
  5
2D1
102
{ACAD_REACTORS
330
2C9
102
}
330
2C9
100
AcDbScale
 70
     0
300
1:20
140
1.0
141
20.0
290
     0
  0
SCALE
  5
2D2
102
{ACAD_REACTORS
330
2C9
102
}
330
2C9
100
AcDbScale
 70
     0
300
1:30
140
1.0
141
30.0
290
     0
  0
SCALE
  5
2D3
102
{ACAD_REACTORS
330
2C9
102
}
330
2C9
100
AcDbScale
 70
     0
300
1:40
140
1.0
141
40.0
290
     0
  0
SCALE
  5
2D4
102
{ACAD_REACTORS
330
2C9
102
}
330
2C9
100
AcDbScale
 70
     0
300
1:50
140
1.0
141
50.0
290
     0
  0
SCALE
  5
2D5
102
{ACAD_REACTORS
330
2C9
102
}
330
2C9
100
AcDbScale
 70
     0
300
1:100
140
1.0
141
100.0
290
     0
  0
SCALE
  5
2D6
102
{ACAD_REACTORS
330
2C9
102
}
330
2C9
100
AcDbScale
 70
     0
300
2:1
140
2.0
141
1.0
290
     0
  0
SCALE
  5
2D7
102
{ACAD_REACTORS
330
2C9
102
}
330
2C9
100
AcDbScale
 70
     0
300
4:1
140
4.0
141
1.0
290
     0
  0
SCALE
  5
2D8
102
{ACAD_REACTORS
330
2C9
102
}
330
2C9
100
AcDbScale
 70
     0
300
8:1
140
8.0
141
1.0
290
     0
  0
SCALE
  5
2D9
102
{ACAD_REACTORS
330
2C9
102
}
330
2C9
100
AcDbScale
 70
     0
300
10:1
140
10.0
141
1.0
290
     0
  0
SCALE
  5
2DA
102
{ACAD_REACTORS
330
2C9
102
}
330
2C9
100
AcDbScale
 70
     0
300
100:1
140
100.0
141
1.0
290
     0
  0
SCALE
  5
2DB
102
{ACAD_REACTORS
330
2C9
102
}
330
2C9
100
AcDbScale
 70
     0
300
1/128" = 1'-0"
140
0.0078125
141
12.0
290
     0
  0
SCALE
  5
2DC
102
{ACAD_REACTORS
330
2C9
102
}
330
2C9
100
AcDbScale
 70
     0
300
1/64" = 1'-0"
140
0.015625
141
12.0
290
     0
  0
SCALE
  5
2DD
102
{ACAD_REACTORS
330
2C9
102
}
330
2C9
100
AcDbScale
 70
     0
300
1/32" = 1'-0"
140
0.03125
141
12.0
290
     0
  0
SCALE
  5
2DE
102
{ACAD_REACTORS
330
2C9
102
}
330
2C9
100
AcDbScale
 70
     0
300
1/16" = 1'-0"
140
0.0625
141
12.0
290
     0
  0
SCALE
  5
2DF
102
{ACAD_REACTORS
330
2C9
102
}
330
2C9
100
AcDbScale
 70
     0
300
3/32" = 1'-0"
140
0.09375
141
12.0
290
     0
  0
SCALE
  5
2E0
102
{ACAD_REACTORS
330
2C9
102
}
330
2C9
100
AcDbScale
 70
     0
300
1/8" = 1'-0"
140
0.125
141
12.0
290
     0
  0
SCALE
  5
2E1
102
{ACAD_REACTORS
330
2C9
102
}
330
2C9
100
AcDbScale
 70
     0
300
3/16" = 1'-0"
140
0.1875
141
12.0
290
     0
  0
SCALE
  5
2E2
102
{ACAD_REACTORS
330
2C9
102
}
330
2C9
100
AcDbScale
 70
     0
300
1/4" = 1'-0"
140
0.25
141
12.0
290
     0
  0
SCALE
  5
2E3
102
{ACAD_REACTORS
330
2C9
102
}
330
2C9
100
AcDbScale
 70
     0
300
3/8" = 1'-0"
140
0.375
141
12.0
290
     0
  0
SCALE
  5
2E4
102
{ACAD_REACTORS
330
2C9
102
}
330
2C9
100
AcDbScale
 70
     0
300
1/2" = 1'-0"
140
0.5
141
12.0
290
     0
  0
SCALE
  5
2E5
102
{ACAD_REACTORS
330
2C9
102
}
330
2C9
100
AcDbScale
 70
     0
300
3/4" = 1'-0"
140
0.75
141
12.0
290
     0
  0
SCALE
  5
2E6
102
{ACAD_REACTORS
330
2C9
102
}
330
2C9
100
AcDbScale
 70
     0
300
1" = 1'-0"
140
1.0
141
12.0
290
     0
  0
SCALE
  5
2E7
102
{ACAD_REACTORS
330
2C9
102
}
330
2C9
100
AcDbScale
 70
     0
300
1-1/2" = 1'-0"
140
1.5
141
12.0
290
     0
  0
SCALE
  5
2E8
102
{ACAD_REACTORS
330
2C9
102
}
330
2C9
100
AcDbScale
 70
     0
300
3" = 1'-0"
140
3.0
141
12.0
290
     0
  0
SCALE
  5
2E9
102
{ACAD_REACTORS
330
2C9
102
}
330
2C9
100
AcDbScale
 70
     0
300
6" = 1'-0"
140
6.0
141
12.0
290
     0
  0
SCALE
  5
2EA
102
{ACAD_REACTORS
330
2C9
102
}
330
2C9
100
AcDbScale
 70
     0
300
1'-0" = 1'-0"
140
12.0
141
12.0
290
     0
  0
VISUALSTYLE
  5
2F
102
{ACAD_REACTORS
330
2A
102
}
102
{ACAD_XDICTIONARY
360
2F7
102
}
330
2A
100
AcDbVisualStyle
  2
2dWireframe
 70
     4
 71
     0
 72
     2
 73
     0
 90
        0
 40
-0.6
 41
-30.0
 62
     5
 63
     7
421
 16777215
 74
     1
 91
        4
 64
     7
 65
   257
 75
     1
175
     1
 42
1.0
 92
        0
 66
   257
 43
1.0
 76
     1
 77
     6
 78
     2
 67
     7
 79
     5
170
     0
171
     0
290
     0
174
     0
 93
        1
 44
0.0
173
     0
291
     0
 45
0.0
1001
ACAD
1000
AcDbSavedByObjectVersion
1070
     0
  0
VISUALSTYLE
  5
31
102
{ACAD_REACTORS
330
2A
102
}
102
{ACAD_XDICTIONARY
360
2FB
102
}
330
2A
100
AcDbVisualStyle
  2
3D Hidden
 70
     6
 71
     1
 72
     2
 73
     2
 90
        0
 40
-0.6
 41
-30.0
 62
     5
 63
     7
421
 16777215
 74
     2
 91
        2
 64
     7
 65
   257
 75
     2
175
     1
 42
40.0
 92
        0
 66
   257
 43
1.0
 76
     1
 77
     6
 78
     2
 67
     7
 79
     3
170
     0
171
     0
290
     0
174
     0
 93
        1
 44
0.0
173
     0
291
     0
 45
0.0
1001
ACAD
1000
AcDbSavedByObjectVersion
1070
     0
  0
VISUALSTYLE
  5
30
102
{ACAD_REACTORS
330
2A
102
}
102
{ACAD_XDICTIONARY
360
2F9
102
}
330
2A
100
AcDbVisualStyle
  2
3dWireframe
 70
     5
 71
     0
 72
     2
 73
     0
 90
        0
 40
-0.6
 41
-30.0
 62
     5
 63
     7
421
 16777215
 74
     1
 91
        4
 64
     7
 65
   257
 75
     1
175
     1
 42
1.0
 92
        0
 66
   257
 43
1.0
 76
     1
 77
     6
 78
     2
 67
     7
 79
     5
170
     0
171
     0
290
     0
174
     0
 93
        1
 44
0.0
173
     0
291
     0
 45
0.0
1001
ACAD
1000
AcDbSavedByObjectVersion
1070
     0
  0
VISUALSTYLE
  5
32
102
{ACAD_REACTORS
330
2A
102
}
102
{ACAD_XDICTIONARY
360
2FD
102
}
330
2A
100
AcDbVisualStyle
  2
Basic
 70
     7
 71
     1
 72
     0
 73
     1
 90
        0
 40
-0.6
 41
-30.0
 62
     5
 63
     7
421
 16777215
 74
     0
 91
        4
 64
     7
 65
   257
 75
     1
175
     1
 42
1.0
 92
        8
 66
     7
 43
1.0
 76
     1
 77
     6
 78
     2
 67
     7
 79
     5
170
     0
171
     0
290
     0
174
     0
 93
        1
 44
0.0
173
     0
291
     1
 45
0.0
1001
ACAD
1000
AcDbSavedByObjectVersion
1070
     0
  0
VISUALSTYLE
  5
36
102
{ACAD_REACTORS
330
2A
102
}
102
{ACAD_XDICTIONARY
360
305
102
}
330
2A
100
AcDbVisualStyle
  2
Brighten
 70
    12
 71
     2
 72
     2
 73
     0
 90
        0
 40
-0.6
 41
-30.0
 62
     5
 63
     7
421
 16777215
 74
     1
 91
        4
 64
     7
 65
   257
 75
     1
175
     1
 42
1.0
 92
        8
 66
     7
 43
1.0
 76
     1
 77
     6
 78
     2
 67
     7
 79
     5
170
     0
171
     0
290
     0
174
     0
 93
        1
 44
50.0
173
     0
291
     1
 45
0.0
1001
ACAD
1000
AcDbSavedByObjectVersion
1070
     0
  0
VISUALSTYLE
  5
3A
102
{ACAD_REACTORS
330
2A
102
}
102
{ACAD_XDICTIONARY
360
30D
102
}
330
2A
100
AcDbVisualStyle
  2
ColorChange
 70
    16
 71
     2
 72
     2
 73
     3
 90
        0
 40
-0.6
 41
-30.0
 62
     5
 63
     8
421
  8421504
 74
     1
 91
        4
 64
     7
 65
   257
 75
     1
175
     1
 42
1.0
 92
        8
 66
     8
424
  8421504
 43
1.0
 76
     1
 77
     6
 78
     2
 67
     7
 79
     5
170
     0
171
     0
290
     0
174
     0
 93
        1
 44
0.0
173
     0
291
     1
 45
0.0
1001
ACAD
1000
AcDbSavedByObjectVersion
1070
     0
  0
VISUALSTYLE
  5
34
102
{ACAD_REACTORS
330
2A
102
}
102
{ACAD_XDICTIONARY
360
301
102
}
330
2A
100
AcDbVisualStyle
  2
Conceptual
 70
     9
 71
     3
 72
     2
 73
     0
 90
        0
 40
-0.6
 41
-30.0
 62
     5
 63
     7
421
 16777215
 74
     2
 91
        2
 64
     7
 65
   257
 75
     1
175
     1
 42
40.0
 92
        8
 66
     7
 43
1.0
 76
     1
 77
     6
 78
     2
 67
     7
 79
     3
170
     0
171
     0
290
     0
174
     0
 93
        1
 44
0.0
173
     0
291
     0
 45
0.0
1001
ACAD
1000
AcDbSavedByObjectVersion
1070
     0
  0
VISUALSTYLE
  5
35
102
{ACAD_REACTORS
330
2A
102
}
102
{ACAD_XDICTIONARY
360
303
102
}
330
2A
100
AcDbVisualStyle
  2
Dim
 70
    11
 71
     2
 72
     2
 73
     0
 90
        0
 40
-0.6
 41
-30.0
 62
     5
 63
     7
421
 16777215
 74
     1
 91
        4
 64
     7
 65
   257
 75
     1
175
     1
 42
1.0
 92
        8
 66
     7
 43
1.0
 76
     1
 77
     6
 78
     2
 67
     7
 79
     5
170
     0
171
     0
290
     0
174
     0
 93
        1
 44
-50.0
173
     0
291
     1
 45
0.0
1001
ACAD
1000
AcDbSavedByObjectVersion
1070
     0
  0
VISUALSTYLE
  5
39
102
{ACAD_REACTORS
330
2A
102
}
102
{ACAD_XDICTIONARY
360
30B
102
}
330
2A
100
AcDbVisualStyle
  2
Facepattern
 70
    15
 71
     2
 72
     2
 73
     0
 90
        0
 40
-0.6
 41
-30.0
 62
     5
 63
     7
421
 16777215
 74
     1
 91
        4
 64
     7
 65
   257
 75
     1
175
     1
 42
1.0
 92
        8
 66
     7
 43
1.0
 76
     1
 77
     6
 78
     2
 67
     7
 79
     5
170
     0
171
     0
290
     0
174
     0
 93
        1
 44
0.0
173
     0
291
     1
 45
0.0
1001
ACAD
1000
AcDbSavedByObjectVersion
1070
     0
  0
VISUALSTYLE
  5
2B
102
{ACAD_REACTORS
330
2A
102
}
102
{ACAD_XDICTIONARY
360
2EF
102
}
330
2A
100
AcDbVisualStyle
  2
Flat
 70
     0
 71
     2
 72
     1
 73
     1
 90
        2
 40
-0.6
 41
30.0
 62
     5
 63
     7
421
 16777215
 74
     0
 91
        4
 64
     7
 65
   257
 75
     1
175
     1
 42
1.0
 92
        8
 66
     7
 43
1.0
 76
     1
 77
     6
 78
     2
 67
     7
 79
     5
170
     0
171
     0
290
     0
174
     0
 93
       13
 44
0.0
173
     0
291
     1
 45
0.0
1001
ACAD
1000
AcDbSavedByObjectVersion
1070
     0
  0
VISUALSTYLE
  5
2C
102
{ACAD_REACTORS
330
2A
102
}
102
{ACAD_XDICTIONARY
360
2F1
102
}
330
2A
100
AcDbVisualStyle
  2
FlatWithEdges
 70
     1
 71
     2
 72
     1
 73
     1
 90
        2
 40
-0.6
 41
30.0
 62
     5
 63
     7
421
 16777215
 74
     1
 91
        4
 64
     7
 65
   257
 75
     1
175
     1
 42
1.0
 92
        0
 66
   257
 43
1.0
 76
     1
 77
     6
 78
     2
 67
     7
 79
     5
170
     0
171
     0
290
     0
174
     0
 93
       13
 44
0.0
173
     0
291
     1
 45
0.0
1001
ACAD
1000
AcDbSavedByObjectVersion
1070
     0
  0
VISUALSTYLE
  5
2D
102
{ACAD_REACTORS
330
2A
102
}
102
{ACAD_XDICTIONARY
360
2F3
102
}
330
2A
100
AcDbVisualStyle
  2
Gouraud
 70
     2
 71
     2
 72
     2
 73
     1
 90
        2
 40
-0.6
 41
30.0
 62
     5
 63
     7
421
 16777215
 74
     0
 91
        4
 64
     7
 65
   257
 75
     1
175
     1
 42
1.0
 92
        0
 66
     7
 43
1.0
 76
     1
 77
     6
 78
     2
 67
     7
 79
     5
170
     0
171
     0
290
     0
174
     0
 93
       13
 44
0.0
173
     0
291
     1
 45
0.0
1001
ACAD
1000
AcDbSavedByObjectVersion
1070
     0
  0
VISUALSTYLE
  5
2E
102
{ACAD_REACTORS
330
2A
102
}
102
{ACAD_XDICTIONARY
360
2F5
102
}
330
2A
100
AcDbVisualStyle
  2
GouraudWithEdges
 70
     3
 71
     2
 72
     2
 73
     1
 90
        2
 40
-0.6
 41
30.0
 62
     5
 63
     7
421
 16777215
 74
     1
 91
        4
 64
     7
 65
   257
 75
     1
175
     1
 42
1.0
 92
        0
 66
   257
 43
1.0
 76
     1
 77
     6
 78
     2
 67
     7
 79
     5
170
     0
171
     0
290
     0
174
     0
 93
       13
 44
0.0
173
     0
291
     1
 45
0.0
1001
ACAD
1000
AcDbSavedByObjectVersion
1070
     0
  0
VISUALSTYLE
  5
38
102
{ACAD_REACTORS
330
2A
102
}
102
{ACAD_XDICTIONARY
360
309
102
}
330
2A
100
AcDbVisualStyle
  2
Linepattern
 70
    14
 71
     2
 72
     2
 73
     0
 90
        0
 40
-0.6
 41
-30.0
 62
     5
 63
     7
421
 16777215
 74
     1
 91
        4
 64
     7
 65
   257
 75
     7
175
     7
 42
1.0
 92
        8
 66
     7
 43
1.0
 76
     1
 77
     6
 78
     2
 67
     7
 79
     5
170
     0
171
     0
290
     0
174
     0
 93
        1
 44
0.0
173
     0
291
     1
 45
0.0
1001
ACAD
1000
AcDbSavedByObjectVersion
1070
     0
  0
VISUALSTYLE
  5
33
102
{ACAD_REACTORS
330
2A
102
}
102
{ACAD_XDICTIONARY
360
2FF
102
}
330
2A
100
AcDbVisualStyle
  2
Realistic
 70
     8
 71
     2
 72
     2
 73
     0
 90
        0
 40
-0.6
 41
-30.0
 62
     5
 63
     7
421
 16777215
 74
     1
 91
        0
 64
     7
 65
   257
 75
     1
175
     1
 42
1.0
 92
        8
 66
     8
424
  7895160
 43
1.0
 76
     1
 77
     6
 78
     2
 67
     7
 79
     5
170
     0
171
     0
290
     0
174
     0
 93
       13
 44
0.0
173
     0
291
     0
 45
0.0
1001
ACAD
1000
AcDbSavedByObjectVersion
1070
     0
  0
VISUALSTYLE
  5
37
102
{ACAD_REACTORS
330
2A
102
}
102
{ACAD_XDICTIONARY
360
307
102
}
330
2A
100
AcDbVisualStyle
  2
Thicken
 70
    13
 71
     2
 72
     2
 73
     0
 90
        0
 40
-0.6
 41
-30.0
 62
     5
 63
     7
421
 16777215
 74
     1
 91
        4
 64
     7
 65
   257
 75
     1
175
     1
 42
1.0
 92
       12
 66
     7
 43
1.0
 76
     1
 77
     6
 78
     2
 67
     7
 79
     5
170
     0
171
     0
290
     0
174
     0
 93
        1
 44
0.0
173
     0
291
     1
 45
0.0
1001
ACAD
1000
AcDbSavedByObjectVersion
1070
     0
  0
DICTIONARYVAR
  5
2EE
102
{ACAD_REACTORS
330
2ED
102
}
330
2ED
100
DictionaryVariables
280
     0
  1
1:1
  0
DICTIONARY
  5
311
330
3D
100
AcDbDictionary
280
     1
281
     1
  3
ACAD_XREC_ROUNDTRIP
360
312
  0
DICTIONARY
  5
30F
330
3C
100
AcDbDictionary
280
     1
281
     1
  3
ACAD_XREC_ROUNDTRIP
360
310
  0
DICTIONARY
  5
313
330
3E
100
AcDbDictionary
280
     1
281
     1
  3
ACAD_XREC_ROUNDTRIP
360
314
  0
DICTIONARY
  5
2F7
330
2F
100
AcDbDictionary
280
     1
281
     1
  3
ACAD_XREC_ROUNDTRIP
360
2F8
  0
DICTIONARY
  5
2FB
330
31
100
AcDbDictionary
280
     1
281
     1
  3
ACAD_XREC_ROUNDTRIP
360
2FC
  0
DICTIONARY
  5
2F9
330
30
100
AcDbDictionary
280
     1
281
     1
  3
ACAD_XREC_ROUNDTRIP
360
2FA
  0
DICTIONARY
  5
2FD
330
32
100
AcDbDictionary
280
     1
281
     1
  3
ACAD_XREC_ROUNDTRIP
360
2FE
  0
DICTIONARY
  5
305
330
36
100
AcDbDictionary
280
     1
281
     1
  3
ACAD_XREC_ROUNDTRIP
360
306
  0
DICTIONARY
  5
30D
330
3A
100
AcDbDictionary
280
     1
281
     1
  3
ACAD_XREC_ROUNDTRIP
360
30E
  0
DICTIONARY
  5
301
330
34
100
AcDbDictionary
280
     1
281
     1
  3
ACAD_XREC_ROUNDTRIP
360
302
  0
DICTIONARY
  5
303
330
35
100
AcDbDictionary
280
     1
281
     1
  3
ACAD_XREC_ROUNDTRIP
360
304
  0
DICTIONARY
  5
30B
330
39
100
AcDbDictionary
280
     1
281
     1
  3
ACAD_XREC_ROUNDTRIP
360
30C
  0
DICTIONARY
  5
2EF
330
2B
100
AcDbDictionary
280
     1
281
     1
  3
ACAD_XREC_ROUNDTRIP
360
2F0
  0
DICTIONARY
  5
2F1
330
2C
100
AcDbDictionary
280
     1
281
     1
  3
ACAD_XREC_ROUNDTRIP
360
2F2
  0
DICTIONARY
  5
2F3
330
2D
100
AcDbDictionary
280
     1
281
     1
  3
ACAD_XREC_ROUNDTRIP
360
2F4
  0
DICTIONARY
  5
2F5
330
2E
100
AcDbDictionary
280
     1
281
     1
  3
ACAD_XREC_ROUNDTRIP
360
2F6
  0
DICTIONARY
  5
309
330
38
100
AcDbDictionary
280
     1
281
     1
  3
ACAD_XREC_ROUNDTRIP
360
30A
  0
DICTIONARY
  5
2FF
330
33
100
AcDbDictionary
280
     1
281
     1
  3
ACAD_XREC_ROUNDTRIP
360
300
  0
DICTIONARY
  5
307
330
37
100
AcDbDictionary
280
     1
281
     1
  3
ACAD_XREC_ROUNDTRIP
360
308
  0
XRECORD
  5
312
102
{ACAD_REACTORS
330
311
102
}
330
311
100
AcDbXrecord
280
     1
102
MATERIAL
148
0.0
149
0.0
149
0.0
 93
        0
 94
      127
282
     0
 72
     1
 77
     1
171
     1
175
     1
179
     1
273
     0
  0
XRECORD
  5
310
102
{ACAD_REACTORS
330
30F
102
}
330
30F
100
AcDbXrecord
280
     1
102
MATERIAL
148
0.0
149
0.0
149
0.0
 93
        0
 94
      127
282
     0
 72
     1
 77
     1
171
     1
175
     1
179
     1
273
     0
  0
XRECORD
  5
314
102
{ACAD_REACTORS
330
313
102
}
330
313
100
AcDbXrecord
280
     1
102
MATERIAL
148
0.0
149
0.0
149
0.0
 93
        0
 94
      127
282
     0
 72
     1
 77
     1
171
     1
175
     1
179
     1
273
     0
  0
XRECORD
  5
2F8
102
{ACAD_REACTORS
330
2F7
102
}
330
2F7
100
AcDbXrecord
280
     1
102
RTVSPropertyOp0
 70
     1
102
RTVSPropertyOp1
 70
     1
102
RTVSPropertyOp2
 70
     1
102
RTVSPropertyOp3
 70
     1
102
RTVSPropertyOp4
 70
     1
102
RTVSPropertyOp5
 70
     1
102
RTVSPropertyOp6
 70
     1
102
RTVSPropertyOp7
 70
     1
102
RTVSPropertyOp8
 70
     1
102
RTVSPropertyOp9
 70
     1
102
RTVSPropertyOp10
 70
     1
102
RTVSPropertyOp11
 70
     1
102
RTVSPropertyOp12
 70
     1
102
RTVSPropertyOp13
 70
     1
102
RTVSPropertyOp14
 70
     1
102
RTVSPropertyOp15
 70
     1
102
RTVSPropertyOp16
 70
     1
102
RTVSPropertyOp17
 70
     1
102
RTVSPropertyOp18
 70
     1
102
RTVSPropertyOp19
 70
     1
102
RTVSPropertyOp20
 70
     1
102
RTVSPropertyOp21
 70
     1
102
RTVSPropertyOp22
 70
     1
102
RTVSPropertyOp23
 70
     1
102
RTVSPropertyOp24
 70
     1
102
RTVSPropertyOp25
 70
     1
102
RTVSPropertyOp26
 70
     1
102
RTVSPropertyOp27
 70
     1
  0
XRECORD
  5
2FC
102
{ACAD_REACTORS
330
2FB
102
}
330
2FB
100
AcDbXrecord
280
     1
102
RTVSPropertyOp0
 70
     1
102
RTVSPropertyOp1
 70
     1
102
RTVSPropertyOp2
 70
     1
102
RTVSPropertyOp3
 70
     1
102
RTVSPropertyOp4
 70
     1
102
RTVSPropertyOp5
 70
     1
102
RTVSPropertyOp6
 70
     1
102
RTVSPropertyOp7
 70
     1
102
RTVSPropertyOp8
 70
     1
102
RTVSPropertyOp9
 70
     1
102
RTVSPropertyOp10
 70
     1
102
RTVSPropertyOp11
 70
     1
102
RTVSPropertyOp12
 70
     1
102
RTVSPropertyOp13
 70
     1
102
RTVSPropertyOp14
 70
     1
102
RTVSPropertyOp15
 70
     1
102
RTVSPropertyOp16
 70
     1
102
RTVSPropertyOp17
 70
     1
102
RTVSPropertyOp18
 70
     1
102
RTVSPropertyOp19
 70
     1
102
RTVSPropertyOp20
 70
     1
102
RTVSPropertyOp21
 70
     1
102
RTVSPropertyOp22
 70
     1
102
RTVSPropertyOp23
 70
     1
102
RTVSPropertyOp24
 70
     1
102
RTVSPropertyOp25
 70
     1
102
RTVSPropertyOp26
 70
     1
102
RTVSPropertyOp27
 70
     1
  0
XRECORD
  5
2FA
102
{ACAD_REACTORS
330
2F9
102
}
330
2F9
100
AcDbXrecord
280
     1
102
RTVSPropertyOp0
 70
     1
102
RTVSPropertyOp1
 70
     1
102
RTVSPropertyOp2
 70
     1
102
RTVSPropertyOp3
 70
     1
102
RTVSPropertyOp4
 70
     1
102
RTVSPropertyOp5
 70
     1
102
RTVSPropertyOp6
 70
     1
102
RTVSPropertyOp7
 70
     1
102
RTVSPropertyOp8
 70
     1
102
RTVSPropertyOp9
 70
     1
102
RTVSPropertyOp10
 70
     1
102
RTVSPropertyOp11
 70
     1
102
RTVSPropertyOp12
 70
     1
102
RTVSPropertyOp13
 70
     1
102
RTVSPropertyOp14
 70
     1
102
RTVSPropertyOp15
 70
     1
102
RTVSPropertyOp16
 70
     1
102
RTVSPropertyOp17
 70
     1
102
RTVSPropertyOp18
 70
     1
102
RTVSPropertyOp19
 70
     1
102
RTVSPropertyOp20
 70
     1
102
RTVSPropertyOp21
 70
     1
102
RTVSPropertyOp22
 70
     1
102
RTVSPropertyOp23
 70
     1
102
RTVSPropertyOp24
 70
     1
102
RTVSPropertyOp25
 70
     1
102
RTVSPropertyOp26
 70
     1
102
RTVSPropertyOp27
 70
     1
  0
XRECORD
  5
2FE
102
{ACAD_REACTORS
330
2FD
102
}
330
2FD
100
AcDbXrecord
280
     1
102
RTVSPropertyOp0
 70
     1
102
RTVSPropertyOp1
 70
     1
102
RTVSPropertyOp2
 70
     1
102
RTVSPropertyOp3
 70
     1
102
RTVSPropertyOp4
 70
     1
102
RTVSPropertyOp5
 70
     1
102
RTVSPropertyOp6
 70
     1
102
RTVSPropertyOp7
 70
     1
102
RTVSPropertyOp8
 70
     1
102
RTVSPropertyOp9
 70
     1
102
RTVSPropertyOp10
 70
     1
102
RTVSPropertyOp11
 70
     1
102
RTVSPropertyOp12
 70
     1
102
RTVSPropertyOp13
 70
     1
102
RTVSPropertyOp14
 70
     1
102
RTVSPropertyOp15
 70
     1
102
RTVSPropertyOp16
 70
     1
102
RTVSPropertyOp17
 70
     1
102
RTVSPropertyOp18
 70
     1
102
RTVSPropertyOp19
 70
     1
102
RTVSPropertyOp20
 70
     1
102
RTVSPropertyOp21
 70
     1
102
RTVSPropertyOp22
 70
     1
102
RTVSPropertyOp23
 70
     1
102
RTVSPropertyOp24
 70
     1
102
RTVSPropertyOp25
 70
     1
102
RTVSPropertyOp26
 70
     1
102
RTVSPropertyOp27
 70
     1
  0
XRECORD
  5
306
102
{ACAD_REACTORS
330
305
102
}
330
305
100
AcDbXrecord
280
     1
102
RTVSPropertyOp0
 70
     1
102
RTVSPropertyOp1
 70
     1
102
RTVSPropertyOp2
 70
     1
102
RTVSPropertyOp3
 70
     1
102
RTVSPropertyOp4
 70
     1
102
RTVSPropertyOp5
 70
     1
102
RTVSPropertyOp6
 70
     1
102
RTVSPropertyOp7
 70
     1
102
RTVSPropertyOp8
 70
     1
102
RTVSPropertyOp9
 70
     1
102
RTVSPropertyOp10
 70
     1
102
RTVSPropertyOp11
 70
     1
102
RTVSPropertyOp12
 70
     1
102
RTVSPropertyOp13
 70
     1
102
RTVSPropertyOp14
 70
     1
102
RTVSPropertyOp15
 70
     1
102
RTVSPropertyOp16
 70
     1
102
RTVSPropertyOp17
 70
     1
102
RTVSPropertyOp18
 70
     1
102
RTVSPropertyOp19
 70
     1
102
RTVSPropertyOp20
 70
     1
102
RTVSPropertyOp21
 70
     1
102
RTVSPropertyOp22
 70
     1
102
RTVSPropertyOp23
 70
     1
102
RTVSPropertyOp24
 70
     1
102
RTVSPropertyOp25
 70
     1
102
RTVSPropertyOp26
 70
     1
102
RTVSPropertyOp27
 70
     1
  0
XRECORD
  5
30E
102
{ACAD_REACTORS
330
30D
102
}
330
30D
100
AcDbXrecord
280
     1
102
RTVSPropertyOp0
 70
     1
102
RTVSPropertyOp1
 70
     1
102
RTVSPropertyOp2
 70
     1
102
RTVSPropertyOp3
 70
     1
102
RTVSPropertyOp4
 70
     1
102
RTVSPropertyOp5
 70
     1
102
RTVSPropertyOp6
 70
     1
102
RTVSPropertyOp7
 70
     1
102
RTVSPropertyOp8
 70
     1
102
RTVSPropertyOp9
 70
     1
102
RTVSPropertyOp10
 70
     1
102
RTVSPropertyOp11
 70
     1
102
RTVSPropertyOp12
 70
     1
102
RTVSPropertyOp13
 70
     1
102
RTVSPropertyOp14
 70
     1
102
RTVSPropertyOp15
 70
     1
102
RTVSPropertyOp16
 70
     1
102
RTVSPropertyOp17
 70
     1
102
RTVSPropertyOp18
 70
     1
102
RTVSPropertyOp19
 70
     1
102
RTVSPropertyOp20
 70
     1
102
RTVSPropertyOp21
 70
     1
102
RTVSPropertyOp22
 70
     1
102
RTVSPropertyOp23
 70
     1
102
RTVSPropertyOp24
 70
     1
102
RTVSPropertyOp25
 70
     1
102
RTVSPropertyOp26
 70
     1
102
RTVSPropertyOp27
 70
     1
  0
XRECORD
  5
302
102
{ACAD_REACTORS
330
301
102
}
330
301
100
AcDbXrecord
280
     1
102
RTVSPropertyOp0
 70
     1
102
RTVSPropertyOp1
 70
     1
102
RTVSPropertyOp2
 70
     1
102
RTVSPropertyOp3
 70
     1
102
RTVSPropertyOp4
 70
     1
102
RTVSPropertyOp5
 70
     1
102
RTVSPropertyOp6
 70
     1
102
RTVSPropertyOp7
 70
     1
102
RTVSPropertyOp8
 70
     1
102
RTVSPropertyOp9
 70
     1
102
RTVSPropertyOp10
 70
     1
102
RTVSPropertyOp11
 70
     1
102
RTVSPropertyOp12
 70
     1
102
RTVSPropertyOp13
 70
     1
102
RTVSPropertyOp14
 70
     1
102
RTVSPropertyOp15
 70
     1
102
RTVSPropertyOp16
 70
     1
102
RTVSPropertyOp17
 70
     1
102
RTVSPropertyOp18
 70
     1
102
RTVSPropertyOp19
 70
     1
102
RTVSPropertyOp20
 70
     1
102
RTVSPropertyOp21
 70
     1
102
RTVSPropertyOp22
 70
     1
102
RTVSPropertyOp23
 70
     1
102
RTVSPropertyOp24
 70
     1
102
RTVSPropertyOp25
 70
     1
102
RTVSPropertyOp26
 70
     1
102
RTVSPropertyOp27
 70
     1
  0
XRECORD
  5
304
102
{ACAD_REACTORS
330
303
102
}
330
303
100
AcDbXrecord
280
     1
102
RTVSPropertyOp0
 70
     1
102
RTVSPropertyOp1
 70
     1
102
RTVSPropertyOp2
 70
     1
102
RTVSPropertyOp3
 70
     1
102
RTVSPropertyOp4
 70
     1
102
RTVSPropertyOp5
 70
     1
102
RTVSPropertyOp6
 70
     1
102
RTVSPropertyOp7
 70
     1
102
RTVSPropertyOp8
 70
     1
102
RTVSPropertyOp9
 70
     1
102
RTVSPropertyOp10
 70
     1
102
RTVSPropertyOp11
 70
     1
102
RTVSPropertyOp12
 70
     1
102
RTVSPropertyOp13
 70
     1
102
RTVSPropertyOp14
 70
     1
102
RTVSPropertyOp15
 70
     1
102
RTVSPropertyOp16
 70
     1
102
RTVSPropertyOp17
 70
     1
102
RTVSPropertyOp18
 70
     1
102
RTVSPropertyOp19
 70
     1
102
RTVSPropertyOp20
 70
     1
102
RTVSPropertyOp21
 70
     1
102
RTVSPropertyOp22
 70
     1
102
RTVSPropertyOp23
 70
     1
102
RTVSPropertyOp24
 70
     1
102
RTVSPropertyOp25
 70
     1
102
RTVSPropertyOp26
 70
     1
102
RTVSPropertyOp27
 70
     1
  0
XRECORD
  5
30C
102
{ACAD_REACTORS
330
30B
102
}
330
30B
100
AcDbXrecord
280
     1
102
RTVSPropertyOp0
 70
     1
102
RTVSPropertyOp1
 70
     1
102
RTVSPropertyOp2
 70
     1
102
RTVSPropertyOp3
 70
     1
102
RTVSPropertyOp4
 70
     1
102
RTVSPropertyOp5
 70
     1
102
RTVSPropertyOp6
 70
     1
102
RTVSPropertyOp7
 70
     1
102
RTVSPropertyOp8
 70
     1
102
RTVSPropertyOp9
 70
     1
102
RTVSPropertyOp10
 70
     1
102
RTVSPropertyOp11
 70
     1
102
RTVSPropertyOp12
 70
     1
102
RTVSPropertyOp13
 70
     1
102
RTVSPropertyOp14
 70
     1
102
RTVSPropertyOp15
 70
     1
102
RTVSPropertyOp16
 70
     1
102
RTVSPropertyOp17
 70
     1
102
RTVSPropertyOp18
 70
     1
102
RTVSPropertyOp19
 70
     1
102
RTVSPropertyOp20
 70
     1
102
RTVSPropertyOp21
 70
     1
102
RTVSPropertyOp22
 70
     1
102
RTVSPropertyOp23
 70
     1
102
RTVSPropertyOp24
 70
     1
102
RTVSPropertyOp25
 70
     1
102
RTVSPropertyOp26
 70
     1
102
RTVSPropertyOp27
 70
     1
  0
XRECORD
  5
2F0
102
{ACAD_REACTORS
330
2EF
102
}
330
2EF
100
AcDbXrecord
280
     1
102
RTVSPropertyOp0
 70
     1
102
RTVSPropertyOp1
 70
     1
102
RTVSPropertyOp2
 70
     1
102
RTVSPropertyOp3
 70
     1
102
RTVSPropertyOp4
 70
     1
102
RTVSPropertyOp5
 70
     1
102
RTVSPropertyOp6
 70
     1
102
RTVSPropertyOp7
 70
     1
102
RTVSPropertyOp8
 70
     1
102
RTVSPropertyOp9
 70
     1
102
RTVSPropertyOp10
 70
     1
102
RTVSPropertyOp11
 70
     1
102
RTVSPropertyOp12
 70
     1
102
RTVSPropertyOp13
 70
     1
102
RTVSPropertyOp14
 70
     1
102
RTVSPropertyOp15
 70
     1
102
RTVSPropertyOp16
 70
     1
102
RTVSPropertyOp17
 70
     1
102
RTVSPropertyOp18
 70
     1
102
RTVSPropertyOp19
 70
     1
102
RTVSPropertyOp20
 70
     1
102
RTVSPropertyOp21
 70
     1
102
RTVSPropertyOp22
 70
     1
102
RTVSPropertyOp23
 70
     1
102
RTVSPropertyOp24
 70
     1
102
RTVSPropertyOp25
 70
     1
102
RTVSPropertyOp26
 70
     1
102
RTVSPropertyOp27
 70
     1
  0
XRECORD
  5
2F2
102
{ACAD_REACTORS
330
2F1
102
}
330
2F1
100
AcDbXrecord
280
     1
102
RTVSPropertyOp0
 70
     1
102
RTVSPropertyOp1
 70
     1
102
RTVSPropertyOp2
 70
     1
102
RTVSPropertyOp3
 70
     1
102
RTVSPropertyOp4
 70
     1
102
RTVSPropertyOp5
 70
     1
102
RTVSPropertyOp6
 70
     1
102
RTVSPropertyOp7
 70
     1
102
RTVSPropertyOp8
 70
     1
102
RTVSPropertyOp9
 70
     1
102
RTVSPropertyOp10
 70
     1
102
RTVSPropertyOp11
 70
     1
102
RTVSPropertyOp12
 70
     1
102
RTVSPropertyOp13
 70
     1
102
RTVSPropertyOp14
 70
     1
102
RTVSPropertyOp15
 70
     1
102
RTVSPropertyOp16
 70
     1
102
RTVSPropertyOp17
 70
     1
102
RTVSPropertyOp18
 70
     1
102
RTVSPropertyOp19
 70
     1
102
RTVSPropertyOp20
 70
     1
102
RTVSPropertyOp21
 70
     1
102
RTVSPropertyOp22
 70
     1
102
RTVSPropertyOp23
 70
     1
102
RTVSPropertyOp24
 70
     1
102
RTVSPropertyOp25
 70
     1
102
RTVSPropertyOp26
 70
     1
102
RTVSPropertyOp27
 70
     1
  0
XRECORD
  5
2F4
102
{ACAD_REACTORS
330
2F3
102
}
330
2F3
100
AcDbXrecord
280
     1
102
RTVSPropertyOp0
 70
     1
102
RTVSPropertyOp1
 70
     1
102
RTVSPropertyOp2
 70
     1
102
RTVSPropertyOp3
 70
     1
102
RTVSPropertyOp4
 70
     1
102
RTVSPropertyOp5
 70
     1
102
RTVSPropertyOp6
 70
     1
102
RTVSPropertyOp7
 70
     1
102
RTVSPropertyOp8
 70
     1
102
RTVSPropertyOp9
 70
     1
102
RTVSPropertyOp10
 70
     1
102
RTVSPropertyOp11
 70
     1
102
RTVSPropertyOp12
 70
     1
102
RTVSPropertyOp13
 70
     1
102
RTVSPropertyOp14
 70
     1
102
RTVSPropertyOp15
 70
     1
102
RTVSPropertyOp16
 70
     1
102
RTVSPropertyOp17
 70
     1
102
RTVSPropertyOp18
 70
     1
102
RTVSPropertyOp19
 70
     1
102
RTVSPropertyOp20
 70
     1
102
RTVSPropertyOp21
 70
     1
102
RTVSPropertyOp22
 70
     1
102
RTVSPropertyOp23
 70
     1
102
RTVSPropertyOp24
 70
     1
102
RTVSPropertyOp25
 70
     1
102
RTVSPropertyOp26
 70
     1
102
RTVSPropertyOp27
 70
     1
  0
XRECORD
  5
2F6
102
{ACAD_REACTORS
330
2F5
102
}
330
2F5
100
AcDbXrecord
280
     1
102
RTVSPropertyOp0
 70
     1
102
RTVSPropertyOp1
 70
     1
102
RTVSPropertyOp2
 70
     1
102
RTVSPropertyOp3
 70
     1
102
RTVSPropertyOp4
 70
     1
102
RTVSPropertyOp5
 70
     1
102
RTVSPropertyOp6
 70
     1
102
RTVSPropertyOp7
 70
     1
102
RTVSPropertyOp8
 70
     1
102
RTVSPropertyOp9
 70
     1
102
RTVSPropertyOp10
 70
     1
102
RTVSPropertyOp11
 70
     1
102
RTVSPropertyOp12
 70
     1
102
RTVSPropertyOp13
 70
     1
102
RTVSPropertyOp14
 70
     1
102
RTVSPropertyOp15
 70
     1
102
RTVSPropertyOp16
 70
     1
102
RTVSPropertyOp17
 70
     1
102
RTVSPropertyOp18
 70
     1
102
RTVSPropertyOp19
 70
     1
102
RTVSPropertyOp20
 70
     1
102
RTVSPropertyOp21
 70
     1
102
RTVSPropertyOp22
 70
     1
102
RTVSPropertyOp23
 70
     1
102
RTVSPropertyOp24
 70
     1
102
RTVSPropertyOp25
 70
     1
102
RTVSPropertyOp26
 70
     1
102
RTVSPropertyOp27
 70
     1
  0
XRECORD
  5
30A
102
{ACAD_REACTORS
330
309
102
}
330
309
100
AcDbXrecord
280
     1
102
RTVSPropertyOp0
 70
     1
102
RTVSPropertyOp1
 70
     1
102
RTVSPropertyOp2
 70
     1
102
RTVSPropertyOp3
 70
     1
102
RTVSPropertyOp4
 70
     1
102
RTVSPropertyOp5
 70
     1
102
RTVSPropertyOp6
 70
     1
102
RTVSPropertyOp7
 70
     1
102
RTVSPropertyOp8
 70
     1
102
RTVSPropertyOp9
 70
     1
102
RTVSPropertyOp10
 70
     1
102
RTVSPropertyOp11
 70
     1
102
RTVSPropertyOp12
 70
     1
102
RTVSPropertyOp13
 70
     1
102
RTVSPropertyOp14
 70
     1
102
RTVSPropertyOp15
 70
     1
102
RTVSPropertyOp16
 70
     1
102
RTVSPropertyOp17
 70
     1
102
RTVSPropertyOp18
 70
     1
102
RTVSPropertyOp19
 70
     1
102
RTVSPropertyOp20
 70
     1
102
RTVSPropertyOp21
 70
     1
102
RTVSPropertyOp22
 70
     1
102
RTVSPropertyOp23
 70
     1
102
RTVSPropertyOp24
 70
     1
102
RTVSPropertyOp25
 70
     1
102
RTVSPropertyOp26
 70
     1
102
RTVSPropertyOp27
 70
     1
  0
XRECORD
  5
300
102
{ACAD_REACTORS
330
2FF
102
}
330
2FF
100
AcDbXrecord
280
     1
102
RTVSPropertyOp0
 70
     1
102
RTVSPropertyOp1
 70
     1
102
RTVSPropertyOp2
 70
     1
102
RTVSPropertyOp3
 70
     1
102
RTVSPropertyOp4
 70
     1
102
RTVSPropertyOp5
 70
     1
102
RTVSPropertyOp6
 70
     1
102
RTVSPropertyOp7
 70
     1
102
RTVSPropertyOp8
 70
     1
102
RTVSPropertyOp9
 70
     1
102
RTVSPropertyOp10
 70
     1
102
RTVSPropertyOp11
 70
     1
102
RTVSPropertyOp12
 70
     1
102
RTVSPropertyOp13
 70
     1
102
RTVSPropertyOp14
 70
     1
102
RTVSPropertyOp15
 70
     1
102
RTVSPropertyOp16
 70
     1
102
RTVSPropertyOp17
 70
     1
102
RTVSPropertyOp18
 70
     1
102
RTVSPropertyOp19
 70
     1
102
RTVSPropertyOp20
 70
     1
102
RTVSPropertyOp21
 70
     1
102
RTVSPropertyOp22
 70
     1
102
RTVSPropertyOp23
 70
     1
102
RTVSPropertyOp24
 70
     1
102
RTVSPropertyOp25
 70
     1
102
RTVSPropertyOp26
 70
     1
102
RTVSPropertyOp27
 70
     1
  0
XRECORD
  5
308
102
{ACAD_REACTORS
330
307
102
}
330
307
100
AcDbXrecord
280
     1
102
RTVSPropertyOp0
 70
     1
102
RTVSPropertyOp1
 70
     1
102
RTVSPropertyOp2
 70
     1
102
RTVSPropertyOp3
 70
     1
102
RTVSPropertyOp4
 70
     1
102
RTVSPropertyOp5
 70
     1
102
RTVSPropertyOp6
 70
     1
102
RTVSPropertyOp7
 70
     1
102
RTVSPropertyOp8
 70
     1
102
RTVSPropertyOp9
 70
     1
102
RTVSPropertyOp10
 70
     1
102
RTVSPropertyOp11
 70
     1
102
RTVSPropertyOp12
 70
     1
102
RTVSPropertyOp13
 70
     1
102
RTVSPropertyOp14
 70
     1
102
RTVSPropertyOp15
 70
     1
102
RTVSPropertyOp16
 70
     1
102
RTVSPropertyOp17
 70
     1
102
RTVSPropertyOp18
 70
     1
102
RTVSPropertyOp19
 70
     1
102
RTVSPropertyOp20
 70
     1
102
RTVSPropertyOp21
 70
     1
102
RTVSPropertyOp22
 70
     1
102
RTVSPropertyOp23
 70
     1
102
RTVSPropertyOp24
 70
     1
102
RTVSPropertyOp25
 70
     1
102
RTVSPropertyOp26
 70
     1
102
RTVSPropertyOp27
 70
     1
  0
ENDSEC
  0
EOF
