  0
SECTION
  2
HEADER
  9
$ACADVER
  1
AC1018
  9
$ACADMAINTVER
 70
     0
  9
$DWGCODEPAGE
  3
ANSI_1252
  9
$INSBASE
 10
0.0
 20
0.0
 30
0.0
  9
$EXTMIN
 10
72478.60263392073
 20
3282.444290896582
 30
0.0
  9
$EXTMAX
 10
75445.62816764117
 20
5282.444306155371
 30
0.0
  9
$LIMMIN
 10
0.0
 20
0.0
  9
$LIMMAX
 10
420.0
 20
297.0
  9
$ORTHOMODE
 70
     0
  9
$REGENMODE
 70
     1
  9
$FILLMODE
 70
     1
  9
$QTEXTMODE
 70
     0
  9
$MIRRTEXT
 70
     1
  9
$LTSCALE
 40
1.0
  9
$ATTMODE
 70
     1
  9
$TEXTSIZE
 40
0.2
  9
$TRACEWID
 40
1.0
  9
$TEXTSTYLE
  7
HELV-HFT
  9
$CLAYER
  8
MTQ-550-410
  9
$CELTYPE
  6
Continuous
  9
$CECOLOR
 62
   256
  9
$CELTSCALE
 40
1.0
  9
$DISPSILH
 70
     0
  9
$DIMSCALE
 40
1.0
  9
$DIMASZ
 40
2.5
  9
$DIMEXO
 40
0.625
  9
$DIMDLI
 40
3.75
  9
$DIMRND
 40
0.0
  9
$DIMDLE
 40
0.0
  9
$DIMEXE
 40
1.25
  9
$DIMTP
 40
0.0
  9
$DIMTM
 40
0.0
  9
$DIMTXT
 40
2.5
  9
$DIMCEN
 40
2.5
  9
$DIMTSZ
 40
0.0
  9
$DIMTOL
 70
     0
  9
$DIMLIM
 70
     0
  9
$DIMTIH
 70
     0
  9
$DIMTOH
 70
     0
  9
$DIMSE1
 70
     0
  9
$DIMSE2
 70
     0
  9
$DIMTAD
 70
     1
  9
$DIMZIN
 70
     8
  9
$DIMBLK
  1

  9
$DIMASO
 70
     1
  9
$DIMSHO
 70
     1
  9
$DIMPOST
  1

  9
$DIMAPOST
  1

  9
$DIMALT
 70
     0
  9
$DIMALTD
 70
     3
  9
$DIMALTF
 40
0.03937007874016
  9
$DIMLFAC
 40
1.0
  9
$DIMTOFL
 70
     1
  9
$DIMTVP
 40
0.0
  9
$DIMTIX
 70
     0
  9
$DIMSOXD
 70
     0
  9
$DIMSAH
 70
     0
  9
$DIMBLK1
  1

  9
$DIMBLK2
  1

  9
$DIMSTYLE
  2
ISO-25
  9
$DIMCLRD
 70
     0
  9
$DIMCLRE
 70
     0
  9
$DIMCLRT
 70
     0
  9
$DIMTFAC
 40
1.0
  9
$DIMGAP
 40
0.625
  9
$DIMJUST
 70
     0
  9
$DIMSD1
 70
     0
  9
$DIMSD2
 70
     0
  9
$DIMTOLJ
 70
     0
  9
$DIMTZIN
 70
     8
  9
$DIMALTZ
 70
     0
  9
$DIMALTTZ
 70
     0
  9
$DIMUPT
 70
     0
  9
$DIMDEC
 70
     2
  9
$DIMTDEC
 70
     2
  9
$DIMALTU
 70
     2
  9
$DIMALTTD
 70
     3
  9
$DIMTXSTY
  7
Standard
  9
$DIMAUNIT
 70
     0
  9
$DIMADEC
 70
     0
  9
$DIMALTRND
 40
0.0
  9
$DIMAZIN
 70
     0
  9
$DIMDSEP
 70
    44
  9
$DIMATFIT
 70
     3
  9
$DIMFRAC
 70
     0
  9
$DIMLDRBLK
  1

  9
$DIMLUNIT
 70
     2
  9
$DIMLWD
 70
    -2
  9
$DIMLWE
 70
    -2
  9
$DIMTMOVE
 70
     0
  9
$LUNITS
 70
     2
  9
$LUPREC
 70
     4
  9
$SKETCHINC
 40
1.0
  9
$FILLETRAD
 40
10.0
  9
$AUNITS
 70
     0
  9
$AUPREC
 70
     0
  9
$MENU
  1
.
  9
$ELEVATION
 40
0.0
  9
$PELEVATION
 40
0.0
  9
$THICKNESS
 40
0.0
  9
$LIMCHECK
 70
     0
  9
$CHAMFERA
 40
10.0
  9
$CHAMFERB
 40
10.0
  9
$CHAMFERC
 40
20.0
  9
$CHAMFERD
 40
0.0
  9
$SKPOLY
 70
     0
  9
$TDCREATE
 40
2457970.421285023
  9
$TDUCREATE
 40
2457970.33795169
  9
$TDUPDATE
 40
2457970.421301829
  9
$TDUUPDATE
 40
2457970.337968495
  9
$TDINDWG
 40
0.0000000116
  9
$TDUSRTIMER
 40
0.0000000116
  9
$USRTIMER
 70
     1
  9
$ANGBASE
 50
0.0
  9
$ANGDIR
 70
     0
  9
$PDMODE
 70
     0
  9
$PDSIZE
 40
0.0
  9
$PLINEWID
 40
0.0
  9
$SPLFRAME
 70
     0
  9
$SPLINETYPE
 70
     6
  9
$SPLINESEGS
 70
     8
  9
$HANDSEED
  5
36D
  9
$SURFTAB1
 70
     6
  9
$SURFTAB2
 70
     6
  9
$SURFTYPE
 70
     6
  9
$SURFU
 70
     6
  9
$SURFV
 70
     6
  9
$UCSBASE
  2

  9
$UCSNAME
  2

  9
$UCSORG
 10
0.0
 20
0.0
 30
0.0
  9
$UCSXDIR
 10
1.0
 20
0.0
 30
0.0
  9
$UCSYDIR
 10
0.0
 20
1.0
 30
0.0
  9
$UCSORTHOREF
  2

  9
$UCSORTHOVIEW
 70
     0
  9
$UCSORGTOP
 10
0.0
 20
0.0
 30
0.0
  9
$UCSORGBOTTOM
 10
0.0
 20
0.0
 30
0.0
  9
$UCSORGLEFT
 10
0.0
 20
0.0
 30
0.0
  9
$UCSORGRIGHT
 10
0.0
 20
0.0
 30
0.0
  9
$UCSORGFRONT
 10
0.0
 20
0.0
 30
0.0
  9
$UCSORGBACK
 10
0.0
 20
0.0
 30
0.0
  9
$PUCSBASE
  2

  9
$PUCSNAME
  2

  9
$PUCSORG
 10
0.0
 20
0.0
 30
0.0
  9
$PUCSXDIR
 10
1.0
 20
0.0
 30
0.0
  9
$PUCSYDIR
 10
0.0
 20
1.0
 30
0.0
  9
$PUCSORTHOREF
  2

  9
$PUCSORTHOVIEW
 70
     0
  9
$PUCSORGTOP
 10
0.0
 20
0.0
 30
0.0
  9
$PUCSORGBOTTOM
 10
0.0
 20
0.0
 30
0.0
  9
$PUCSORGLEFT
 10
0.0
 20
0.0
 30
0.0
  9
$PUCSORGRIGHT
 10
0.0
 20
0.0
 30
0.0
  9
$PUCSORGFRONT
 10
0.0
 20
0.0
 30
0.0
  9
$PUCSORGBACK
 10
0.0
 20
0.0
 30
0.0
  9
$USERI1
 70
     0
  9
$USERI2
 70
     0
  9
$USERI3
 70
     0
  9
$USERI4
 70
     0
  9
$USERI5
 70
     0
  9
$USERR1
 40
0.0
  9
$USERR2
 40
0.0
  9
$USERR3
 40
0.0
  9
$USERR4
 40
0.0
  9
$USERR5
 40
0.0
  9
$WORLDVIEW
 70
     1
  9
$SHADEDGE
 70
     3
  9
$SHADEDIF
 70
    70
  9
$TILEMODE
 70
     1
  9
$MAXACTVP
 70
    64
  9
$PINSBASE
 10
0.0
 20
0.0
 30
0.0
  9
$PLIMCHECK
 70
     0
  9
$PEXTMIN
 10
1.000000000000000E+20
 20
1.000000000000000E+20
 30
1.000000000000000E+20
  9
$PEXTMAX
 10
-1.000000000000000E+20
 20
-1.000000000000000E+20
 30
-1.000000000000000E+20
  9
$PLIMMIN
 10
0.0
 20
0.0
  9
$PLIMMAX
 10
420.0
 20
297.0
  9
$UNITMODE
 70
     0
  9
$VISRETAIN
 70
     1
  9
$PLINEGEN
 70
     0
  9
$PSLTSCALE
 70
     1
  9
$TREEDEPTH
 70
  3020
  9
$CMLSTYLE
  2
Standard
  9
$CMLJUST
 70
     0
  9
$CMLSCALE
 40
20.0
  9
$PROXYGRAPHICS
 70
     1
  9
$MEASUREMENT
 70
     1
  9
$CELWEIGHT
370
    -1
  9
$ENDCAPS
280
     0
  9
$JOINSTYLE
280
     0
  9
$LWDISPLAY
290
     0
  9
$INSUNITS
 70
     4
  9
$HYPERLINKBASE
  1

  9
$STYLESHEET
  1

  9
$XEDIT
290
     1
  9
$CEPSNTYPE
380
     0
  9
$PSTYLEMODE
290
     1
  9
$FINGERPRINTGUID
  2
{CCFE3241-A365-4C0D-91F5-4503DE6B380F}
  9
$VERSIONGUID
  2
{FAEB1C32-E019-11D5-929B-00C0DF256EC4}
  9
$EXTNAMES
290
     1
  9
$PSVPSCALE
 40
0.0
  9
$OLESTARTUP
290
     0
  9
$SORTENTS
280
   127
  9
$INDEXCTL
280
     0
  9
$HIDETEXT
280
     1
  9
$XCLIPFRAME
290
     0
  9
$HALOGAP
280
     0
  9
$OBSCOLOR
 70
   257
  9
$OBSLTYPE
280
     0
  9
$INTERSECTIONDISPLAY
280
     0
  9
$INTERSECTIONCOLOR
 70
   257
  9
$DIMASSOC
280
     2
  9
$PROJECTNAME
  1

  0
ENDSEC
  0
SECTION
  2
CLASSES
  0
CLASS
  1
ACDBDICTIONARYWDFLT
  2
AcDbDictionaryWithDefault
  3
ObjectDBX Classes
 90
        0
 91
        4
280
     0
281
     0
  0
CLASS
  1
VISUALSTYLE
  2
AcDbVisualStyle
  3
ObjectDBX Classes
 90
     4095
 91
        4
280
     0
281
     0
  0
CLASS
  1
MATERIAL
  2
AcDbMaterial
  3
ObjectDBX Classes
 90
     1153
 91
        4
280
     0
281
     0
  0
CLASS
  1
SCALE
  2
AcDbScale
  3
ObjectDBX Classes
 90
     1153
 91
        4
280
     0
281
     0
  0
CLASS
  1
DICTIONARYVAR
  2
AcDbDictionaryVar
  3
ObjectDBX Classes
 90
        0
 91
        4
280
     0
281
     0
  0
ENDSEC
  0
SECTION
  2
TABLES
  0
TABLE
  2
VPORT
  5
8
330
0
100
AcDbSymbolTable
 70
     1
  0
VPORT
  5
29
330
8
100
AcDbSymbolTableRecord
100
AcDbViewportTableRecord
  2
*Active
 70
     0
 10
0.0
 20
0.0
 11
1.0
 21
1.0
 12
37153.1511583344
 22
2215.472149262988
 13
0.0
 23
0.0
 14
10.0
 24
10.0
 15
10.0
 25
10.0
 16
0.0
 26
0.0
 36
1.0
 17
0.0
 27
0.0
 37
0.0
 40
2040.000015563965
 41
1.48351275554191
 42
50.0
 43
0.0
 44
0.0
 50
0.0
 51
0.0
 71
     0
 72
   100
 73
     1
 74
     3
 75
     0
 76
     0
 77
     0
 78
     0
281
     0
 65
     1
110
0.0
120
0.0
130
0.0
111
1.0
121
0.0
131
0.0
112
0.0
122
1.0
132
0.0
 79
     0
146
0.0
  0
ENDTAB
  0
TABLE
  2
LTYPE
  5
5
330
0
100
AcDbSymbolTable
 70
     2
  0
LTYPE
  5
14
330
5
100
AcDbSymbolTableRecord
100
AcDbLinetypeTableRecord
  2
ByBlock
 70
     0
  3

 72
    65
 73
     0
 40
0.0
  0
LTYPE
  5
15
330
5
100
AcDbSymbolTableRecord
100
AcDbLinetypeTableRecord
  2
ByLayer
 70
     0
  3

 72
    65
 73
     0
 40
0.0
  0
LTYPE
  5
16
330
5
100
AcDbSymbolTableRecord
100
AcDbLinetypeTableRecord
  2
Continuous
 70
     0
  3
Solid line
 72
    65
 73
     0
 40
0.0
  0
LTYPE
  5
F5
330
5
100
AcDbSymbolTableRecord
100
AcDbLinetypeTableRecord
  2
DASHED1
 70
     0
  3

 72
    65
 73
     3
 40
1.0
 49
0.3
 74
     0
 49
-0.4
 74
     0
 49
0.3
 74
     0
  0
ENDTAB
  0
TABLE
  2
LAYER
  5
2
330
0
100
AcDbSymbolTable
 70
     7
  0
LAYER
  5
10
330
2
100
AcDbSymbolTableRecord
100
AcDbLayerTableRecord
  2
0
 70
     0
 62
     7
  6
Continuous
370
    -3
390
F
  0
LAYER
  5
3F
330
2
100
AcDbSymbolTableRecord
100
AcDbLayerTableRecord
  2
allgemein
 70
     0
 62
    18
420
        0
  6
Continuous
370
    25
390
F
  0
LAYER
  5
40
330
2
100
AcDbSymbolTableRecord
100
AcDbLayerTableRecord
  2
Beschriftung Allgemein
 70
     0
 62
    18
420
        0
  6
Continuous
370
    25
390
F
  0
LAYER
  5
41
330
2
100
AcDbSymbolTableRecord
100
AcDbLayerTableRecord
  2
MTO-620-410
 70
     0
 62
    18
420
        0
  6
Continuous
370
    25
390
F
  0
LAYER
  5
68
330
2
100
AcDbSymbolTableRecord
100
AcDbLayerTableRecord
  2
Defpoints
 70
     0
 62
     7
  6
Continuous
290
     0
370
    -3
390
F
  0
LAYER
  5
275
330
2
100
AcDbSymbolTableRecord
100
AcDbLayerTableRecord
  2
MTO-1200-410
 70
     0
 62
    18
420
        0
  6
Continuous
370
    25
390
F
  0
LAYER
  5
2CA
330
2
100
AcDbSymbolTableRecord
100
AcDbLayerTableRecord
  2
MTQ-550-410
 70
     0
 62
    18
420
        0
  6
Continuous
370
    25
390
F
  0
ENDTAB
  0
TABLE
  2
STYLE
  5
3
330
0
100
AcDbSymbolTable
 70
     6
  0
STYLE
  5
11
330
3
100
AcDbSymbolTableRecord
100
AcDbTextStyleTableRecord
  2
Standard
 70
     0
 40
0.0
 41
1.0
 50
0.0
 71
     0
 42
2.5
  3
txt
  4

  0
STYLE
  5
66
330
3
100
AcDbSymbolTableRecord
100
AcDbTextStyleTableRecord
  2
ARIAL
 70
     0
 40
0.0
 41
1.0
 50
0.0
 71
     0
 42
0.2
  3
ARIAL
  4

  0
STYLE
  5
7B
330
3
100
AcDbSymbolTableRecord
100
AcDbTextStyleTableRecord
  2
ROMAN
 70
     0
 40
0.0
 41
1.0
 50
0.0
 71
     0
 42
0.2
  3
ROMAN
  4

  0
STYLE
  5
251
330
3
100
AcDbSymbolTableRecord
100
AcDbTextStyleTableRecord
  2
CENTURY GOTHIC
 70
     0
 40
0.0
 41
1.0
 50
0.0
 71
     0
 42
0.2
  3
CENTURY GOTHIC
  4

  0
STYLE
  5
26D
330
3
100
AcDbSymbolTableRecord
100
AcDbTextStyleTableRecord
  2
HLV-L
 70
     0
 40
0.0
 41
1.0
 50
0.0
 71
     0
 42
0.2
  3
HLV-L
  4

  0
STYLE
  5
273
330
3
100
AcDbSymbolTableRecord
100
AcDbTextStyleTableRecord
  2
HELV-HFT
 70
     0
 40
0.0
 41
1.0
 50
0.0
 71
     0
 42
0.2
  3
HELV-HFT
  4

  0
ENDTAB
  0
TABLE
  2
VIEW
  5
6
330
0
100
AcDbSymbolTable
 70
     0
  0
ENDTAB
  0
TABLE
  2
UCS
  5
7
330
0
100
AcDbSymbolTable
 70
     0
  0
ENDTAB
  0
TABLE
  2
APPID
  5
9
330
0
100
AcDbSymbolTable
 70
     3
  0
APPID
  5
12
330
9
100
AcDbSymbolTableRecord
100
AcDbRegAppTableRecord
  2
ACAD
 70
     0
  0
APPID
  5
341
330
9
100
AcDbSymbolTableRecord
100
AcDbRegAppTableRecord
  2
ACAD_DSTYLE_DIMEXT_ENABLED
 70
     0
  0
APPID
  5
342
330
9
100
AcDbSymbolTableRecord
100
AcDbRegAppTableRecord
  2
ACAD_DSTYLE_DIMEXT_LENGTH
 70
     0
  0
ENDTAB
  0
TABLE
  2
DIMSTYLE
  5
A
330
0
100
AcDbSymbolTable
 70
     1
100
AcDbDimStyleTable
  0
DIMSTYLE
105
27
102
{ACAD_REACTORS
330
67
330
7C
330
89
330
96
330
A3
330
B2
330
BF
330
CC
330
D9
102
}
330
A
100
AcDbSymbolTableRecord
100
AcDbDimStyleTableRecord
  2
ISO-25
 70
     0
 41
2.5
 42
0.625
 43
3.75
 44
1.25
 73
     0
 74
     0
 77
     1
 78
     8
140
2.5
141
2.5
143
0.03937007874016
147
0.625
171
     3
172
     1
178
     0
271
     2
272
     2
274
     3
278
    44
283
     0
284
     8
340
11
  0
ENDTAB
  0
TABLE
  2
BLOCK_RECORD
  5
1
330
0
100
AcDbSymbolTable
 70
    65
  0
BLOCK_RECORD
  5
1F
330
1
100
AcDbSymbolTableRecord
100
AcDbBlockTableRecord
  2
*Model_Space
340
22
  0
BLOCK_RECORD
  5
1B
330
1
100
AcDbSymbolTableRecord
100
AcDbBlockTableRecord
  2
*Paper_Space
340
1E
  0
BLOCK_RECORD
  5
23
330
1
100
AcDbSymbolTableRecord
100
AcDbBlockTableRecord
  2
*Paper_Space0
340
26
  0
BLOCK_RECORD
  5
42
330
1
100
AcDbSymbolTableRecord
100
AcDbBlockTableRecord
  2
Dimension1
340
0
102
{BLKREFS
331
45
102
}
  0
BLOCK_RECORD
  5
46
330
1
100
AcDbSymbolTableRecord
100
AcDbBlockTableRecord
  2
Dimension2
340
0
102
{BLKREFS
331
49
102
}
  0
BLOCK_RECORD
  5
4A
330
1
100
AcDbSymbolTableRecord
100
AcDbBlockTableRecord
  2
Dimension3
340
0
102
{BLKREFS
331
4D
102
}
  0
BLOCK_RECORD
  5
4E
330
1
100
AcDbSymbolTableRecord
100
AcDbBlockTableRecord
  2
Dimension4
340
0
102
{BLKREFS
331
51
102
}
  0
BLOCK_RECORD
  5
52
330
1
100
AcDbSymbolTableRecord
100
AcDbBlockTableRecord
  2
Dimension5
340
0
102
{BLKREFS
331
55
102
}
  0
BLOCK_RECORD
  5
56
330
1
100
AcDbSymbolTableRecord
100
AcDbBlockTableRecord
  2
Dimension6
340
0
102
{BLKREFS
331
59
102
}
  0
BLOCK_RECORD
  5
5A
330
1
100
AcDbSymbolTableRecord
100
AcDbBlockTableRecord
  2
Dimension7
340
0
102
{BLKREFS
331
5D
102
}
  0
BLOCK_RECORD
  5
5E
330
1
100
AcDbSymbolTableRecord
100
AcDbBlockTableRecord
  2
Dimension8
340
0
102
{BLKREFS
331
61
102
}
  0
BLOCK_RECORD
  5
62
330
1
100
AcDbSymbolTableRecord
100
AcDbBlockTableRecord
  2
Dimension9
340
0
102
{BLKREFS
331
65
102
}
  0
BLOCK_RECORD
  5
69
330
1
100
AcDbSymbolTableRecord
100
AcDbBlockTableRecord
  2
*D10
340
0
  0
BLOCK_RECORD
  5
75
330
1
100
AcDbSymbolTableRecord
100
AcDbBlockTableRecord
  2
_OPEN30
340
0
102
{BLKREFS
331
6D
331
6E
331
81
331
82
331
8E
331
8F
331
9B
331
9C
331
0
331
0
331
AB
331
AA
331
B7
331
B8
331
C4
331
C5
331
D1
331
D2
331
DE
331
DF
102
}
  0
BLOCK_RECORD
  5
7D
330
1
100
AcDbSymbolTableRecord
100
AcDbBlockTableRecord
  2
*D12
340
0
  0
BLOCK_RECORD
  5
8A
330
1
100
AcDbSymbolTableRecord
100
AcDbBlockTableRecord
  2
*D13
340
0
  0
BLOCK_RECORD
  5
97
330
1
100
AcDbSymbolTableRecord
100
AcDbBlockTableRecord
  2
*D14
340
0
  0
BLOCK_RECORD
  5
A4
330
1
100
AcDbSymbolTableRecord
100
AcDbBlockTableRecord
  2
*D15
340
0
  0
BLOCK_RECORD
  5
B3
330
1
100
AcDbSymbolTableRecord
100
AcDbBlockTableRecord
  2
*D16
340
0
  0
BLOCK_RECORD
  5
C0
330
1
100
AcDbSymbolTableRecord
100
AcDbBlockTableRecord
  2
*D17
340
0
  0
BLOCK_RECORD
  5
CD
330
1
100
AcDbSymbolTableRecord
100
AcDbBlockTableRecord
  2
*D18
340
0
  0
BLOCK_RECORD
  5
DA
330
1
100
AcDbSymbolTableRecord
100
AcDbBlockTableRecord
  2
*D19
340
0
  0
BLOCK_RECORD
  5
E6
330
1
100
AcDbSymbolTableRecord
100
AcDbBlockTableRecord
  2
Dimension10
340
0
102
{BLKREFS
331
E9
102
}
  0
BLOCK_RECORD
  5
EA
330
1
100
AcDbSymbolTableRecord
100
AcDbBlockTableRecord
  2
Dimension11
340
0
102
{BLKREFS
331
ED
102
}
  0
BLOCK_RECORD
  5
EE
330
1
100
AcDbSymbolTableRecord
100
AcDbBlockTableRecord
  2
Dimension12
340
0
102
{BLKREFS
331
F1
102
}
  0
BLOCK_RECORD
  5
276
330
1
100
AcDbSymbolTableRecord
100
AcDbBlockTableRecord
  2
Dimension13
340
0
102
{BLKREFS
331
279
102
}
  0
BLOCK_RECORD
  5
27A
330
1
100
AcDbSymbolTableRecord
100
AcDbBlockTableRecord
  2
Dimension14
340
0
102
{BLKREFS
331
27D
102
}
  0
BLOCK_RECORD
  5
27E
330
1
100
AcDbSymbolTableRecord
100
AcDbBlockTableRecord
  2
Dimension15
340
0
102
{BLKREFS
331
281
102
}
  0
BLOCK_RECORD
  5
282
330
1
100
AcDbSymbolTableRecord
100
AcDbBlockTableRecord
  2
Dimension16
340
0
102
{BLKREFS
331
285
102
}
  0
BLOCK_RECORD
  5
286
330
1
100
AcDbSymbolTableRecord
100
AcDbBlockTableRecord
  2
Dimension17
340
0
102
{BLKREFS
331
289
102
}
  0
BLOCK_RECORD
  5
28A
330
1
100
AcDbSymbolTableRecord
100
AcDbBlockTableRecord
  2
Dimension18
340
0
102
{BLKREFS
331
28D
102
}
  0
BLOCK_RECORD
  5
28E
330
1
100
AcDbSymbolTableRecord
100
AcDbBlockTableRecord
  2
Dimension19
340
0
102
{BLKREFS
331
291
102
}
  0
BLOCK_RECORD
  5
292
330
1
100
AcDbSymbolTableRecord
100
AcDbBlockTableRecord
  2
Dimension20
340
0
102
{BLKREFS
331
295
102
}
  0
BLOCK_RECORD
  5
296
330
1
100
AcDbSymbolTableRecord
100
AcDbBlockTableRecord
  2
Dimension21
340
0
102
{BLKREFS
331
299
102
}
  0
BLOCK_RECORD
  5
29A
330
1
100
AcDbSymbolTableRecord
100
AcDbBlockTableRecord
  2
Dimension22
340
0
102
{BLKREFS
331
29D
102
}
  0
BLOCK_RECORD
  5
29E
330
1
100
AcDbSymbolTableRecord
100
AcDbBlockTableRecord
  2
Dimension23
340
0
102
{BLKREFS
331
2A1
102
}
  0
BLOCK_RECORD
  5
2A2
330
1
100
AcDbSymbolTableRecord
100
AcDbBlockTableRecord
  2
Dimension24
340
0
102
{BLKREFS
331
2A5
102
}
  0
BLOCK_RECORD
  5
2A6
330
1
100
AcDbSymbolTableRecord
100
AcDbBlockTableRecord
  2
Dimension25
340
0
102
{BLKREFS
331
2A9
102
}
  0
BLOCK_RECORD
  5
2AA
330
1
100
AcDbSymbolTableRecord
100
AcDbBlockTableRecord
  2
Dimension26
340
0
102
{BLKREFS
331
2AD
102
}
  0
BLOCK_RECORD
  5
2AE
330
1
100
AcDbSymbolTableRecord
100
AcDbBlockTableRecord
  2
Dimension27
340
0
102
{BLKREFS
331
2B1
102
}
  0
BLOCK_RECORD
  5
2B2
330
1
100
AcDbSymbolTableRecord
100
AcDbBlockTableRecord
  2
Dimension28
340
0
102
{BLKREFS
331
2B5
102
}
  0
BLOCK_RECORD
  5
2B6
330
1
100
AcDbSymbolTableRecord
100
AcDbBlockTableRecord
  2
Dimension29
340
0
102
{BLKREFS
331
2B9
102
}
  0
BLOCK_RECORD
  5
2BA
330
1
100
AcDbSymbolTableRecord
100
AcDbBlockTableRecord
  2
Dimension30
340
0
102
{BLKREFS
331
2BD
102
}
  0
BLOCK_RECORD
  5
2BE
330
1
100
AcDbSymbolTableRecord
100
AcDbBlockTableRecord
  2
Dimension31
340
0
102
{BLKREFS
331
2C1
102
}
  0
BLOCK_RECORD
  5
2C2
330
1
100
AcDbSymbolTableRecord
100
AcDbBlockTableRecord
  2
Dimension32
340
0
102
{BLKREFS
331
2C5
102
}
  0
BLOCK_RECORD
  5
2C6
330
1
100
AcDbSymbolTableRecord
100
AcDbBlockTableRecord
  2
Dimension33
340
0
102
{BLKREFS
331
2C9
102
}
  0
BLOCK_RECORD
  5
2CB
330
1
100
AcDbSymbolTableRecord
100
AcDbBlockTableRecord
  2
Dimension34
340
0
102
{BLKREFS
331
2CE
102
}
  0
BLOCK_RECORD
  5
2CF
330
1
100
AcDbSymbolTableRecord
100
AcDbBlockTableRecord
  2
Dimension35
340
0
102
{BLKREFS
331
2D2
102
}
  0
BLOCK_RECORD
  5
2D3
330
1
100
AcDbSymbolTableRecord
100
AcDbBlockTableRecord
  2
Dimension36
340
0
102
{BLKREFS
331
2D6
102
}
  0
BLOCK_RECORD
  5
2D7
330
1
100
AcDbSymbolTableRecord
100
AcDbBlockTableRecord
  2
Dimension37
340
0
102
{BLKREFS
331
2DA
102
}
  0
BLOCK_RECORD
  5
2DB
330
1
100
AcDbSymbolTableRecord
100
AcDbBlockTableRecord
  2
Dimension38
340
0
102
{BLKREFS
331
2DE
102
}
  0
BLOCK_RECORD
  5
2DF
330
1
100
AcDbSymbolTableRecord
100
AcDbBlockTableRecord
  2
Dimension39
340
0
102
{BLKREFS
331
2E2
102
}
  0
BLOCK_RECORD
  5
2E3
330
1
100
AcDbSymbolTableRecord
100
AcDbBlockTableRecord
  2
Dimension40
340
0
102
{BLKREFS
331
2E6
102
}
  0
BLOCK_RECORD
  5
2E7
330
1
100
AcDbSymbolTableRecord
100
AcDbBlockTableRecord
  2
Dimension41
340
0
102
{BLKREFS
331
2EA
102
}
  0
BLOCK_RECORD
  5
2EB
330
1
100
AcDbSymbolTableRecord
100
AcDbBlockTableRecord
  2
Dimension42
340
0
102
{BLKREFS
331
2EE
102
}
  0
BLOCK_RECORD
  5
2EF
330
1
100
AcDbSymbolTableRecord
100
AcDbBlockTableRecord
  2
Dimension43
340
0
102
{BLKREFS
331
2F2
102
}
  0
BLOCK_RECORD
  5
2F3
330
1
100
AcDbSymbolTableRecord
100
AcDbBlockTableRecord
  2
Dimension44
340
0
102
{BLKREFS
331
2F6
102
}
  0
BLOCK_RECORD
  5
2F7
330
1
100
AcDbSymbolTableRecord
100
AcDbBlockTableRecord
  2
Dimension45
340
0
102
{BLKREFS
331
2FA
102
}
  0
BLOCK_RECORD
  5
2FB
330
1
100
AcDbSymbolTableRecord
100
AcDbBlockTableRecord
  2
Dimension46
340
0
102
{BLKREFS
331
2FE
102
}
  0
BLOCK_RECORD
  5
2FF
330
1
100
AcDbSymbolTableRecord
100
AcDbBlockTableRecord
  2
Dimension47
340
0
102
{BLKREFS
331
302
102
}
  0
BLOCK_RECORD
  5
303
330
1
100
AcDbSymbolTableRecord
100
AcDbBlockTableRecord
  2
Dimension48
340
0
102
{BLKREFS
331
306
102
}
  0
BLOCK_RECORD
  5
307
330
1
100
AcDbSymbolTableRecord
100
AcDbBlockTableRecord
  2
Dimension49
340
0
102
{BLKREFS
331
30A
102
}
  0
BLOCK_RECORD
  5
30B
330
1
100
AcDbSymbolTableRecord
100
AcDbBlockTableRecord
  2
Dimension50
340
0
102
{BLKREFS
331
30E
102
}
  0
BLOCK_RECORD
  5
30F
330
1
100
AcDbSymbolTableRecord
100
AcDbBlockTableRecord
  2
Dimension51
340
0
102
{BLKREFS
331
312
102
}
  0
BLOCK_RECORD
  5
313
330
1
100
AcDbSymbolTableRecord
100
AcDbBlockTableRecord
  2
Dimension52
340
0
102
{BLKREFS
331
316
102
}
  0
BLOCK_RECORD
  5
317
330
1
100
AcDbSymbolTableRecord
100
AcDbBlockTableRecord
  2
Dimension53
340
0
102
{BLKREFS
331
31A
102
}
  0
BLOCK_RECORD
  5
31B
330
1
100
AcDbSymbolTableRecord
100
AcDbBlockTableRecord
  2
Dimension54
340
0
102
{BLKREFS
331
31E
102
}
  0
ENDTAB
  0
ENDSEC
  0
SECTION
  2
BLOCKS
  0
BLOCK
  5
20
330
1F
100
AcDbEntity
  8
0
100
AcDbBlockBegin
  2
*Model_Space
 70
     0
 10
0.0
 20
0.0
 30
0.0
  3
*Model_Space
  1

  0
ENDBLK
  5
21
330
1F
100
AcDbEntity
  8
0
100
AcDbBlockEnd
  0
BLOCK
  5
1C
330
1B
100
AcDbEntity
 67
     1
  8
0
100
AcDbBlockBegin
  2
*Paper_Space
 70
     0
 10
0.0
 20
0.0
 30
0.0
  3
*Paper_Space
  1

  0
ENDBLK
  5
1D
330
1B
100
AcDbEntity
 67
     1
  8
0
100
AcDbBlockEnd
  0
BLOCK
  5
24
330
23
100
AcDbEntity
  8
0
100
AcDbBlockBegin
  2
*Paper_Space0
 70
     0
 10
0.0
 20
0.0
 30
0.0
  3
*Paper_Space0
  1

  0
ENDBLK
  5
25
330
23
100
AcDbEntity
  8
0
100
AcDbBlockEnd
  0
BLOCK
  5
43
330
42
100
AcDbEntity
  8
0
100
AcDbBlockBegin
  2
Dimension1
 70
     0
 10
0.0
 20
0.0
 30
0.0
  3
Dimension1
  1

  0
ENDBLK
  5
44
330
42
100
AcDbEntity
  8
0
100
AcDbBlockEnd
  0
BLOCK
  5
47
330
46
100
AcDbEntity
  8
0
100
AcDbBlockBegin
  2
Dimension2
 70
     0
 10
0.0
 20
0.0
 30
0.0
  3
Dimension2
  1

  0
ENDBLK
  5
48
330
46
100
AcDbEntity
  8
0
100
AcDbBlockEnd
  0
BLOCK
  5
4B
330
4A
100
AcDbEntity
  8
0
100
AcDbBlockBegin
  2
Dimension3
 70
     0
 10
0.0
 20
0.0
 30
0.0
  3
Dimension3
  1

  0
ENDBLK
  5
4C
330
4A
100
AcDbEntity
  8
0
100
AcDbBlockEnd
  0
BLOCK
  5
4F
330
4E
100
AcDbEntity
  8
0
100
AcDbBlockBegin
  2
Dimension4
 70
     0
 10
0.0
 20
0.0
 30
0.0
  3
Dimension4
  1

  0
ENDBLK
  5
50
330
4E
100
AcDbEntity
  8
0
100
AcDbBlockEnd
  0
BLOCK
  5
53
330
52
100
AcDbEntity
  8
0
100
AcDbBlockBegin
  2
Dimension5
 70
     0
 10
0.0
 20
0.0
 30
0.0
  3
Dimension5
  1

  0
ENDBLK
  5
54
330
52
100
AcDbEntity
  8
0
100
AcDbBlockEnd
  0
BLOCK
  5
57
330
56
100
AcDbEntity
  8
0
100
AcDbBlockBegin
  2
Dimension6
 70
     0
 10
0.0
 20
0.0
 30
0.0
  3
Dimension6
  1

  0
ENDBLK
  5
58
330
56
100
AcDbEntity
  8
0
100
AcDbBlockEnd
  0
BLOCK
  5
5B
330
5A
100
AcDbEntity
  8
0
100
AcDbBlockBegin
  2
Dimension7
 70
     0
 10
0.0
 20
0.0
 30
0.0
  3
Dimension7
  1

  0
ENDBLK
  5
5C
330
5A
100
AcDbEntity
  8
0
100
AcDbBlockEnd
  0
BLOCK
  5
5F
330
5E
100
AcDbEntity
  8
0
100
AcDbBlockBegin
  2
Dimension8
 70
     0
 10
0.0
 20
0.0
 30
0.0
  3
Dimension8
  1

  0
ENDBLK
  5
60
330
5E
100
AcDbEntity
  8
0
100
AcDbBlockEnd
  0
BLOCK
  5
63
330
62
100
AcDbEntity
  8
0
100
AcDbBlockBegin
  2
Dimension9
 70
     0
 10
0.0
 20
0.0
 30
0.0
  3
Dimension9
  1

  0
ENDBLK
  5
64
330
62
100
AcDbEntity
  8
0
100
AcDbBlockEnd
  0
BLOCK
  5
73
330
69
100
AcDbEntity
  8
0
100
AcDbBlockBegin
  2
*D10
 70
     1
 10
0.0
 20
0.0
 30
0.0
  3
*D10
  1

  0
LINE
  5
6A
330
69
100
AcDbEntity
  8
MTO-620-410
  6
Continuous
 62
    18
 48
50.00000038146973
370
    -2
100
AcDbLine
 10
37043.61346077728
 20
2262.824157648404
 30
0.0
 11
37083.61345987129
 21
2262.824157648404
 31
0.0
  0
LINE
  5
6B
330
69
100
AcDbEntity
  8
MTO-620-410
  6
Continuous
 62
    18
 48
50.00000038146973
370
    -2
100
AcDbLine
 10
37043.61346077728
 20
2672.826571764371
 30
0.0
 11
37083.61345987129
 21
2672.826571764371
 31
0.0
  0
LINE
  5
6C
330
69
100
AcDbEntity
  8
MTO-620-410
  6
Continuous
 62
    18
 48
50.00000038146973
370
    -2
100
AcDbLine
 10
37063.61346032428
 20
2277.82415824445
 30
0.0
 11
37063.61346032428
 21
2657.826571168324
 31
0.0
  0
INSERT
  5
6D
330
69
100
AcDbEntity
  8
MTO-620-410
 62
    18
370
    -2
100
AcDbBlockReference
  2
_OPEN30
 10
37063.61346032428
 20
2262.824157648404
 30
0.0
 41
15.00000059604645
 42
15.00000059604645
 43
15.00000059604645
 50
270.0
  0
INSERT
  5
6E
330
69
100
AcDbEntity
  8
MTO-620-410
 62
    18
370
    -2
100
AcDbBlockReference
  2
_OPEN30
 10
37063.61346032428
 20
2672.826571764371
 30
0.0
 41
15.00000059604645
 42
15.00000059604645
 43
15.00000059604645
 50
90.0
  0
MTEXT
  5
6F
330
69
100
AcDbEntity
  8
MTO-620-410
  6
Continuous
 62
     0
370
    25
100
AcDbMText
 10
37023.19345623541
 20
2467.825364706388
 30
0.0
 40
40.0
 41
0.0
 71
     5
 72
     1
  1
410.002
  7
ARIAL
 11
0.0
 21
1.0
 31
0.0
 73
     1
 44
1.0
  0
POINT
  5
70
330
69
100
AcDbEntity
  8
Defpoints
 62
     0
100
AcDbPoint
 10
36654.58485816508
 20
2262.824157648404
 30
0.0
  0
POINT
  5
71
330
69
100
AcDbEntity
  8
Defpoints
 62
     0
100
AcDbPoint
 10
36654.58485816508
 20
2672.826571764371
 30
0.0
  0
POINT
  5
72
330
69
100
AcDbEntity
  8
Defpoints
 62
     0
100
AcDbPoint
 10
37063.61346032428
 20
2672.826571764371
 30
0.0
  0
ENDBLK
  5
74
330
69
100
AcDbEntity
  8
0
100
AcDbBlockEnd
  0
BLOCK
  5
76
330
75
100
AcDbEntity
  8
0
100
AcDbBlockBegin
  2
_OPEN30
 70
     0
 10
0.0
 20
0.0
 30
0.0
  3
_OPEN30
  1

  0
LINE
  5
78
330
75
100
AcDbEntity
  8
0
  6
ByBlock
 62
     0
370
    -2
100
AcDbLine
 10
-1.0
 20
0.267949
 30
0.0
 11
0.0
 21
0.0
 31
0.0
  0
LINE
  5
79
330
75
100
AcDbEntity
  8
0
  6
ByBlock
 62
     0
370
    -2
100
AcDbLine
 10
0.0
 20
0.0
 30
0.0
 11
-1.0
 21
-0.267949
 31
0.0
  0
LINE
  5
7A
330
75
100
AcDbEntity
  8
0
  6
ByBlock
 62
     0
370
    -2
100
AcDbLine
 10
0.0
 20
0.0
 30
0.0
 11
-1.0
 21
0.0
 31
0.0
  0
ENDBLK
  5
77
330
75
100
AcDbEntity
  8
0
100
AcDbBlockEnd
  0
BLOCK
  5
87
330
7D
100
AcDbEntity
  8
0
100
AcDbBlockBegin
  2
*D12
 70
     1
 10
0.0
 20
0.0
 30
0.0
  3
*D12
  1

  0
LINE
  5
7E
330
7D
100
AcDbEntity
  8
MTO-620-410
  6
Continuous
 62
    18
 48
50.00000038146973
370
    -2
100
AcDbLine
 10
36654.58476127177
 20
2806.825365159383
 30
0.0
 11
36654.58476127177
 21
2846.825364253392
 31
0.0
  0
LINE
  5
7F
330
7D
100
AcDbEntity
  8
MTO-620-410
  6
Continuous
 62
    18
 48
50.00000038146973
370
    -2
100
AcDbLine
 10
37004.61346032428
 20
2806.825365159383
 30
0.0
 11
37004.61346032428
 21
2846.825364253392
 31
0.0
  0
LINE
  5
80
330
7D
100
AcDbEntity
  8
MTO-620-410
  6
Continuous
 62
    18
 48
50.00000038146973
370
    -2
100
AcDbLine
 10
36663.5847616294
 20
2826.825364706388
 30
0.0
 11
36995.61345996665
 21
2826.825364706388
 31
0.0
  0
INSERT
  5
81
330
7D
100
AcDbEntity
  8
MTO-620-410
 62
    18
370
    -2
100
AcDbBlockReference
  2
_OPEN30
 10
36654.58476127177
 20
2826.825364706388
 30
0.0
 41
9.000000357627869
 42
9.000000357627869
 43
9.000000357627869
 50
180.0
  0
INSERT
  5
82
330
7D
100
AcDbEntity
  8
MTO-620-410
 62
    18
370
    -2
100
AcDbBlockReference
  2
_OPEN30
 10
37004.61346032428
 20
2826.825364706388
 30
0.0
 41
9.000000357627869
 42
9.000000357627869
 43
9.000000357627869
  0
MTEXT
  5
83
330
7D
100
AcDbEntity
  8
MTO-620-410
  6
Continuous
 62
    18
370
    25
100
AcDbMText
 10
36829.59911079802
 20
2858.825368795266
 30
0.0
 40
24.0
 41
0.0
 71
     5
 72
     1
  1
350.029
  7
ROMAN
 73
     1
 44
1.0
  0
POINT
  5
84
330
7D
100
AcDbEntity
  8
Defpoints
 62
     0
100
AcDbPoint
 10
36654.58476127177
 20
2495.325381872525
 30
0.0
  0
POINT
  5
85
330
7D
100
AcDbEntity
  8
Defpoints
 62
     0
100
AcDbPoint
 10
37004.61346032428
 20
2767.825364706388
 30
0.0
  0
POINT
  5
86
330
7D
100
AcDbEntity
  8
Defpoints
 62
     0
100
AcDbPoint
 10
37004.61346032428
 20
2826.825364706388
 30
0.0
  0
ENDBLK
  5
88
330
7D
100
AcDbEntity
  8
0
100
AcDbBlockEnd
  0
BLOCK
  5
94
330
8A
100
AcDbEntity
  8
0
100
AcDbBlockBegin
  2
*D13
 70
     1
 10
0.0
 20
0.0
 30
0.0
  3
*D13
  1

  0
LINE
  5
8B
330
8A
100
AcDbEntity
  8
MTO-620-410
  6
Continuous
 62
    18
 48
50.00000038146973
370
    -2
100
AcDbLine
 10
36304.61346032428
 20
2806.825365159383
 30
0.0
 11
36304.61346032428
 21
2846.825364253392
 31
0.0
  0
LINE
  5
8C
330
8A
100
AcDbEntity
  8
MTO-620-410
  6
Continuous
 62
    18
 48
50.00000038146973
370
    -2
100
AcDbLine
 10
36654.58476127177
 20
2806.825365159383
 30
0.0
 11
36654.58476127177
 21
2846.825364253392
 31
0.0
  0
LINE
  5
8D
330
8A
100
AcDbEntity
  8
MTO-620-410
  6
Continuous
 62
    18
 48
50.00000038146973
370
    -2
100
AcDbLine
 10
36313.61346068191
 20
2826.825364706388
 30
0.0
 11
36645.58476091414
 21
2826.825364706388
 31
0.0
  0
INSERT
  5
8E
330
8A
100
AcDbEntity
  8
MTO-620-410
 62
    18
370
    -2
100
AcDbBlockReference
  2
_OPEN30
 10
36304.61346032428
 20
2826.825364706388
 30
0.0
 41
9.000000357627869
 42
9.000000357627869
 43
9.000000357627869
 50
180.0
  0
INSERT
  5
8F
330
8A
100
AcDbEntity
  8
MTO-620-410
 62
    18
370
    -2
100
AcDbBlockReference
  2
_OPEN30
 10
36654.58476127177
 20
2826.825364706388
 30
0.0
 41
9.000000357627869
 42
9.000000357627869
 43
9.000000357627869
  0
MTEXT
  5
90
330
8A
100
AcDbEntity
  8
MTO-620-410
  6
Continuous
 62
    18
370
    25
100
AcDbMText
 10
36479.59911079802
 20
2858.825368795266
 30
0.0
 40
24.0
 41
0.0
 71
     5
 72
     1
  1
349.971
  7
ROMAN
 73
     1
 44
1.0
  0
POINT
  5
91
330
8A
100
AcDbEntity
  8
Defpoints
 62
     0
100
AcDbPoint
 10
36304.61346032428
 20
2767.825364706388
 30
0.0
  0
POINT
  5
92
330
8A
100
AcDbEntity
  8
Defpoints
 62
     0
100
AcDbPoint
 10
36654.58476127177
 20
2495.325381872525
 30
0.0
  0
POINT
  5
93
330
8A
100
AcDbEntity
  8
Defpoints
 62
     0
100
AcDbPoint
 10
36654.58476127177
 20
2826.825364706388
 30
0.0
  0
ENDBLK
  5
95
330
8A
100
AcDbEntity
  8
0
100
AcDbBlockEnd
  0
BLOCK
  5
A1
330
97
100
AcDbEntity
  8
0
100
AcDbBlockBegin
  2
*D14
 70
     1
 10
0.0
 20
0.0
 30
0.0
  3
*D14
  1

  0
LINE
  5
98
330
97
100
AcDbEntity
  8
MTO-620-410
  6
Continuous
 62
    18
 48
50.00000038146973
370
    -2
100
AcDbLine
 10
36304.61346032428
 20
2860.825365159383
 30
0.0
 11
36304.61346032428
 21
2900.825364253392
 31
0.0
  0
LINE
  5
99
330
97
100
AcDbEntity
  8
MTO-620-410
  6
Continuous
 62
    18
 48
50.00000038146973
370
    -2
100
AcDbLine
 10
37004.61346032428
 20
2860.825365159383
 30
0.0
 11
37004.61346032428
 21
2900.825364253392
 31
0.0
  0
LINE
  5
9A
330
97
100
AcDbEntity
  8
MTO-620-410
  6
Continuous
 62
    18
 48
50.00000038146973
370
    -2
100
AcDbLine
 10
36313.61346068191
 20
2880.825364706388
 30
0.0
 11
36995.61345996665
 21
2880.825364706388
 31
0.0
  0
INSERT
  5
9B
330
97
100
AcDbEntity
  8
MTO-620-410
 62
    18
370
    -2
100
AcDbBlockReference
  2
_OPEN30
 10
36304.61346032428
 20
2880.825364706388
 30
0.0
 41
9.000000357627869
 42
9.000000357627869
 43
9.000000357627869
 50
180.0
  0
INSERT
  5
9C
330
97
100
AcDbEntity
  8
MTO-620-410
 62
    18
370
    -2
100
AcDbBlockReference
  2
_OPEN30
 10
37004.61346032428
 20
2880.825364706388
 30
0.0
 41
9.000000357627869
 42
9.000000357627869
 43
9.000000357627869
  0
MTEXT
  5
9D
330
97
100
AcDbEntity
  8
MTO-620-410
  6
Continuous
 62
    18
370
    25
100
AcDbMText
 10
36654.61346032428
 20
2912.825368795266
 30
0.0
 40
24.0
 41
0.0
 71
     5
 72
     1
  1
700
  7
ROMAN
 73
     1
 44
1.0
  0
POINT
  5
9E
330
97
100
AcDbEntity
  8
Defpoints
 62
     0
100
AcDbPoint
 10
36304.61346032428
 20
2767.825364706388
 30
0.0
  0
POINT
  5
9F
330
97
100
AcDbEntity
  8
Defpoints
 62
     0
100
AcDbPoint
 10
37004.61346032428
 20
2767.825364706388
 30
0.0
  0
POINT
  5
A0
330
97
100
AcDbEntity
  8
Defpoints
 62
     0
100
AcDbPoint
 10
37004.61346032428
 20
2880.825364706388
 30
0.0
  0
ENDBLK
  5
A2
330
97
100
AcDbEntity
  8
0
100
AcDbBlockEnd
  0
BLOCK
  5
AE
330
A4
100
AcDbEntity
  8
0
100
AcDbBlockBegin
  2
*D15
 70
     1
 10
0.0
 20
0.0
 30
0.0
  3
*D15
  1

  0
LINE
  5
A5
330
A4
100
AcDbEntity
  8
MTO-620-410
  6
Continuous
 62
    18
 48
50.00000038146973
370
    -2
100
AcDbLine
 10
37299.61322127683
 20
2806.825365159383
 30
0.0
 11
37299.61322127683
 21
2846.825364253392
 31
0.0
  0
LINE
  5
A6
330
A4
100
AcDbEntity
  8
MTO-620-410
  6
Continuous
 62
    18
 48
50.00000038146973
370
    -2
100
AcDbLine
 10
37204.61346032428
 20
2806.825365159383
 30
0.0
 11
37204.61346032428
 21
2846.825364253392
 31
0.0
  0
LINE
  5
A7
330
A4
100
AcDbEntity
  8
MTO-620-410
  6
Continuous
 62
    18
 48
50.00000038146973
370
    -2
100
AcDbLine
 10
37299.61322127683
 20
2826.825364706388
 30
0.0
 11
37204.61346032428
 21
2826.825364706388
 31
0.0
  0
LINE
  5
A8
330
A4
100
AcDbEntity
  8
MTO-620-410
  6
Continuous
 62
    18
 48
50.00000038146973
370
    -2
100
AcDbLine
 10
37314.61322187287
 20
2826.825364706388
 30
0.0
 11
37329.61322246892
 21
2826.825364706388
 31
0.0
  0
LINE
  5
A9
330
A4
100
AcDbEntity
  8
MTO-620-410
  6
Continuous
 62
    18
 48
50.00000038146973
370
    -2
100
AcDbLine
 10
37189.61345972824
 20
2826.825364706388
 30
0.0
 11
37174.61345913219
 21
2826.825364706388
 31
0.0
  0
INSERT
  5
AA
330
A4
100
AcDbEntity
  8
MTO-620-410
 62
    18
370
    -2
100
AcDbBlockReference
  2
_OPEN30
 10
37299.61322127683
 20
2826.825364706388
 30
0.0
 41
15.00000059604645
 42
15.00000059604645
 43
15.00000059604645
 50
180.0
  0
INSERT
  5
AB
330
A4
100
AcDbEntity
  8
MTO-620-410
 62
    18
370
    -2
100
AcDbBlockReference
  2
_OPEN30
 10
37204.61346032428
 20
2826.825364706388
 30
0.0
 41
15.00000059604645
 42
15.00000059604645
 43
15.00000059604645
  0
MTEXT
  5
AC
330
A4
100
AcDbEntity
  8
MTO-620-410
  6
Continuous
 62
     0
370
    25
100
AcDbMText
 10
37252.11334080056
 20
2867.245368795266
 30
0.0
 40
40.0
 41
0.0
 71
     5
 72
     1
  1
95
  7
ARIAL
 73
     1
 44
1.0
  0
POINT
  5
AD
330
A4
100
AcDbEntity
  8
Defpoints
 62
     0
100
AcDbPoint
 10
37299.61322127683
 20
2468.341230375977
 30
0.0
  0
POINT
  5
B0
330
A4
100
AcDbEntity
  8
Defpoints
 62
     0
100
AcDbPoint
 10
37204.61346032428
 20
2468.341230375977
 30
0.0
  0
POINT
  5
B1
330
A4
100
AcDbEntity
  8
Defpoints
 62
     0
100
AcDbPoint
 10
37204.61346032428
 20
2826.825364706388
 30
0.0
  0
ENDBLK
  5
AF
330
A4
100
AcDbEntity
  8
0
100
AcDbBlockEnd
  0
BLOCK
  5
BD
330
B3
100
AcDbEntity
  8
0
100
AcDbBlockBegin
  2
*D16
 70
     1
 10
0.0
 20
0.0
 30
0.0
  3
*D16
  1

  0
LINE
  5
B4
330
B3
100
AcDbEntity
  8
MTO-620-410
  6
Continuous
 62
    18
 48
50.00000038146973
370
    -2
100
AcDbLine
 10
36344.58485816509
 20
2178.82536425339
 30
0.0
 11
36344.58485816509
 21
2138.825365159381
 31
0.0
  0
LINE
  5
B5
330
B3
100
AcDbEntity
  8
MTO-620-410
  6
Continuous
 62
    18
 48
50.00000038146973
370
    -2
100
AcDbLine
 10
36964.58485816509
 20
2178.82536425339
 30
0.0
 11
36964.58485816509
 21
2138.825365159381
 31
0.0
  0
LINE
  5
B6
330
B3
100
AcDbEntity
  8
MTO-620-410
  6
Continuous
 62
    18
 48
50.00000038146973
370
    -2
100
AcDbLine
 10
36359.58485876114
 20
2158.825364706386
 30
0.0
 11
36949.58485756905
 21
2158.825364706386
 31
0.0
  0
INSERT
  5
B7
330
B3
100
AcDbEntity
  8
MTO-620-410
 62
    18
370
    -2
100
AcDbBlockReference
  2
_OPEN30
 10
36344.58485816509
 20
2158.825364706386
 30
0.0
 41
15.00000059604645
 42
15.00000059604645
 43
15.00000059604645
 50
180.0
  0
INSERT
  5
B8
330
B3
100
AcDbEntity
  8
MTO-620-410
 62
    18
370
    -2
100
AcDbBlockReference
  2
_OPEN30
 10
36964.58485816509
 20
2158.825364706386
 30
0.0
 41
15.00000059604645
 42
15.00000059604645
 43
15.00000059604645
  0
MTEXT
  5
B9
330
B3
100
AcDbEntity
  8
MTO-620-410
  6
Continuous
 62
     0
370
    25
100
AcDbMText
 10
36654.58485816509
 20
2199.245368795264
 30
0.0
 40
40.0
 41
0.0
 71
     5
 72
     1
  1
620
  7
ARIAL
 73
     1
 44
1.0
  0
POINT
  5
BA
330
B3
100
AcDbEntity
  8
Defpoints
 62
     0
100
AcDbPoint
 10
36344.58485816509
 20
2467.825364706388
 30
0.0
  0
POINT
  5
BB
330
B3
100
AcDbEntity
  8
Defpoints
 62
     0
100
AcDbPoint
 10
36964.58485816509
 20
2467.825364706388
 30
0.0
  0
POINT
  5
BC
330
B3
100
AcDbEntity
  8
Defpoints
 62
     0
100
AcDbPoint
 10
36964.58485816509
 20
2158.825364706386
 30
0.0
  0
ENDBLK
  5
BE
330
B3
100
AcDbEntity
  8
0
100
AcDbBlockEnd
  0
BLOCK
  5
CA
330
C0
100
AcDbEntity
  8
0
100
AcDbBlockBegin
  2
*D17
 70
     1
 10
0.0
 20
0.0
 30
0.0
  3
*D17
  1

  0
LINE
  5
C1
330
C0
100
AcDbEntity
  8
MTO-620-410
  6
Continuous
 62
    18
 48
50.00000038146973
370
    -2
100
AcDbLine
 10
36211.61345987129
 20
2217.825364706387
 30
0.0
 11
36171.61346077728
 21
2217.825364706387
 31
0.0
  0
LINE
  5
C2
330
C0
100
AcDbEntity
  8
MTO-620-410
  6
Continuous
 62
    18
 48
50.00000038146973
370
    -2
100
AcDbLine
 10
36211.61345987129
 20
2767.825364706388
 30
0.0
 11
36171.61346077728
 21
2767.825364706388
 31
0.0
  0
LINE
  5
C3
330
C0
100
AcDbEntity
  8
MTO-620-410
  6
Continuous
 62
    18
 48
50.00000038146973
370
    -2
100
AcDbLine
 10
36191.61346032428
 20
2226.825365064014
 30
0.0
 11
36191.61346032428
 21
2758.825364348761
 31
0.0
  0
INSERT
  5
C4
330
C0
100
AcDbEntity
  8
MTO-620-410
 62
    18
370
    -2
100
AcDbBlockReference
  2
_OPEN30
 10
36191.61346032428
 20
2217.825364706387
 30
0.0
 41
9.000000357627869
 42
9.000000357627869
 43
9.000000357627869
 50
270.0
  0
INSERT
  5
C5
330
C0
100
AcDbEntity
  8
MTO-620-410
 62
    18
370
    -2
100
AcDbBlockReference
  2
_OPEN30
 10
36191.61346032428
 20
2767.825364706388
 30
0.0
 41
9.000000357627869
 42
9.000000357627869
 43
9.000000357627869
 50
90.0
  0
MTEXT
  5
C6
330
C0
100
AcDbEntity
  8
MTO-620-410
  6
Continuous
 62
    18
370
    25
100
AcDbMText
 10
36159.61345623541
 20
2492.825364706388
 30
0.0
 40
24.0
 41
0.0
 71
     5
 72
     1
  1
550
  7
ROMAN
 11
0.0
 21
1.0
 31
0.0
 73
     1
 44
1.0
  0
POINT
  5
C7
330
C0
100
AcDbEntity
  8
Defpoints
 62
     0
100
AcDbPoint
 10
36304.61346032428
 20
2217.825364706387
 30
0.0
  0
POINT
  5
C8
330
C0
100
AcDbEntity
  8
Defpoints
 62
     0
100
AcDbPoint
 10
36304.61346032428
 20
2767.825364706388
 30
0.0
  0
POINT
  5
C9
330
C0
100
AcDbEntity
  8
Defpoints
 62
     0
100
AcDbPoint
 10
36191.61346032428
 20
2767.825364706388
 30
0.0
  0
ENDBLK
  5
CB
330
C0
100
AcDbEntity
  8
0
100
AcDbBlockEnd
  0
BLOCK
  5
D7
330
CD
100
AcDbEntity
  8
0
100
AcDbBlockBegin
  2
*D18
 70
     1
 10
0.0
 20
0.0
 30
0.0
  3
*D18
  1

  0
LINE
  5
CE
330
CD
100
AcDbEntity
  8
MTO-620-410
  6
Continuous
 62
    18
 48
50.00000038146973
370
    -2
100
AcDbLine
 10
36265.61345987129
 20
2467.825364706388
 30
0.0
 11
36225.61346077728
 21
2467.825364706388
 31
0.0
  0
LINE
  5
CF
330
CD
100
AcDbEntity
  8
MTO-620-410
  6
Continuous
 62
    18
 48
50.00000038146973
370
    -2
100
AcDbLine
 10
36265.61345987129
 20
2767.825364706388
 30
0.0
 11
36225.61346077728
 21
2767.825364706388
 31
0.0
  0
LINE
  5
D0
330
CD
100
AcDbEntity
  8
MTO-620-410
  6
Continuous
 62
    18
 48
50.00000038146973
370
    -2
100
AcDbLine
 10
36245.61346032428
 20
2476.825365064015
 30
0.0
 11
36245.61346032428
 21
2758.825364348761
 31
0.0
  0
INSERT
  5
D1
330
CD
100
AcDbEntity
  8
MTO-620-410
 62
    18
370
    -2
100
AcDbBlockReference
  2
_OPEN30
 10
36245.61346032428
 20
2467.825364706388
 30
0.0
 41
9.000000357627869
 42
9.000000357627869
 43
9.000000357627869
 50
270.0
  0
INSERT
  5
D2
330
CD
100
AcDbEntity
  8
MTO-620-410
 62
    18
370
    -2
100
AcDbBlockReference
  2
_OPEN30
 10
36245.61346032428
 20
2767.825364706388
 30
0.0
 41
9.000000357627869
 42
9.000000357627869
 43
9.000000357627869
 50
90.0
  0
MTEXT
  5
D3
330
CD
100
AcDbEntity
  8
MTO-620-410
  6
Continuous
 62
    18
370
    25
100
AcDbMText
 10
36213.61345623541
 20
2617.825364706388
 30
0.0
 40
24.0
 41
0.0
 71
     5
 72
     1
  1
300
  7
ROMAN
 11
0.0
 21
1.0
 31
0.0
 73
     1
 44
1.0
  0
POINT
  5
D4
330
CD
100
AcDbEntity
  8
Defpoints
 62
     0
100
AcDbPoint
 10
36654.58485816508
 20
2467.825364706388
 30
0.0
  0
POINT
  5
D5
330
CD
100
AcDbEntity
  8
Defpoints
 62
     0
100
AcDbPoint
 10
36304.61346032428
 20
2767.825364706388
 30
0.0
  0
POINT
  5
D6
330
CD
100
AcDbEntity
  8
Defpoints
 62
     0
100
AcDbPoint
 10
36245.61346032428
 20
2767.825364706388
 30
0.0
  0
ENDBLK
  5
D8
330
CD
100
AcDbEntity
  8
0
100
AcDbBlockEnd
  0
BLOCK
  5
E4
330
DA
100
AcDbEntity
  8
0
100
AcDbBlockBegin
  2
*D19
 70
     1
 10
0.0
 20
0.0
 30
0.0
  3
*D19
  1

  0
LINE
  5
DB
330
DA
100
AcDbEntity
  8
MTO-620-410
  6
Continuous
 62
    18
 48
50.00000038146973
370
    -2
100
AcDbLine
 10
36265.61345987129
 20
2217.825364706387
 30
0.0
 11
36225.61346077728
 21
2217.825364706387
 31
0.0
  0
LINE
  5
DC
330
DA
100
AcDbEntity
  8
MTO-620-410
  6
Continuous
 62
    18
 48
50.00000038146973
370
    -2
100
AcDbLine
 10
36265.61345987129
 20
2467.825364706388
 30
0.0
 11
36225.61346077728
 21
2467.825364706388
 31
0.0
  0
LINE
  5
DD
330
DA
100
AcDbEntity
  8
MTO-620-410
  6
Continuous
 62
    18
 48
50.00000038146973
370
    -2
100
AcDbLine
 10
36245.61346032428
 20
2226.825365064014
 30
0.0
 11
36245.61346032428
 21
2458.82536434876
 31
0.0
  0
INSERT
  5
DE
330
DA
100
AcDbEntity
  8
MTO-620-410
 62
    18
370
    -2
100
AcDbBlockReference
  2
_OPEN30
 10
36245.61346032428
 20
2217.825364706387
 30
0.0
 41
9.000000357627869
 42
9.000000357627869
 43
9.000000357627869
 50
270.0
  0
INSERT
  5
DF
330
DA
100
AcDbEntity
  8
MTO-620-410
 62
    18
370
    -2
100
AcDbBlockReference
  2
_OPEN30
 10
36245.61346032428
 20
2467.825364706388
 30
0.0
 41
9.000000357627869
 42
9.000000357627869
 43
9.000000357627869
 50
90.0
  0
MTEXT
  5
E0
330
DA
100
AcDbEntity
  8
MTO-620-410
  6
Continuous
 62
    18
370
    25
100
AcDbMText
 10
36213.61345623541
 20
2342.825364706387
 30
0.0
 40
24.0
 41
0.0
 71
     5
 72
     1
  1
250
  7
ROMAN
 11
0.0
 21
1.0
 31
0.0
 73
     1
 44
1.0
  0
POINT
  5
E1
330
DA
100
AcDbEntity
  8
Defpoints
 62
     0
100
AcDbPoint
 10
36664.61346032429
 20
2217.825364706387
 30
0.0
  0
POINT
  5
E2
330
DA
100
AcDbEntity
  8
Defpoints
 62
     0
100
AcDbPoint
 10
36654.58485816508
 20
2467.825364706388
 30
0.0
  0
POINT
  5
E3
330
DA
100
AcDbEntity
  8
Defpoints
 62
     0
100
AcDbPoint
 10
36245.61346032428
 20
2467.825364706388
 30
0.0
  0
ENDBLK
  5
E5
330
DA
100
AcDbEntity
  8
0
100
AcDbBlockEnd
  0
BLOCK
  5
E7
330
E6
100
AcDbEntity
  8
0
100
AcDbBlockBegin
  2
Dimension10
 70
     0
 10
0.0
 20
0.0
 30
0.0
  3
Dimension10
  1

  0
ENDBLK
  5
E8
330
E6
100
AcDbEntity
  8
0
100
AcDbBlockEnd
  0
BLOCK
  5
EB
330
EA
100
AcDbEntity
  8
0
100
AcDbBlockBegin
  2
Dimension11
 70
     0
 10
0.0
 20
0.0
 30
0.0
  3
Dimension11
  1

  0
ENDBLK
  5
EC
330
EA
100
AcDbEntity
  8
0
100
AcDbBlockEnd
  0
BLOCK
  5
EF
330
EE
100
AcDbEntity
  8
0
100
AcDbBlockBegin
  2
Dimension12
 70
     0
 10
0.0
 20
0.0
 30
0.0
  3
Dimension12
  1

  0
ENDBLK
  5
F0
330
EE
100
AcDbEntity
  8
0
100
AcDbBlockEnd
  0
BLOCK
  5
277
330
276
100
AcDbEntity
  8
0
100
AcDbBlockBegin
  2
Dimension13
 70
     0
 10
0.0
 20
0.0
 30
0.0
  3
Dimension13
  1

  0
ENDBLK
  5
278
330
276
100
AcDbEntity
  8
0
100
AcDbBlockEnd
  0
BLOCK
  5
27B
330
27A
100
AcDbEntity
  8
0
100
AcDbBlockBegin
  2
Dimension14
 70
     0
 10
0.0
 20
0.0
 30
0.0
  3
Dimension14
  1

  0
ENDBLK
  5
27C
330
27A
100
AcDbEntity
  8
0
100
AcDbBlockEnd
  0
BLOCK
  5
27F
330
27E
100
AcDbEntity
  8
0
100
AcDbBlockBegin
  2
Dimension15
 70
     0
 10
0.0
 20
0.0
 30
0.0
  3
Dimension15
  1

  0
ENDBLK
  5
280
330
27E
100
AcDbEntity
  8
0
100
AcDbBlockEnd
  0
BLOCK
  5
283
330
282
100
AcDbEntity
  8
0
100
AcDbBlockBegin
  2
Dimension16
 70
     0
 10
0.0
 20
0.0
 30
0.0
  3
Dimension16
  1

  0
ENDBLK
  5
284
330
282
100
AcDbEntity
  8
0
100
AcDbBlockEnd
  0
BLOCK
  5
287
330
286
100
AcDbEntity
  8
0
100
AcDbBlockBegin
  2
Dimension17
 70
     0
 10
0.0
 20
0.0
 30
0.0
  3
Dimension17
  1

  0
ENDBLK
  5
288
330
286
100
AcDbEntity
  8
0
100
AcDbBlockEnd
  0
BLOCK
  5
28B
330
28A
100
AcDbEntity
  8
0
100
AcDbBlockBegin
  2
Dimension18
 70
     0
 10
0.0
 20
0.0
 30
0.0
  3
Dimension18
  1

  0
ENDBLK
  5
28C
330
28A
100
AcDbEntity
  8
0
100
AcDbBlockEnd
  0
BLOCK
  5
28F
330
28E
100
AcDbEntity
  8
0
100
AcDbBlockBegin
  2
Dimension19
 70
     0
 10
0.0
 20
0.0
 30
0.0
  3
Dimension19
  1

  0
ENDBLK
  5
290
330
28E
100
AcDbEntity
  8
0
100
AcDbBlockEnd
  0
BLOCK
  5
293
330
292
100
AcDbEntity
  8
0
100
AcDbBlockBegin
  2
Dimension20
 70
     0
 10
0.0
 20
0.0
 30
0.0
  3
Dimension20
  1

  0
ENDBLK
  5
294
330
292
100
AcDbEntity
  8
0
100
AcDbBlockEnd
  0
BLOCK
  5
297
330
296
100
AcDbEntity
  8
0
100
AcDbBlockBegin
  2
Dimension21
 70
     0
 10
0.0
 20
0.0
 30
0.0
  3
Dimension21
  1

  0
ENDBLK
  5
298
330
296
100
AcDbEntity
  8
0
100
AcDbBlockEnd
  0
BLOCK
  5
29B
330
29A
100
AcDbEntity
  8
0
100
AcDbBlockBegin
  2
Dimension22
 70
     0
 10
0.0
 20
0.0
 30
0.0
  3
Dimension22
  1

  0
ENDBLK
  5
29C
330
29A
100
AcDbEntity
  8
0
100
AcDbBlockEnd
  0
BLOCK
  5
29F
330
29E
100
AcDbEntity
  8
0
100
AcDbBlockBegin
  2
Dimension23
 70
     0
 10
0.0
 20
0.0
 30
0.0
  3
Dimension23
  1

  0
ENDBLK
  5
2A0
330
29E
100
AcDbEntity
  8
0
100
AcDbBlockEnd
  0
BLOCK
  5
2A3
330
2A2
100
AcDbEntity
  8
0
100
AcDbBlockBegin
  2
Dimension24
 70
     0
 10
0.0
 20
0.0
 30
0.0
  3
Dimension24
  1

  0
ENDBLK
  5
2A4
330
2A2
100
AcDbEntity
  8
0
100
AcDbBlockEnd
  0
BLOCK
  5
2A7
330
2A6
100
AcDbEntity
  8
0
100
AcDbBlockBegin
  2
Dimension25
 70
     0
 10
0.0
 20
0.0
 30
0.0
  3
Dimension25
  1

  0
ENDBLK
  5
2A8
330
2A6
100
AcDbEntity
  8
0
100
AcDbBlockEnd
  0
BLOCK
  5
2AB
330
2AA
100
AcDbEntity
  8
0
100
AcDbBlockBegin
  2
Dimension26
 70
     0
 10
0.0
 20
0.0
 30
0.0
  3
Dimension26
  1

  0
ENDBLK
  5
2AC
330
2AA
100
AcDbEntity
  8
0
100
AcDbBlockEnd
  0
BLOCK
  5
2AF
330
2AE
100
AcDbEntity
  8
0
100
AcDbBlockBegin
  2
Dimension27
 70
     0
 10
0.0
 20
0.0
 30
0.0
  3
Dimension27
  1

  0
ENDBLK
  5
2B0
330
2AE
100
AcDbEntity
  8
0
100
AcDbBlockEnd
  0
BLOCK
  5
2B3
330
2B2
100
AcDbEntity
  8
0
100
AcDbBlockBegin
  2
Dimension28
 70
     0
 10
0.0
 20
0.0
 30
0.0
  3
Dimension28
  1

  0
ENDBLK
  5
2B4
330
2B2
100
AcDbEntity
  8
0
100
AcDbBlockEnd
  0
BLOCK
  5
2B7
330
2B6
100
AcDbEntity
  8
0
100
AcDbBlockBegin
  2
Dimension29
 70
     0
 10
0.0
 20
0.0
 30
0.0
  3
Dimension29
  1

  0
ENDBLK
  5
2B8
330
2B6
100
AcDbEntity
  8
0
100
AcDbBlockEnd
  0
BLOCK
  5
2BB
330
2BA
100
AcDbEntity
  8
0
100
AcDbBlockBegin
  2
Dimension30
 70
     0
 10
0.0
 20
0.0
 30
0.0
  3
Dimension30
  1

  0
ENDBLK
  5
2BC
330
2BA
100
AcDbEntity
  8
0
100
AcDbBlockEnd
  0
BLOCK
  5
2BF
330
2BE
100
AcDbEntity
  8
0
100
AcDbBlockBegin
  2
Dimension31
 70
     0
 10
0.0
 20
0.0
 30
0.0
  3
Dimension31
  1

  0
ENDBLK
  5
2C0
330
2BE
100
AcDbEntity
  8
0
100
AcDbBlockEnd
  0
BLOCK
  5
2C3
330
2C2
100
AcDbEntity
  8
0
100
AcDbBlockBegin
  2
Dimension32
 70
     0
 10
0.0
 20
0.0
 30
0.0
  3
Dimension32
  1

  0
ENDBLK
  5
2C4
330
2C2
100
AcDbEntity
  8
0
100
AcDbBlockEnd
  0
BLOCK
  5
2C7
330
2C6
100
AcDbEntity
  8
0
100
AcDbBlockBegin
  2
Dimension33
 70
     0
 10
0.0
 20
0.0
 30
0.0
  3
Dimension33
  1

  0
ENDBLK
  5
2C8
330
2C6
100
AcDbEntity
  8
0
100
AcDbBlockEnd
  0
BLOCK
  5
2CC
330
2CB
100
AcDbEntity
  8
0
100
AcDbBlockBegin
  2
Dimension34
 70
     0
 10
0.0
 20
0.0
 30
0.0
  3
Dimension34
  1

  0
ENDBLK
  5
2CD
330
2CB
100
AcDbEntity
  8
0
100
AcDbBlockEnd
  0
BLOCK
  5
2D0
330
2CF
100
AcDbEntity
  8
0
100
AcDbBlockBegin
  2
Dimension35
 70
     0
 10
0.0
 20
0.0
 30
0.0
  3
Dimension35
  1

  0
ENDBLK
  5
2D1
330
2CF
100
AcDbEntity
  8
0
100
AcDbBlockEnd
  0
BLOCK
  5
2D4
330
2D3
100
AcDbEntity
  8
0
100
AcDbBlockBegin
  2
Dimension36
 70
     0
 10
0.0
 20
0.0
 30
0.0
  3
Dimension36
  1

  0
ENDBLK
  5
2D5
330
2D3
100
AcDbEntity
  8
0
100
AcDbBlockEnd
  0
BLOCK
  5
2D8
330
2D7
100
AcDbEntity
  8
0
100
AcDbBlockBegin
  2
Dimension37
 70
     0
 10
0.0
 20
0.0
 30
0.0
  3
Dimension37
  1

  0
ENDBLK
  5
2D9
330
2D7
100
AcDbEntity
  8
0
100
AcDbBlockEnd
  0
BLOCK
  5
2DC
330
2DB
100
AcDbEntity
  8
0
100
AcDbBlockBegin
  2
Dimension38
 70
     0
 10
0.0
 20
0.0
 30
0.0
  3
Dimension38
  1

  0
ENDBLK
  5
2DD
330
2DB
100
AcDbEntity
  8
0
100
AcDbBlockEnd
  0
BLOCK
  5
2E0
330
2DF
100
AcDbEntity
  8
0
100
AcDbBlockBegin
  2
Dimension39
 70
     0
 10
0.0
 20
0.0
 30
0.0
  3
Dimension39
  1

  0
ENDBLK
  5
2E1
330
2DF
100
AcDbEntity
  8
0
100
AcDbBlockEnd
  0
BLOCK
  5
2E4
330
2E3
100
AcDbEntity
  8
0
100
AcDbBlockBegin
  2
Dimension40
 70
     0
 10
0.0
 20
0.0
 30
0.0
  3
Dimension40
  1

  0
ENDBLK
  5
2E5
330
2E3
100
AcDbEntity
  8
0
100
AcDbBlockEnd
  0
BLOCK
  5
2E8
330
2E7
100
AcDbEntity
  8
0
100
AcDbBlockBegin
  2
Dimension41
 70
     0
 10
0.0
 20
0.0
 30
0.0
  3
Dimension41
  1

  0
ENDBLK
  5
2E9
330
2E7
100
AcDbEntity
  8
0
100
AcDbBlockEnd
  0
BLOCK
  5
2EC
330
2EB
100
AcDbEntity
  8
0
100
AcDbBlockBegin
  2
Dimension42
 70
     0
 10
0.0
 20
0.0
 30
0.0
  3
Dimension42
  1

  0
ENDBLK
  5
2ED
330
2EB
100
AcDbEntity
  8
0
100
AcDbBlockEnd
  0
BLOCK
  5
2F0
330
2EF
100
AcDbEntity
  8
0
100
AcDbBlockBegin
  2
Dimension43
 70
     0
 10
0.0
 20
0.0
 30
0.0
  3
Dimension43
  1

  0
ENDBLK
  5
2F1
330
2EF
100
AcDbEntity
  8
0
100
AcDbBlockEnd
  0
BLOCK
  5
2F4
330
2F3
100
AcDbEntity
  8
0
100
AcDbBlockBegin
  2
Dimension44
 70
     0
 10
0.0
 20
0.0
 30
0.0
  3
Dimension44
  1

  0
ENDBLK
  5
2F5
330
2F3
100
AcDbEntity
  8
0
100
AcDbBlockEnd
  0
BLOCK
  5
2F8
330
2F7
100
AcDbEntity
  8
0
100
AcDbBlockBegin
  2
Dimension45
 70
     0
 10
0.0
 20
0.0
 30
0.0
  3
Dimension45
  1

  0
ENDBLK
  5
2F9
330
2F7
100
AcDbEntity
  8
0
100
AcDbBlockEnd
  0
BLOCK
  5
2FC
330
2FB
100
AcDbEntity
  8
0
100
AcDbBlockBegin
  2
Dimension46
 70
     0
 10
0.0
 20
0.0
 30
0.0
  3
Dimension46
  1

  0
ENDBLK
  5
2FD
330
2FB
100
AcDbEntity
  8
0
100
AcDbBlockEnd
  0
BLOCK
  5
300
330
2FF
100
AcDbEntity
  8
0
100
AcDbBlockBegin
  2
Dimension47
 70
     0
 10
0.0
 20
0.0
 30
0.0
  3
Dimension47
  1

  0
ENDBLK
  5
301
330
2FF
100
AcDbEntity
  8
0
100
AcDbBlockEnd
  0
BLOCK
  5
304
330
303
100
AcDbEntity
  8
0
100
AcDbBlockBegin
  2
Dimension48
 70
     0
 10
0.0
 20
0.0
 30
0.0
  3
Dimension48
  1

  0
ENDBLK
  5
305
330
303
100
AcDbEntity
  8
0
100
AcDbBlockEnd
  0
BLOCK
  5
308
330
307
100
AcDbEntity
  8
0
100
AcDbBlockBegin
  2
Dimension49
 70
     0
 10
0.0
 20
0.0
 30
0.0
  3
Dimension49
  1

  0
ENDBLK
  5
309
330
307
100
AcDbEntity
  8
0
100
AcDbBlockEnd
  0
BLOCK
  5
30C
330
30B
100
AcDbEntity
  8
0
100
AcDbBlockBegin
  2
Dimension50
 70
     0
 10
0.0
 20
0.0
 30
0.0
  3
Dimension50
  1

  0
ENDBLK
  5
30D
330
30B
100
AcDbEntity
  8
0
100
AcDbBlockEnd
  0
BLOCK
  5
310
330
30F
100
AcDbEntity
  8
0
100
AcDbBlockBegin
  2
Dimension51
 70
     0
 10
0.0
 20
0.0
 30
0.0
  3
Dimension51
  1

  0
ENDBLK
  5
311
330
30F
100
AcDbEntity
  8
0
100
AcDbBlockEnd
  0
BLOCK
  5
314
330
313
100
AcDbEntity
  8
0
100
AcDbBlockBegin
  2
Dimension52
 70
     0
 10
0.0
 20
0.0
 30
0.0
  3
Dimension52
  1

  0
ENDBLK
  5
315
330
313
100
AcDbEntity
  8
0
100
AcDbBlockEnd
  0
BLOCK
  5
318
330
317
100
AcDbEntity
  8
0
100
AcDbBlockBegin
  2
Dimension53
 70
     0
 10
0.0
 20
0.0
 30
0.0
  3
Dimension53
  1

  0
ENDBLK
  5
319
330
317
100
AcDbEntity
  8
0
100
AcDbBlockEnd
  0
BLOCK
  5
31C
330
31B
100
AcDbEntity
  8
0
100
AcDbBlockBegin
  2
Dimension54
 70
     0
 10
0.0
 20
0.0
 30
0.0
  3
Dimension54
  1

  0
ENDBLK
  5
31D
330
31B
100
AcDbEntity
  8
0
100
AcDbBlockEnd
  0
ENDSEC
  0
SECTION
  2
ENTITIES
  0
INSERT
  5
45
330
1F
100
AcDbEntity
  8
MTO-620-410
  6
Continuous
 62
    18
420
        0
 48
50.00000038146973
370
    25
100
AcDbBlockReference
  2
Dimension1
 10
0.0
 20
0.0
 30
0.0
  0
INSERT
  5
49
330
1F
100
AcDbEntity
  8
MTO-620-410
  6
Continuous
 62
    18
420
        0
 48
50.00000038146973
370
    25
100
AcDbBlockReference
  2
Dimension2
 10
0.0
 20
0.0
 30
0.0
  0
INSERT
  5
4D
330
1F
100
AcDbEntity
  8
MTO-620-410
  6
Continuous
 62
    18
420
        0
 48
50.00000038146973
370
    25
100
AcDbBlockReference
  2
Dimension3
 10
0.0
 20
0.0
 30
0.0
  0
INSERT
  5
51
330
1F
100
AcDbEntity
  8
MTO-620-410
  6
Continuous
 62
    18
420
        0
 48
50.00000038146973
370
    25
100
AcDbBlockReference
  2
Dimension4
 10
0.0
 20
0.0
 30
0.0
  0
INSERT
  5
55
330
1F
100
AcDbEntity
  8
MTO-620-410
  6
Continuous
 62
    18
420
        0
 48
50.00000038146973
370
    25
100
AcDbBlockReference
  2
Dimension5
 10
0.0
 20
0.0
 30
0.0
  0
INSERT
  5
59
330
1F
100
AcDbEntity
  8
MTO-620-410
  6
Continuous
 62
    18
420
        0
 48
50.00000038146973
370
    25
100
AcDbBlockReference
  2
Dimension6
 10
0.0
 20
0.0
 30
0.0
  0
INSERT
  5
5D
330
1F
100
AcDbEntity
  8
MTO-620-410
  6
Continuous
 62
    18
420
        0
 48
50.00000038146973
370
    25
100
AcDbBlockReference
  2
Dimension7
 10
0.0
 20
0.0
 30
0.0
  0
INSERT
  5
61
330
1F
100
AcDbEntity
  8
MTO-620-410
  6
Continuous
 62
    18
420
        0
 48
50.00000038146973
370
    25
100
AcDbBlockReference
  2
Dimension8
 10
0.0
 20
0.0
 30
0.0
  0
INSERT
  5
65
330
1F
100
AcDbEntity
  8
MTO-620-410
  6
Continuous
 62
    18
420
        0
 48
50.00000038146973
370
    25
100
AcDbBlockReference
  2
Dimension9
 10
0.0
 20
0.0
 30
0.0
  0
DIMENSION
  5
67
330
1F
100
AcDbEntity
  8
MTO-620-410
  6
Continuous
 62
    18
420
        0
 48
50.00000038146973
370
    25
100
AcDbDimension
  2
*D10
 10
37063.61346032428
 20
2672.826571764371
 30
0.0
 11
37023.19345623541
 21
2467.825364706388
 31
0.0
 70
    32
 71
     5
 42
410.002414115967
  3
ISO-25
100
AcDbAlignedDimension
 13
36654.58485816508
 23
2262.824157648404
 33
0.0
 14
36654.58485816508
 24
2672.826571764371
 34
0.0
 50
90.0
100
AcDbRotatedDimension
1001
ACAD
1000
DSTYLE
1002
{
1070
   271
1070
     3
1070
   177
1070
    18
1070
   176
1070
    18
1070
   140
1040
40.0
1070
    76
1070
     0
1070
    75
1070
     0
1070
   282
1070
     0
1070
   281
1070
     0
1070
   174
1070
     1
1070
    42
1040
0.0
1070
    49
1040
19.9999995470047
1070
   290
1070
     1
1070
    44
1040
19.9999995470047
1070
    46
1040
0.0
1070
    41
1040
15.00000059604645
1070
   173
1070
     1
1070
   342
1005
0
1070
   344
1005
75
1070
   343
1005
75
1070
   147
1040
20.00000408887863
1070
    70
1070
    18
1070
    69
1070
     0
1070
   340
1005
66
1070
   278
1070
    46
1002
}
1001
ACAD_DSTYLE_DIMEXT_ENABLED
1070
   383
1070
     1
1001
ACAD_DSTYLE_DIMEXT_LENGTH
1070
   378
1040
19.9999995470047
  0
DIMENSION
  5
7C
330
1F
100
AcDbEntity
  8
MTO-620-410
  6
Continuous
 62
    18
420
        0
 48
50.00000038146973
370
    25
100
AcDbDimension
  2
*D12
 10
37004.61346032428
 20
2826.825364706388
 30
0.0
 11
36829.59911079802
 21
2858.825368795266
 31
0.0
 70
    32
 71
     5
 42
350.0286990525128
  3
ISO-25
100
AcDbAlignedDimension
 13
36654.58476127177
 23
2495.325381872525
 33
0.0
 14
37004.61346032428
 24
2767.825364706388
 34
0.0
100
AcDbRotatedDimension
1001
ACAD
1000
DSTYLE
1002
{
1070
    69
1070
     0
1070
   271
1070
     3
1070
   177
1070
    18
1070
   176
1070
    18
1070
   140
1040
24.0
1070
    76
1070
     0
1070
    75
1070
     0
1070
   282
1070
     0
1070
   281
1070
     0
1070
   174
1070
     1
1070
    42
1040
0.0
1070
    49
1040
19.9999995470047
1070
   290
1070
     1
1070
    44
1040
19.9999995470047
1070
    46
1040
0.0
1070
    41
1040
9.000000357627869
1070
   173
1070
     1
1070
   342
1005
0
1070
   344
1005
75
1070
   343
1005
75
1070
   147
1040
20.00000408887863
1070
   178
1070
    18
1070
   340
1005
7B
1070
   278
1070
    46
1002
}
1001
ACAD_DSTYLE_DIMEXT_ENABLED
1070
   383
1070
     1
1001
ACAD_DSTYLE_DIMEXT_LENGTH
1070
   378
1040
19.9999995470047
  0
DIMENSION
  5
89
330
1F
100
AcDbEntity
  8
MTO-620-410
  6
Continuous
 62
    18
420
        0
 48
50.00000038146973
370
    25
100
AcDbDimension
  2
*D13
 10
36654.58476127177
 20
2826.825364706388
 30
0.0
 11
36479.59911079802
 21
2858.825368795266
 31
0.0
 70
    32
 71
     5
 42
349.9713009474872
  3
ISO-25
100
AcDbAlignedDimension
 13
36304.61346032428
 23
2767.825364706388
 33
0.0
 14
36654.58476127177
 24
2495.325381872525
 34
0.0
100
AcDbRotatedDimension
1001
ACAD
1000
DSTYLE
1002
{
1070
    69
1070
     0
1070
   271
1070
     3
1070
   177
1070
    18
1070
   176
1070
    18
1070
   140
1040
24.0
1070
    76
1070
     0
1070
    75
1070
     0
1070
   282
1070
     0
1070
   281
1070
     0
1070
   174
1070
     1
1070
    42
1040
0.0
1070
    49
1040
19.9999995470047
1070
   290
1070
     1
1070
    44
1040
19.9999995470047
1070
    46
1040
0.0
1070
    41
1040
9.000000357627869
1070
   173
1070
     1
1070
   342
1005
0
1070
   344
1005
75
1070
   343
1005
75
1070
   147
1040
20.00000408887863
1070
   178
1070
    18
1070
   340
1005
7B
1070
   278
1070
    46
1002
}
1001
ACAD_DSTYLE_DIMEXT_ENABLED
1070
   383
1070
     1
1001
ACAD_DSTYLE_DIMEXT_LENGTH
1070
   378
1040
19.9999995470047
  0
DIMENSION
  5
96
330
1F
100
AcDbEntity
  8
MTO-620-410
  6
Continuous
 62
    18
420
        0
 48
50.00000038146973
370
    25
100
AcDbDimension
  2
*D14
 10
37004.61346032428
 20
2880.825364706388
 30
0.0
 11
36654.61346032428
 21
2912.825368795266
 31
0.0
 70
    32
 71
     5
 42
700.0
  3
ISO-25
100
AcDbAlignedDimension
 13
36304.61346032428
 23
2767.825364706388
 33
0.0
 14
37004.61346032428
 24
2767.825364706388
 34
0.0
100
AcDbRotatedDimension
1001
ACAD
1000
DSTYLE
1002
{
1070
    69
1070
     0
1070
   271
1070
     3
1070
   177
1070
    18
1070
   176
1070
    18
1070
   140
1040
24.0
1070
    76
1070
     0
1070
    75
1070
     0
1070
   282
1070
     0
1070
   281
1070
     0
1070
   174
1070
     1
1070
    42
1040
0.0
1070
    49
1040
19.9999995470047
1070
   290
1070
     1
1070
    44
1040
19.9999995470047
1070
    46
1040
0.0
1070
    41
1040
9.000000357627869
1070
   173
1070
     1
1070
   342
1005
0
1070
   344
1005
75
1070
   343
1005
75
1070
   147
1040
20.00000408887863
1070
   178
1070
    18
1070
   340
1005
7B
1070
   278
1070
    46
1002
}
1001
ACAD_DSTYLE_DIMEXT_ENABLED
1070
   383
1070
     1
1001
ACAD_DSTYLE_DIMEXT_LENGTH
1070
   378
1040
19.9999995470047
  0
DIMENSION
  5
A3
330
1F
100
AcDbEntity
  8
MTO-620-410
  6
Continuous
 62
    18
420
        0
 48
50.00000038146973
370
    25
100
AcDbDimension
  2
*D15
 10
37204.61346032428
 20
2826.825364706388
 30
0.0
 11
37252.11334080056
 21
2867.245368795266
 31
0.0
 70
    32
 71
     5
 42
94.99976095254533
  3
ISO-25
100
AcDbAlignedDimension
 13
37299.61322127683
 23
2468.341230375977
 33
0.0
 14
37204.61346032428
 24
2468.341230375977
 34
0.0
 50
180.0
100
AcDbRotatedDimension
1001
ACAD
1000
DSTYLE
1002
{
1070
   271
1070
     3
1070
   177
1070
    18
1070
   176
1070
    18
1070
   140
1040
40.0
1070
    76
1070
     0
1070
    75
1070
     0
1070
   282
1070
     0
1070
   281
1070
     0
1070
   174
1070
     1
1070
    42
1040
0.0
1070
    49
1040
19.9999995470047
1070
   290
1070
     1
1070
    44
1040
19.9999995470047
1070
    46
1040
0.0
1070
    41
1040
15.00000059604645
1070
   173
1070
     1
1070
   342
1005
0
1070
   344
1005
75
1070
   343
1005
75
1070
   147
1040
20.00000408887863
1070
    70
1070
    18
1070
    69
1070
     0
1070
   340
1005
66
1070
   278
1070
    46
1002
}
1001
ACAD_DSTYLE_DIMEXT_ENABLED
1070
   383
1070
     1
1001
ACAD_DSTYLE_DIMEXT_LENGTH
1070
   378
1040
19.9999995470047
  0
DIMENSION
  5
B2
330
1F
100
AcDbEntity
  8
MTO-620-410
  6
Continuous
 62
    18
420
        0
 48
50.00000038146973
370
    25
100
AcDbDimension
  2
*D16
 10
36964.58485816509
 20
2158.825364706386
 30
0.0
 11
36654.58485816509
 21
2199.245368795264
 31
0.0
 70
    32
 71
     5
 42
620.0
  3
ISO-25
100
AcDbAlignedDimension
 13
36344.58485816509
 23
2467.825364706388
 33
0.0
 14
36964.58485816509
 24
2467.825364706388
 34
0.0
100
AcDbRotatedDimension
1001
ACAD
1000
DSTYLE
1002
{
1070
   271
1070
     3
1070
   177
1070
    18
1070
   176
1070
    18
1070
   140
1040
40.0
1070
    76
1070
     0
1070
    75
1070
     0
1070
   282
1070
     0
1070
   281
1070
     0
1070
   174
1070
     1
1070
    42
1040
0.0
1070
    49
1040
19.9999995470047
1070
   290
1070
     1
1070
    44
1040
19.9999995470047
1070
    46
1040
0.0
1070
    41
1040
15.00000059604645
1070
   173
1070
     1
1070
   342
1005
0
1070
   344
1005
75
1070
   343
1005
75
1070
   147
1040
20.00000408887863
1070
    70
1070
    18
1070
    69
1070
     0
1070
   340
1005
66
1070
   278
1070
    46
1002
}
1001
ACAD_DSTYLE_DIMEXT_ENABLED
1070
   383
1070
     1
1001
ACAD_DSTYLE_DIMEXT_LENGTH
1070
   378
1040
19.9999995470047
  0
DIMENSION
  5
BF
330
1F
100
AcDbEntity
  8
MTO-620-410
  6
Continuous
 62
    18
420
        0
 48
50.00000038146973
370
    25
100
AcDbDimension
  2
*D17
 10
36191.61346032428
 20
2767.825364706388
 30
0.0
 11
36159.61345623541
 21
2492.825364706388
 31
0.0
 70
    32
 71
     5
 42
550.0000000000018
  3
ISO-25
100
AcDbAlignedDimension
 13
36304.61346032428
 23
2217.825364706387
 33
0.0
 14
36304.61346032428
 24
2767.825364706388
 34
0.0
 50
90.0
100
AcDbRotatedDimension
1001
ACAD
1000
DSTYLE
1002
{
1070
    69
1070
     0
1070
   271
1070
     3
1070
   177
1070
    18
1070
   176
1070
    18
1070
   140
1040
24.0
1070
    76
1070
     0
1070
    75
1070
     0
1070
   282
1070
     0
1070
   281
1070
     0
1070
   174
1070
     1
1070
    42
1040
0.0
1070
    49
1040
19.9999995470047
1070
   290
1070
     1
1070
    44
1040
19.9999995470047
1070
    46
1040
0.0
1070
    41
1040
9.000000357627869
1070
   173
1070
     1
1070
   342
1005
0
1070
   344
1005
75
1070
   343
1005
75
1070
   147
1040
20.00000408887863
1070
   178
1070
    18
1070
   340
1005
7B
1070
   278
1070
    46
1002
}
1001
ACAD_DSTYLE_DIMEXT_ENABLED
1070
   383
1070
     1
1001
ACAD_DSTYLE_DIMEXT_LENGTH
1070
   378
1040
19.9999995470047
  0
DIMENSION
  5
CC
330
1F
100
AcDbEntity
  8
MTO-620-410
  6
Continuous
 62
    18
420
        0
 48
50.00000038146973
370
    25
100
AcDbDimension
  2
*D18
 10
36245.61346032428
 20
2767.825364706388
 30
0.0
 11
36213.61345623541
 21
2617.825364706388
 31
0.0
 70
    32
 71
     5
 42
300.0000000000009
  3
ISO-25
100
AcDbAlignedDimension
 13
36654.58485816508
 23
2467.825364706388
 33
0.0
 14
36304.61346032428
 24
2767.825364706388
 34
0.0
 50
90.0
100
AcDbRotatedDimension
1001
ACAD
1000
DSTYLE
1002
{
1070
    69
1070
     0
1070
   271
1070
     3
1070
   177
1070
    18
1070
   176
1070
    18
1070
   140
1040
24.0
1070
    76
1070
     0
1070
    75
1070
     0
1070
   282
1070
     0
1070
   281
1070
     0
1070
   174
1070
     1
1070
    42
1040
0.0
1070
    49
1040
19.9999995470047
1070
   290
1070
     1
1070
    44
1040
19.9999995470047
1070
    46
1040
0.0
1070
    41
1040
9.000000357627869
1070
   173
1070
     1
1070
   342
1005
0
1070
   344
1005
75
1070
   343
1005
75
1070
   147
1040
20.00000408887863
1070
   178
1070
    18
1070
   340
1005
7B
1070
   278
1070
    46
1002
}
1001
ACAD_DSTYLE_DIMEXT_ENABLED
1070
   383
1070
     1
1001
ACAD_DSTYLE_DIMEXT_LENGTH
1070
   378
1040
19.9999995470047
  0
DIMENSION
  5
D9
330
1F
100
AcDbEntity
  8
MTO-620-410
  6
Continuous
 62
    18
420
        0
 48
50.00000038146973
370
    25
100
AcDbDimension
  2
*D19
 10
36245.61346032428
 20
2467.825364706388
 30
0.0
 11
36213.61345623541
 21
2342.825364706387
 31
0.0
 70
    32
 71
     5
 42
250.0000000000009
  3
ISO-25
100
AcDbAlignedDimension
 13
36664.61346032429
 23
2217.825364706387
 33
0.0
 14
36654.58485816508
 24
2467.825364706388
 34
0.0
 50
90.0
100
AcDbRotatedDimension
1001
ACAD
1000
DSTYLE
1002
{
1070
    69
1070
     0
1070
   271
1070
     3
1070
   177
1070
    18
1070
   176
1070
    18
1070
   140
1040
24.0
1070
    76
1070
     0
1070
    75
1070
     0
1070
   282
1070
     0
1070
   281
1070
     0
1070
   174
1070
     1
1070
    42
1040
0.0
1070
    49
1040
19.9999995470047
1070
   290
1070
     1
1070
    44
1040
19.9999995470047
1070
    46
1040
0.0
1070
    41
1040
9.000000357627869
1070
   173
1070
     1
1070
   342
1005
0
1070
   344
1005
75
1070
   343
1005
75
1070
   147
1040
20.00000408887863
1070
   178
1070
    18
1070
   340
1005
7B
1070
   278
1070
    46
1002
}
1001
ACAD_DSTYLE_DIMEXT_ENABLED
1070
   383
1070
     1
1001
ACAD_DSTYLE_DIMEXT_LENGTH
1070
   378
1040
19.9999995470047
  0
INSERT
  5
E9
330
1F
100
AcDbEntity
  8
MTO-620-410
  6
Continuous
 62
    18
420
        0
 48
50.00000038146973
370
    25
100
AcDbBlockReference
  2
Dimension10
 10
0.0
 20
0.0
 30
0.0
  0
INSERT
  5
ED
330
1F
100
AcDbEntity
  8
MTO-620-410
  6
Continuous
 62
    18
420
        0
 48
50.00000038146973
370
    25
100
AcDbBlockReference
  2
Dimension11
 10
0.0
 20
0.0
 30
0.0
  0
INSERT
  5
F1
330
1F
100
AcDbEntity
  8
MTO-620-410
  6
Continuous
 62
    18
420
        0
 48
50.00000038146973
370
    25
100
AcDbBlockReference
  2
Dimension12
 10
0.0
 20
0.0
 30
0.0
  0
LINE
  5
F2
330
1F
100
AcDbEntity
  8
MTO-620-410
  6
Continuous
 62
    18
420
        0
 48
25.00000019073486
370
    25
100
AcDbLine
 10
36304.61346032428
 20
2017.825364706386
 30
0.0
 11
36304.61346032428
 21
2005.825364706377
 31
0.0
  0
LINE
  5
F3
330
1F
100
AcDbEntity
  8
MTO-620-410
  6
Continuous
 62
    18
420
        0
 48
25.00000019073486
370
    25
100
AcDbLine
 10
37004.61346032428
 20
2017.825364706386
 30
0.0
 11
37004.61346032428
 21
2005.825364706377
 31
0.0
  0
LINE
  5
F4
330
1F
100
AcDbEntity
  8
MTO-620-410
  6
Continuous
 62
    18
420
        0
 48
25.00000019073486
370
    25
100
AcDbLine
 10
36304.61346032428
 20
2005.825364706377
 30
0.0
 11
37004.61346032428
 21
2005.825364706377
 31
0.0
  0
LINE
  5
F6
330
1F
100
AcDbEntity
  8
MTO-620-410
  6
DASHED1
 62
    18
420
        0
 48
15.00000041723251
370
    25
100
AcDbLine
 10
36693.61346032428
 20
1917.687087944406
 30
0.0
 11
36693.61346032428
 21
1902.825725880098
 31
0.0
  0
LINE
  5
F7
330
1F
100
AcDbEntity
  8
MTO-620-410
  6
DASHED1
 62
    18
420
        0
 48
15.00000041723251
370
    25
100
AcDbLine
 10
36615.61346032428
 20
1917.685616949168
 30
0.0
 11
36615.61346032428
 21
1902.825725880098
 31
0.0
  0
LINE
  5
F8
330
1F
100
AcDbEntity
  8
MTO-620-410
  6
DASHED1
 62
    18
420
        0
 48
15.00000041723251
370
    25
100
AcDbLine
 10
36619.61346032428
 20
1917.325725880104
 30
0.0
 11
36619.61346032428
 21
1910.825725880097
 31
0.0
  0
LINE
  5
F9
330
1F
100
AcDbEntity
  8
MTO-620-410
  6
Continuous
 62
    18
420
        0
 48
50.00000038146973
370
    25
100
AcDbLine
 10
36689.61346032428
 20
1917.325725880104
 30
0.0
 11
36689.61346032428
 21
1910.825725880097
 31
0.0
  0
LINE
  5
FA
330
1F
100
AcDbEntity
  8
MTO-620-410
  6
DASHED1
 62
    18
420
        0
 48
15.00000041723251
370
    25
100
AcDbLine
 10
36688.61346032429
 20
1897.825725880094
 30
0.0
 11
36620.61346032428
 21
1897.825725880094
 31
0.0
  0
LINE
  5
FB
330
1F
100
AcDbEntity
  8
MTO-620-410
  6
DASHED1
 62
    18
420
        0
 48
15.00000041723251
370
    25
100
AcDbLine
 10
36689.61346032428
 20
1910.825725880097
 30
0.0
 11
36619.61346032428
 21
1910.825725880097
 31
0.0
  0
LINE
  5
FC
330
1F
100
AcDbEntity
  8
MTO-620-410
  6
Continuous
 62
    18
420
        0
 48
50.00000038146973
370
    25
100
AcDbLine
 10
36679.61346032427
 20
1910.825725880097
 30
0.0
 11
36679.61346032427
 21
1897.825725880094
 31
0.0
  0
LINE
  5
FD
330
1F
100
AcDbEntity
  8
MTO-620-410
  6
Continuous
 62
    18
420
        0
 48
50.00000038146973
370
    25
100
AcDbLine
 10
36629.61346032427
 20
1910.825725880097
 30
0.0
 11
36629.61346032427
 21
1897.825725880094
 31
0.0
  0
LINE
  5
FE
330
1F
100
AcDbEntity
  8
MTO-620-410
  6
DASHED1
 62
    18
420
        0
 48
15.00000041723251
370
    25
100
AcDbLine
 10
36677.11346032428
 20
1889.325725880099
 30
0.0
 11
36677.11346032428
 21
1882.325725880106
 31
0.0
  0
LINE
  5
FF
330
1F
100
AcDbEntity
  8
MTO-620-410
  6
DASHED1
 62
    18
420
        0
 48
15.00000041723251
370
    25
100
AcDbLine
 10
36632.11346032429
 20
1889.325725880099
 30
0.0
 11
36632.11346032429
 21
1882.325725880106
 31
0.0
  0
LINE
  5
100
330
1F
100
AcDbEntity
  8
MTO-620-410
  6
DASHED1
 62
    18
420
        0
 48
15.00000041723251
370
    25
100
AcDbLine
 10
36685.61346032428
 20
1897.825725880094
 30
0.0
 11
36677.11346032428
 21
1889.325725880099
 31
0.0
  0
LINE
  5
101
330
1F
100
AcDbEntity
  8
MTO-620-410
  6
DASHED1
 62
    18
420
        0
 48
15.00000041723251
370
    25
100
AcDbLine
 10
36623.61346032428
 20
1897.825725880094
 30
0.0
 11
36632.11346032429
 21
1889.325725880099
 31
0.0
  0
LINE
  5
102
330
1F
100
AcDbEntity
  8
MTO-620-410
  6
Continuous
 62
    18
420
        0
 48
50.00000038146973
370
    25
100
AcDbLine
 10
36713.61346032428
 20
1882.325725880106
 30
0.0
 11
36595.61346032429
 21
1882.325725880106
 31
0.0
  0
LINE
  5
103
330
1F
100
AcDbEntity
  8
MTO-620-410
  6
Continuous
 62
   250
420
   986895
 48
0.9999999962747097
370
    25
100
AcDbLine
 10
36917.84162198916
 20
2002.732942762771
 30
0.0
 11
36922.48456724721
 21
2005.837821002968
 31
0.0
  0
LINE
  5
104
330
1F
100
AcDbEntity
  8
MTO-620-410
  6
Continuous
 62
   250
420
   986895
 48
0.9999999962747097
370
    25
100
AcDbLine
 10
36391.36912811683
 20
2002.732942762771
 30
0.0
 11
36386.72618285874
 21
2005.837821002968
 31
0.0
  0
LINE
  5
105
330
1F
100
AcDbEntity
  8
MTO-620-410
  6
Continuous
 62
   250
420
   986895
 48
0.9999999962747097
370
    25
100
AcDbLine
 10
36595.61346032429
 20
1913.325725880105
 30
0.0
 11
36615.61346032428
 21
1913.325725880105
 31
0.0
  0
LINE
  5
106
330
1F
100
AcDbEntity
  8
MTO-620-410
  6
Continuous
 62
    18
420
        0
 48
50.00000038146973
370
    25
100
AcDbLine
 10
36713.61346032428
 20
1913.325725880105
 30
0.0
 11
36693.61346032428
 21
1913.325725880105
 31
0.0
  0
LINE
  5
107
330
1F
100
AcDbEntity
  8
MTO-620-410
  6
Continuous
 62
    18
420
        0
 48
50.00000038146973
370
    25
100
AcDbLine
 10
36595.61346032429
 20
1913.325725880105
 30
0.0
 11
36595.61346032429
 21
1882.325725880106
 31
0.0
  0
LINE
  5
108
330
1F
100
AcDbEntity
  8
MTO-620-410
  6
Continuous
 62
    18
420
        0
 48
50.00000038146973
370
    25
100
AcDbLine
 10
36713.61346032428
 20
1913.325725880105
 30
0.0
 11
36713.61346032428
 21
1882.325725880106
 31
0.0
  0
LINE
  5
109
330
1F
100
AcDbEntity
  8
MTO-620-410
  6
Continuous
 62
    18
420
        0
 48
50.00000038146973
370
    25
100
AcDbLine
 10
36304.61346032428
 20
2217.825364706386
 30
0.0
 11
37004.61346032428
 21
2217.825364706386
 31
0.0
  0
LINE
  5
10A
330
1F
100
AcDbEntity
  8
MTO-620-410
  6
Continuous
 62
    18
420
        0
 48
50.00000038146973
370
    25
100
AcDbLine
 10
37004.61346032428
 20
2767.825364706388
 30
0.0
 11
37004.61346032428
 21
2217.825364706386
 31
0.0
  0
LINE
  5
10B
330
1F
100
AcDbEntity
  8
MTO-620-410
  6
Continuous
 62
    18
420
        0
 48
50.00000038146973
370
    25
100
AcDbLine
 10
36304.61346032428
 20
2767.825364706388
 30
0.0
 11
37004.61346032428
 21
2767.825364706388
 31
0.0
  0
LINE
  5
10C
330
1F
100
AcDbEntity
  8
MTO-620-410
  6
Continuous
 62
    18
420
        0
 48
50.00000038146973
370
    25
100
AcDbLine
 10
36627.0848894456
 20
2467.825364706387
 30
0.0
 11
36682.08482688457
 21
2467.825364706387
 31
0.0
  0
LINE
  5
10D
330
1F
100
AcDbEntity
  8
MTO-620-410
  6
Continuous
 62
    18
420
        0
 48
50.00000038146973
370
    25
100
AcDbLine
 10
36654.58476127177
 20
2440.325347540249
 30
0.0
 11
36654.58476127177
 21
2495.325381872524
 31
0.0
  0
LINE
  5
10E
330
1F
100
AcDbEntity
  8
MTO-620-410
  6
Continuous
 62
    18
420
        0
 48
25.00000019073486
370
    25
100
AcDbLine
 10
36304.61346032428
 20
2767.825364706388
 30
0.0
 11
36304.61346032428
 21
2217.825364706386
 31
0.0
  0
LINE
  5
10F
330
1F
100
AcDbEntity
  8
MTO-620-410
  6
Continuous
 62
   250
420
   986895
 48
0.9999999962747097
370
    25
100
AcDbLine
 10
37216.61346032428
 20
2217.825364706386
 30
0.0
 11
37216.61346032428
 21
2767.825364706388
 31
0.0
  0
LINE
  5
110
330
1F
100
AcDbEntity
  8
MTO-620-410
  6
Continuous
 62
   250
420
   986895
 48
0.9999999962747097
370
    25
100
AcDbLine
 10
37216.61346032428
 20
2767.825364706388
 30
0.0
 11
37204.61346032428
 21
2767.825364706388
 31
0.0
  0
LINE
  5
111
330
1F
100
AcDbEntity
  8
MTO-620-410
  6
Continuous
 62
   250
420
   986895
 48
0.9999999962747097
370
    25
100
AcDbLine
 10
37216.61346032428
 20
2217.825364706386
 30
0.0
 11
37204.61346032428
 21
2217.825364706386
 31
0.0
  0
LINE
  5
112
330
1F
100
AcDbEntity
  8
MTO-620-410
  6
DASHED1
 62
    18
420
        0
 48
15.00000041723251
370
    25
100
AcDbLine
 10
37301.78879907406
 20
2428.82536470639
 30
0.0
 11
37319.61346032429
 21
2428.82536470639
 31
0.0
  0
LINE
  5
113
330
1F
100
AcDbEntity
  8
MTO-620-410
  6
DASHED1
 62
    18
420
        0
 48
15.00000041723251
370
    25
100
AcDbLine
 10
37301.7887991095
 20
2506.825364706383
 30
0.0
 11
37319.61346032429
 21
2506.825364706383
 31
0.0
  0
LINE
  5
114
330
1F
100
AcDbEntity
  8
MTO-620-410
  6
DASHED1
 62
    18
420
        0
 48
15.00000041723251
370
    25
100
AcDbLine
 10
37305.11346032429
 20
2502.825364706384
 30
0.0
 11
37311.61346032429
 21
2502.825364706384
 31
0.0
  0
LINE
  5
115
330
1F
100
AcDbEntity
  8
MTO-620-410
  6
Continuous
 62
    18
420
        0
 48
50.00000038146973
370
    25
100
AcDbLine
 10
37305.11346032429
 20
2432.825364706389
 30
0.0
 11
37311.61346032429
 21
2432.825364706389
 31
0.0
  0
LINE
  5
116
330
1F
100
AcDbEntity
  8
MTO-620-410
  6
DASHED1
 62
    18
420
        0
 48
15.00000041723251
370
    25
100
AcDbLine
 10
37324.61346032428
 20
2433.825364706383
 30
0.0
 11
37324.61346032428
 21
2501.825364706379
 31
0.0
  0
LINE
  5
117
330
1F
100
AcDbEntity
  8
MTO-620-410
  6
DASHED1
 62
    18
420
        0
 48
15.00000041723251
370
    25
100
AcDbLine
 10
37311.61346032429
 20
2432.825364706389
 30
0.0
 11
37311.61346032429
 21
2502.825364706384
 31
0.0
  0
LINE
  5
118
330
1F
100
AcDbEntity
  8
MTO-620-410
  6
Continuous
 62
    18
420
        0
 48
50.00000038146973
370
    25
100
AcDbLine
 10
37311.61346032429
 20
2442.825364706387
 30
0.0
 11
37324.61346032428
 21
2442.825364706387
 31
0.0
  0
LINE
  5
119
330
1F
100
AcDbEntity
  8
MTO-620-410
  6
Continuous
 62
    18
420
        0
 48
50.00000038146973
370
    25
100
AcDbLine
 10
37311.61346032429
 20
2492.825364706387
 30
0.0
 11
37324.61346032428
 21
2492.825364706387
 31
0.0
  0
LINE
  5
11A
330
1F
100
AcDbEntity
  8
MTO-620-410
  6
DASHED1
 62
    18
420
        0
 48
15.00000041723251
370
    25
100
AcDbLine
 10
37333.11346032429
 20
2445.325364706383
 30
0.0
 11
37340.11346032429
 21
2445.325364706383
 31
0.0
  0
LINE
  5
11B
330
1F
100
AcDbEntity
  8
MTO-620-410
  6
DASHED1
 62
    18
420
        0
 48
15.00000041723251
370
    25
100
AcDbLine
 10
37333.11346032429
 20
2490.32536470639
 30
0.0
 11
37340.11346032429
 21
2490.32536470639
 31
0.0
  0
LINE
  5
11C
330
1F
100
AcDbEntity
  8
MTO-620-410
  6
DASHED1
 62
    18
420
        0
 48
15.00000041723251
370
    25
100
AcDbLine
 10
37324.61346032428
 20
2436.825364706388
 30
0.0
 11
37333.11346032429
 21
2445.325364706383
 31
0.0
  0
LINE
  5
11D
330
1F
100
AcDbEntity
  8
MTO-620-410
  6
DASHED1
 62
    18
420
        0
 48
15.00000041723251
370
    25
100
AcDbLine
 10
37324.61346032428
 20
2498.825364706385
 30
0.0
 11
37333.11346032429
 21
2490.32536470639
 31
0.0
  0
LINE
  5
11E
330
1F
100
AcDbEntity
  8
MTO-620-410
  6
Continuous
 62
    18
420
        0
 48
50.00000038146973
370
    25
100
AcDbLine
 10
37340.11346032429
 20
2408.825364706383
 30
0.0
 11
37340.11346032429
 21
2526.825364706391
 31
0.0
  0
LINE
  5
11F
330
1F
100
AcDbEntity
  8
MTO-620-410
  6
Continuous
 62
   250
420
   986895
 48
0.9999999962747097
370
    25
100
AcDbLine
 10
37309.11346032429
 20
2526.825364706391
 30
0.0
 11
37309.11346032429
 21
2506.825364706383
 31
0.0
  0
LINE
  5
120
330
1F
100
AcDbEntity
  8
MTO-620-410
  6
Continuous
 62
    18
420
        0
 48
50.00000038146973
370
    25
100
AcDbLine
 10
37309.11346032429
 20
2408.825364706383
 30
0.0
 11
37309.11346032429
 21
2428.82536470639
 31
0.0
  0
LINE
  5
121
330
1F
100
AcDbEntity
  8
MTO-620-410
  6
Continuous
 62
    18
420
        0
 48
50.00000038146973
370
    25
100
AcDbLine
 10
37309.11346032429
 20
2526.825364706391
 30
0.0
 11
37340.11346032429
 21
2526.825364706391
 31
0.0
  0
LINE
  5
122
330
1F
100
AcDbEntity
  8
MTO-620-410
  6
Continuous
 62
    18
420
        0
 48
50.00000038146973
370
    25
100
AcDbLine
 10
37309.11346032429
 20
2408.825364706383
 30
0.0
 11
37340.11346032429
 21
2408.825364706383
 31
0.0
  0
LINE
  5
123
330
1F
100
AcDbEntity
  8
MTO-620-410
  6
Continuous
 62
    18
420
        0
 48
50.00000038146973
370
    25
100
AcDbLine
 10
36304.61346032428
 20
2017.825364706386
 30
0.0
 11
37004.61346032428
 21
2017.825364706386
 31
0.0
  0
LINE
  5
124
330
1F
100
AcDbEntity
  8
MTO-620-410
  6
Continuous
 62
    18
420
        0
 48
50.00000038146973
370
    25
100
AcDbLine
 10
37204.61346032428
 20
2767.825364706388
 30
0.0
 11
37204.61346032428
 21
2217.825364706386
 31
0.0
  0
LINE
  5
125
330
1F
100
AcDbEntity
  8
MTO-620-410
  6
Continuous
 62
    18
420
        0
 48
100.0000007629395
370
    25
100
AcDbLine
 10
35948.92819015656
 20
1449.385486289566
 30
0.0
 11
36072.92819015656
 21
1449.385486289566
 31
0.0
  0
LINE
  5
126
330
1F
100
AcDbEntity
  8
MTO-620-410
  6
Continuous
 62
    18
420
        0
 48
100.0000007629395
370
    25
100
AcDbLine
 10
35945.92819015656
 20
1473.385486289561
 30
0.0
 11
36075.92819015651
 21
1473.385486289561
 31
0.0
  0
LINE
  5
127
330
1F
100
AcDbEntity
  8
MTO-620-410
  6
Continuous
 62
    18
420
        0
 48
100.0000007629395
370
    25
100
AcDbLine
 10
35945.92819015656
 20
1475.385486289572
 30
0.0
 11
35945.92819015656
 21
1473.385486289561
 31
0.0
  0
LINE
  5
128
330
1F
100
AcDbEntity
  8
MTO-620-410
  6
Continuous
 62
    18
420
        0
 48
100.0000007629395
370
    25
100
AcDbLine
 10
36075.92819015651
 20
1475.385486289572
 30
0.0
 11
36075.92819015651
 21
1473.385486289561
 31
0.0
  0
LINE
  5
129
330
1F
100
AcDbEntity
  8
MTO-620-410
  6
Continuous
 62
    18
420
        0
 48
100.0000007629395
370
    25
100
AcDbLine
 10
35970.92819015652
 20
1449.385486289566
 30
0.0
 11
35970.92819015652
 21
1473.385486289561
 31
0.0
  0
LINE
  5
12A
330
1F
100
AcDbEntity
  8
MTO-620-410
  6
Continuous
 62
    18
420
        0
 48
100.0000007629395
370
    25
100
AcDbLine
 10
36050.92819015655
 20
1449.385486289566
 30
0.0
 11
36050.92819015655
 21
1473.385486289561
 31
0.0
  0
LINE
  5
12B
330
1F
100
AcDbEntity
  8
MTO-620-410
  6
Continuous
 62
    18
420
        0
 48
100.0000007629395
370
    25
100
AcDbLine
 10
35982.92819015654
 20
1449.385486289566
 30
0.0
 11
35982.92819015654
 21
1473.385486289561
 31
0.0
  0
LINE
  5
12C
330
1F
100
AcDbEntity
  8
MTO-620-410
  6
Continuous
 62
    18
420
        0
 48
100.0000007629395
370
    25
100
AcDbLine
 10
36038.92819015653
 20
1449.385486289566
 30
0.0
 11
36038.92819015653
 21
1473.385486289561
 31
0.0
  0
LINE
  5
12D
330
1F
100
AcDbEntity
  8
MTO-620-410
  6
Continuous
 62
    18
420
        0
 48
100.0000007629395
370
    25
100
AcDbLine
 10
36007.92819015656
 20
1449.385486289566
 30
0.0
 11
36007.92819015656
 21
1473.385486289561
 31
0.0
  0
LINE
  5
12E
330
1F
100
AcDbEntity
  8
MTO-620-410
  6
Continuous
 62
    18
420
        0
 48
100.0000007629395
370
    25
100
AcDbLine
 10
36013.92819015652
 20
1449.385486289566
 30
0.0
 11
36013.92819015652
 21
1473.385486289561
 31
0.0
  0
LINE
  5
12F
330
1F
100
AcDbEntity
  8
MTO-620-410
  6
Continuous
 62
    18
420
        0
 48
0.6999999973922968
370
    25
100
AcDbLine
 10
35793.63847692341
 20
1641.786435058418
 30
0.0
 11
36231.50807797964
 21
1641.786435058418
 31
0.0
  0
LINE
  5
130
330
1F
100
AcDbEntity
  8
MTO-620-410
  6
Continuous
 62
    18
420
        0
 48
0.6999999973922968
370
    25
100
AcDbLine
 10
36231.50807797964
 20
1641.786435058418
 30
0.0
 11
36231.50807797964
 21
1355.472522245014
 31
0.0
  0
LINE
  5
131
330
1F
100
AcDbEntity
  8
MTO-620-410
  6
Continuous
 62
    18
420
        0
 48
0.6999999973922968
370
    25
100
AcDbLine
 10
36231.50807797964
 20
1355.472522245014
 30
0.0
 11
35793.63847692341
 21
1355.472522245014
 31
0.0
  0
LINE
  5
132
330
1F
100
AcDbEntity
  8
MTO-620-410
  6
Continuous
 62
    18
420
        0
 48
0.6999999973922968
370
    25
100
AcDbLine
 10
35793.63847692341
 20
1355.472522245014
 30
0.0
 11
35793.63847692341
 21
1641.786435058418
 31
0.0
  0
LINE
  5
133
330
1F
100
AcDbEntity
  8
MTO-620-410
  6
Continuous
 62
    18
420
        0
 48
100.0000007629395
370
    25
100
AcDbLine
 10
36603.79779121276
 20
1403.64070789426
 30
0.0
 11
36554.79779121275
 21
1403.64070789426
 31
0.0
  0
LINE
  5
134
330
1F
100
AcDbEntity
  8
MTO-620-410
  6
Continuous
 62
    18
420
        0
 48
100.0000007629395
370
    25
100
AcDbLine
 10
36442.79779121278
 20
1403.64070789426
 30
0.0
 11
36393.79779121277
 21
1403.64070789426
 31
0.0
  0
LINE
  5
135
330
1F
100
AcDbEntity
  8
MTO-620-410
  6
Continuous
 62
    18
420
        0
 48
0.6999999973922968
370
    25
100
AcDbLine
 10
36281.50807797964
 20
1641.786435058418
 30
0.0
 11
36719.37767903587
 21
1641.786435058418
 31
0.0
  0
LINE
  5
136
330
1F
100
AcDbEntity
  8
MTO-620-410
  6
Continuous
 62
    18
420
        0
 48
0.6999999973922968
370
    25
100
AcDbLine
 10
36719.37767903587
 20
1641.786435058418
 30
0.0
 11
36719.37767903587
 21
1355.472522245014
 31
0.0
  0
LINE
  5
137
330
1F
100
AcDbEntity
  8
MTO-620-410
  6
Continuous
 62
    18
420
        0
 48
0.6999999973922968
370
    25
100
AcDbLine
 10
36719.37767903587
 20
1355.472522245014
 30
0.0
 11
36281.50807797964
 21
1355.472522245014
 31
0.0
  0
LINE
  5
138
330
1F
100
AcDbEntity
  8
MTO-620-410
  6
Continuous
 62
    18
420
        0
 48
0.6999999973922968
370
    25
100
AcDbLine
 10
36281.50807797964
 20
1355.472522245014
 30
0.0
 11
36281.50807797964
 21
1641.786435058418
 31
0.0
  0
LINE
  5
139
330
1F
100
AcDbEntity
  8
MTO-620-410
  6
Continuous
 62
    18
420
        0
 48
100.0000007629395
370
    25
100
AcDbLine
 10
37091.66739226899
 20
1403.640707894237
 30
0.0
 11
37062.667392269
 21
1403.640707894237
 31
0.0
  0
LINE
  5
13A
330
1F
100
AcDbEntity
  8
MTO-620-410
  6
Continuous
 62
    18
420
        0
 48
100.0000007629395
370
    25
100
AcDbLine
 10
36910.66739226899
 20
1403.640707894237
 30
0.0
 11
36881.667392269
 21
1403.640707894237
 31
0.0
  0
LINE
  5
13B
330
1F
100
AcDbEntity
  8
MTO-620-410
  6
Continuous
 62
    18
420
        0
 48
0.6999999973922968
370
    25
100
AcDbLine
 10
36769.37767903587
 20
1641.786435058418
 30
0.0
 11
37207.2472800921
 21
1641.786435058418
 31
0.0
  0
LINE
  5
13C
330
1F
100
AcDbEntity
  8
MTO-620-410
  6
Continuous
 62
    18
420
        0
 48
0.6999999973922968
370
    25
100
AcDbLine
 10
37207.2472800921
 20
1641.786435058418
 30
0.0
 11
37207.2472800921
 21
1355.472522245014
 31
0.0
  0
LINE
  5
13D
330
1F
100
AcDbEntity
  8
MTO-620-410
  6
Continuous
 62
    18
420
        0
 48
0.6999999973922968
370
    25
100
AcDbLine
 10
37207.2472800921
 20
1355.472522245014
 30
0.0
 11
36769.37767903587
 21
1355.472522245014
 31
0.0
  0
LINE
  5
13E
330
1F
100
AcDbEntity
  8
MTO-620-410
  6
Continuous
 62
    18
420
        0
 48
0.6999999973922968
370
    25
100
AcDbLine
 10
36769.37767903587
 20
1355.472522245014
 30
0.0
 11
36769.37767903587
 21
1641.786435058418
 31
0.0
  0
LINE
  5
13F
330
1F
100
AcDbEntity
  8
MTO-620-410
  6
Continuous
 62
    18
420
        0
 48
30.00000083446503
370
    25
100
AcDbLine
 10
36055.92819015654
 20
1432.385486289576
 30
0.0
 11
36055.92819015654
 21
1403.640707894237
 31
0.0
  0
LINE
  5
140
330
1F
100
AcDbEntity
  8
MTO-620-410
  6
Continuous
 62
    18
420
        0
 48
30.00000083446503
370
    25
100
AcDbLine
 10
35965.92819015653
 20
1432.385486289576
 30
0.0
 11
35965.92819015653
 21
1403.640707894237
 31
0.0
  0
LINE
  5
141
330
1F
100
AcDbEntity
  8
MTO-620-410
  6
Continuous
 62
    18
420
        0
 48
30.00000083446503
370
    25
100
AcDbLine
 10
36078.25421029047
 20
1454.711506423477
 30
0.0
 11
36055.92819015654
 21
1432.385486289576
 31
0.0
  0
LINE
  5
142
330
1F
100
AcDbEntity
  8
MTO-620-410
  6
Continuous
 62
    18
420
        0
 48
30.00000083446503
370
    25
100
AcDbLine
 10
35943.60494936475
 20
1454.70872708133
 30
0.0
 11
35965.92819015653
 21
1432.385486289576
 31
0.0
  0
LINE
  5
143
330
1F
100
AcDbEntity
  8
MTO-620-410
  6
Continuous
 62
    18
420
        0
 48
100.0000007629395
370
    25
100
AcDbLine
 10
36115.92819015655
 20
1403.640707894237
 30
0.0
 11
35905.92819015652
 21
1403.640707894237
 31
0.0
  0
LINE
  5
144
330
1F
100
AcDbEntity
  8
MTO-620-410
  6
Continuous
 62
    18
420
        0
 48
100.0000007629395
370
    25
100
AcDbLine
 10
35905.92819015652
 20
1441.64070789424
 30
0.0
 11
35905.92819015652
 21
1403.640707894237
 31
0.0
  0
LINE
  5
145
330
1F
100
AcDbEntity
  8
MTO-620-410
  6
Continuous
 62
    18
420
        0
 48
100.0000007629395
370
    25
100
AcDbLine
 10
36115.92819015655
 20
1441.64070789424
 30
0.0
 11
36115.92819015655
 21
1403.640707894237
 31
0.0
  0
LINE
  5
146
330
1F
100
AcDbEntity
  8
MTO-620-410
  6
Continuous
 62
   250
420
   986895
 48
1.999999992549419
370
    25
100
AcDbLine
 10
35905.92819015652
 20
1441.64070789424
 30
0.0
 11
35956.67296855187
 21
1441.64070789424
 31
0.0
  0
LINE
  5
147
330
1F
100
AcDbEntity
  8
MTO-620-410
  6
Continuous
 62
    18
420
        0
 48
100.0000007629395
370
    25
100
AcDbLine
 10
36115.92819015655
 20
1441.64070789424
 30
0.0
 11
36065.18341176121
 21
1441.64070789424
 31
0.0
  0
LINE
  5
148
330
1F
100
AcDbEntity
  8
MTO-620-410
  6
Continuous
 62
    12
420
 14745600
 48
100.0000007629395
370
    18
100
AcDbLine
 10
36168.17765680406
 20
1441.040707808044
 30
0.0
 11
36166.97765663167
 21
1442.240707980436
 31
0.0
  0
LINE
  5
149
330
1F
100
AcDbEntity
  8
MTO-620-410
  6
Continuous
 62
    12
420
 14745600
 48
100.0000007629395
370
    18
100
AcDbLine
 10
36166.97765663167
 20
1404.240707980433
 30
0.0
 11
36168.17765680406
 21
1403.040707808041
 31
0.0
  0
LINE
  5
14A
330
1F
100
AcDbEntity
  8
MTO-620-410
  6
Continuous
 62
    18
420
        0
 48
100.0000007629395
370
    25
100
AcDbLine
 10
36167.57765671786
 20
1443.040707983647
 30
0.0
 11
36167.57765671786
 21
1431.554994756211
 31
0.0
  0
LINE
  5
14B
330
1F
100
AcDbEntity
  8
MTO-620-410
  6
Continuous
 62
    18
420
        0
 48
100.0000007629395
370
    25
100
AcDbLine
 10
36167.57765671786
 20
1402.24070780483
 30
0.0
 11
36167.57765671786
 21
1413.726421032266
 31
0.0
  0
LINE
  5
14C
330
1F
100
AcDbEntity
  8
MTO-620-410
  6
Continuous
 62
    18
420
        0
 48
100.0000007629395
370
    25
100
AcDbLine
 10
36168.97765680727
 20
1441.64070789424
 30
0.0
 11
36167.57765671786
 21
1441.64070789424
 31
0.0
  0
LINE
  5
14D
330
1F
100
AcDbEntity
  8
MTO-620-410
  6
Continuous
 62
    18
420
        0
 48
100.0000007629395
370
    25
100
AcDbLine
 10
36166.17765662845
 20
1441.64070789424
 30
0.0
 11
36167.57765671786
 21
1441.64070789424
 31
0.0
  0
LINE
  5
14E
330
1F
100
AcDbEntity
  8
MTO-620-410
  6
Continuous
 62
    18
420
        0
 48
100.0000007629395
370
    25
100
AcDbLine
 10
36166.17765662845
 20
1403.640707894237
 30
0.0
 11
36167.57765671786
 21
1403.640707894237
 31
0.0
  0
LINE
  5
14F
330
1F
100
AcDbEntity
  8
MTO-620-410
  6
Continuous
 62
    18
420
        0
 48
100.0000007629395
370
    25
100
AcDbLine
 10
36168.97765680727
 20
1403.640707894237
 30
0.0
 11
36167.57765671786
 21
1403.640707894237
 31
0.0
  0
LINE
  5
150
330
1F
100
AcDbEntity
  8
MTO-620-410
  6
Continuous
 62
    18
420
        0
 48
30.00000083446503
370
    25
100
AcDbLine
 10
36576.79779121276
 20
1453.36343202287
 30
0.0
 11
36576.79779121276
 21
1419.640707894256
 31
0.0
  0
LINE
  5
151
330
1F
100
AcDbEntity
  8
MTO-620-410
  6
Continuous
 62
    18
420
        0
 48
30.00000083446503
370
    25
100
AcDbLine
 10
36420.79779121277
 20
1453.360490032393
 30
0.0
 11
36420.79779121277
 21
1419.640707894256
 31
0.0
  0
LINE
  5
152
330
1F
100
AcDbEntity
  8
MTO-620-410
  6
Continuous
 62
    18
420
        0
 48
30.00000083446503
370
    25
100
AcDbLine
 10
36428.79779121277
 20
1452.640707894243
 30
0.0
 11
36428.79779121277
 21
1439.640707894252
 31
0.0
  0
LINE
  5
153
330
1F
100
AcDbEntity
  8
MTO-620-410
  6
Continuous
 62
    18
420
        0
 48
100.0000007629395
370
    25
100
AcDbLine
 10
36568.79779121276
 20
1452.640707894243
 30
0.0
 11
36568.79779121276
 21
1439.640707894252
 31
0.0
  0
LINE
  5
154
330
1F
100
AcDbEntity
  8
MTO-620-410
  6
Continuous
 62
    18
420
        0
 48
30.00000083446503
370
    25
100
AcDbLine
 10
36566.79779121278
 20
1409.640707894247
 30
0.0
 11
36430.79779121275
 21
1409.640707894247
 31
0.0
  0
LINE
  5
155
330
1F
100
AcDbEntity
  8
MTO-620-410
  6
Continuous
 62
    18
420
        0
 48
30.00000083446503
370
    25
100
AcDbLine
 10
36568.79779121276
 20
1439.640707894252
 30
0.0
 11
36428.79779121277
 21
1439.640707894252
 31
0.0
  0
LINE
  5
156
330
1F
100
AcDbEntity
  8
MTO-620-410
  6
Continuous
 62
    18
420
        0
 48
100.0000007629395
370
    25
100
AcDbLine
 10
36548.79779121279
 20
1439.640707894252
 30
0.0
 11
36548.79779121279
 21
1409.640707894247
 31
0.0
  0
LINE
  5
157
330
1F
100
AcDbEntity
  8
MTO-620-410
  6
Continuous
 62
    18
420
        0
 48
100.0000007629395
370
    25
100
AcDbLine
 10
36448.79779121274
 20
1439.640707894252
 30
0.0
 11
36448.79779121274
 21
1409.640707894247
 31
0.0
  0
LINE
  5
158
330
1F
100
AcDbEntity
  8
MTO-620-410
  6
Continuous
 62
    18
420
        0
 48
30.00000083446503
370
    25
100
AcDbLine
 10
36543.79779121275
 20
1392.640707894257
 30
0.0
 11
36543.79779121275
 21
1379.640707894242
 31
0.0
  0
LINE
  5
159
330
1F
100
AcDbEntity
  8
MTO-620-410
  6
Continuous
 62
    18
420
        0
 48
30.00000083446503
370
    25
100
AcDbLine
 10
36453.79779121278
 20
1392.640707894257
 30
0.0
 11
36453.79779121278
 21
1379.640707894242
 31
0.0
  0
LINE
  5
15A
330
1F
100
AcDbEntity
  8
MTO-620-410
  6
Continuous
 62
    18
420
        0
 48
30.00000083446503
370
    25
100
AcDbLine
 10
36560.79779121276
 20
1409.640707894247
 30
0.0
 11
36543.79779121275
 21
1392.640707894257
 31
0.0
  0
LINE
  5
15B
330
1F
100
AcDbEntity
  8
MTO-620-410
  6
Continuous
 62
    18
420
        0
 48
30.00000083446503
370
    25
100
AcDbLine
 10
36436.79779121277
 20
1409.640707894247
 30
0.0
 11
36453.79779121278
 21
1392.640707894257
 31
0.0
  0
LINE
  5
15C
330
1F
100
AcDbEntity
  8
MTO-620-410
  6
Continuous
 62
    18
420
        0
 48
100.0000007629395
370
    25
100
AcDbLine
 10
36603.79779121276
 20
1379.640707894242
 30
0.0
 11
36393.79779121277
 21
1379.640707894242
 31
0.0
  0
LINE
  5
15D
330
1F
100
AcDbEntity
  8
MTO-620-410
  6
Continuous
 62
    18
420
        0
 48
100.0000007629395
370
    25
100
AcDbLine
 10
36393.79779121277
 20
1441.64070789424
 30
0.0
 11
36393.79779121277
 21
1379.640707894242
 31
0.0
  0
LINE
  5
15E
330
1F
100
AcDbEntity
  8
MTO-620-410
  6
Continuous
 62
    18
420
        0
 48
100.0000007629395
370
    25
100
AcDbLine
 10
36603.79779121276
 20
1441.64070789424
 30
0.0
 11
36603.79779121276
 21
1379.640707894242
 31
0.0
  0
LINE
  5
15F
330
1F
100
AcDbEntity
  8
MTO-620-410
  6
Continuous
 62
   250
420
   986895
 48
1.999999992549419
370
    25
100
AcDbLine
 10
36393.79779121277
 20
1441.64070789424
 30
0.0
 11
36420.79779121277
 21
1441.64070789424
 31
0.0
  0
LINE
  5
160
330
1F
100
AcDbEntity
  8
MTO-620-410
  6
Continuous
 62
    18
420
        0
 48
100.0000007629395
370
    25
100
AcDbLine
 10
36603.79779121276
 20
1441.64070789424
 30
0.0
 11
36576.79779121276
 21
1441.64070789424
 31
0.0
  0
LINE
  5
161
330
1F
100
AcDbEntity
  8
MTO-620-410
  6
Continuous
 62
    12
420
 14745600
 48
100.0000007629395
370
    18
100
AcDbLine
 10
36662.62106444264
 20
1441.040707808044
 30
0.0
 11
36661.42106427025
 21
1442.240707980436
 31
0.0
  0
LINE
  5
162
330
1F
100
AcDbEntity
  8
MTO-620-410
  6
Continuous
 62
    12
420
 14745600
 48
100.0000007629395
370
    18
100
AcDbLine
 10
36661.42106427025
 20
1404.240707980456
 30
0.0
 11
36662.62106444264
 21
1403.040707808064
 31
0.0
  0
LINE
  5
163
330
1F
100
AcDbEntity
  8
MTO-620-410
  6
Continuous
 62
    18
420
        0
 48
100.0000007629395
370
    25
100
AcDbLine
 10
36662.02106435644
 20
1443.040707983647
 30
0.0
 11
36662.02106435644
 21
1431.554994756234
 31
0.0
  0
LINE
  5
164
330
1F
100
AcDbEntity
  8
MTO-620-410
  6
Continuous
 62
    18
420
        0
 48
100.0000007629395
370
    25
100
AcDbLine
 10
36662.02106435644
 20
1402.240707804853
 30
0.0
 11
36662.02106435644
 21
1413.726421032289
 31
0.0
  0
LINE
  5
165
330
1F
100
AcDbEntity
  8
MTO-620-410
  6
Continuous
 62
    18
420
        0
 48
100.0000007629395
370
    25
100
AcDbLine
 10
36663.42106444585
 20
1441.64070789424
 30
0.0
 11
36662.02106435644
 21
1441.64070789424
 31
0.0
  0
LINE
  5
166
330
1F
100
AcDbEntity
  8
MTO-620-410
  6
Continuous
 62
    18
420
        0
 48
100.0000007629395
370
    25
100
AcDbLine
 10
36660.62106426703
 20
1441.64070789424
 30
0.0
 11
36662.02106435644
 21
1441.64070789424
 31
0.0
  0
LINE
  5
167
330
1F
100
AcDbEntity
  8
MTO-620-410
  6
Continuous
 62
    18
420
        0
 48
100.0000007629395
370
    25
100
AcDbLine
 10
36660.62106426703
 20
1403.64070789426
 30
0.0
 11
36662.02106435644
 21
1403.64070789426
 31
0.0
  0
LINE
  5
168
330
1F
100
AcDbEntity
  8
MTO-620-410
  6
Continuous
 62
    18
420
        0
 48
100.0000007629395
370
    25
100
AcDbLine
 10
36663.42106444585
 20
1403.64070789426
 30
0.0
 11
36662.02106435644
 21
1403.64070789426
 31
0.0
  0
LINE
  5
169
330
1F
100
AcDbEntity
  8
MTO-620-410
  6
Continuous
 62
    12
420
 14745600
 48
100.0000007629395
370
    18
100
AcDbLine
 10
36662.62106444264
 20
1403.040707808064
 30
0.0
 11
36661.42106427025
 21
1404.240707980456
 31
0.0
  0
LINE
  5
16A
330
1F
100
AcDbEntity
  8
MTO-620-410
  6
Continuous
 62
    12
420
 14745600
 48
100.0000007629395
370
    18
100
AcDbLine
 10
36661.42106427025
 20
1380.240707980439
 30
0.0
 11
36662.62106444264
 21
1379.040707808046
 31
0.0
  0
LINE
  5
16B
330
1F
100
AcDbEntity
  8
MTO-620-410
  6
Continuous
 62
    18
420
        0
 48
100.0000007629395
370
    25
100
AcDbLine
 10
36662.02106435644
 20
1405.040707983667
 30
0.0
 11
36662.02106435644
 21
1400.554994756212
 31
0.0
  0
LINE
  5
16C
330
1F
100
AcDbEntity
  8
MTO-620-410
  6
Continuous
 62
    18
420
        0
 48
100.0000007629395
370
    25
100
AcDbLine
 10
36662.02106435644
 20
1378.240707804835
 30
0.0
 11
36662.02106435644
 21
1382.726421032267
 31
0.0
  0
LINE
  5
16D
330
1F
100
AcDbEntity
  8
MTO-620-410
  6
Continuous
 62
    18
420
        0
 48
100.0000007629395
370
    25
100
AcDbLine
 10
36663.42106444585
 20
1403.64070789426
 30
0.0
 11
36662.02106435644
 21
1403.64070789426
 31
0.0
  0
LINE
  5
16E
330
1F
100
AcDbEntity
  8
MTO-620-410
  6
Continuous
 62
    18
420
        0
 48
100.0000007629395
370
    25
100
AcDbLine
 10
36660.62106426703
 20
1403.64070789426
 30
0.0
 11
36662.02106435644
 21
1403.64070789426
 31
0.0
  0
LINE
  5
16F
330
1F
100
AcDbEntity
  8
MTO-620-410
  6
Continuous
 62
    18
420
        0
 48
100.0000007629395
370
    25
100
AcDbLine
 10
36660.62106426703
 20
1379.640707894242
 30
0.0
 11
36662.02106435644
 21
1379.640707894242
 31
0.0
  0
LINE
  5
170
330
1F
100
AcDbEntity
  8
MTO-620-410
  6
Continuous
 62
    18
420
        0
 48
100.0000007629395
370
    25
100
AcDbLine
 10
36663.42106444585
 20
1379.640707894242
 30
0.0
 11
36662.02106435644
 21
1379.640707894242
 31
0.0
  0
LINE
  5
171
330
1F
100
AcDbEntity
  8
MTO-620-410
  6
Continuous
 62
    18
420
        0
 48
30.00000083446503
370
    25
100
AcDbLine
 10
37064.66739226899
 20
1453.363432022847
 30
0.0
 11
37064.66739226899
 21
1409.640707894224
 31
0.0
  0
LINE
  5
172
330
1F
100
AcDbEntity
  8
MTO-620-410
  6
Continuous
 62
    18
420
        0
 48
30.00000083446503
370
    25
100
AcDbLine
 10
36908.667392269
 20
1453.360490032371
 30
0.0
 11
36908.667392269
 21
1409.640707894224
 31
0.0
  0
LINE
  5
173
330
1F
100
AcDbEntity
  8
MTO-620-410
  6
Continuous
 62
    18
420
        0
 48
30.00000083446503
370
    25
100
AcDbLine
 10
36916.667392269
 20
1452.640707894243
 30
0.0
 11
36916.667392269
 21
1439.640707894229
 31
0.0
  0
LINE
  5
174
330
1F
100
AcDbEntity
  8
MTO-620-410
  6
Continuous
 62
    18
420
        0
 48
100.0000007629395
370
    25
100
AcDbLine
 10
37056.66739226899
 20
1452.640707894243
 30
0.0
 11
37056.66739226899
 21
1439.640707894229
 31
0.0
  0
LINE
  5
175
330
1F
100
AcDbEntity
  8
MTO-620-410
  6
Continuous
 62
    18
420
        0
 48
30.00000083446503
370
    25
100
AcDbLine
 10
37054.667392269
 20
1399.640707894238
 30
0.0
 11
36918.66739226899
 21
1399.640707894238
 31
0.0
  0
LINE
  5
176
330
1F
100
AcDbEntity
  8
MTO-620-410
  6
Continuous
 62
    18
420
        0
 48
30.00000083446503
370
    25
100
AcDbLine
 10
37056.66739226899
 20
1439.640707894229
 30
0.0
 11
36916.667392269
 21
1439.640707894229
 31
0.0
  0
LINE
  5
177
330
1F
100
AcDbEntity
  8
MTO-620-410
  6
Continuous
 62
    18
420
        0
 48
100.0000007629395
370
    25
100
AcDbLine
 10
37036.66739226897
 20
1439.640707894229
 30
0.0
 11
37036.66739226897
 21
1399.640707894238
 31
0.0
  0
LINE
  5
178
330
1F
100
AcDbEntity
  8
MTO-620-410
  6
Continuous
 62
    18
420
        0
 48
100.0000007629395
370
    25
100
AcDbLine
 10
36936.66739226897
 20
1439.640707894229
 30
0.0
 11
36936.66739226897
 21
1399.640707894238
 31
0.0
  0
LINE
  5
179
330
1F
100
AcDbEntity
  8
MTO-620-410
  6
Continuous
 62
    18
420
        0
 48
30.00000083446503
370
    25
100
AcDbLine
 10
37031.66739226898
 20
1382.640707894247
 30
0.0
 11
37031.66739226898
 21
1379.640707894242
 31
0.0
  0
LINE
  5
17A
330
1F
100
AcDbEntity
  8
MTO-620-410
  6
Continuous
 62
    18
420
        0
 48
30.00000083446503
370
    25
100
AcDbLine
 10
36941.66739226897
 20
1382.640707894247
 30
0.0
 11
36941.66739226897
 21
1379.640707894242
 31
0.0
  0
LINE
  5
17B
330
1F
100
AcDbEntity
  8
MTO-620-410
  6
Continuous
 62
    18
420
        0
 48
30.00000083446503
370
    25
100
AcDbLine
 10
37048.66739226899
 20
1399.640707894238
 30
0.0
 11
37031.66739226898
 21
1382.640707894247
 31
0.0
  0
LINE
  5
17C
330
1F
100
AcDbEntity
  8
MTO-620-410
  6
Continuous
 62
    18
420
        0
 48
30.00000083446503
370
    25
100
AcDbLine
 10
36924.667392269
 20
1399.640707894238
 30
0.0
 11
36941.66739226897
 21
1382.640707894247
 31
0.0
  0
LINE
  5
17D
330
1F
100
AcDbEntity
  8
MTO-620-410
  6
Continuous
 62
    18
420
        0
 48
100.0000007629395
370
    25
100
AcDbLine
 10
37091.66739226899
 20
1379.640707894242
 30
0.0
 11
36881.667392269
 21
1379.640707894242
 31
0.0
  0
LINE
  5
17E
330
1F
100
AcDbEntity
  8
MTO-620-410
  6
Continuous
 62
    18
420
        0
 48
100.0000007629395
370
    25
100
AcDbLine
 10
36881.667392269
 20
1441.64070789424
 30
0.0
 11
36881.667392269
 21
1379.640707894242
 31
0.0
  0
LINE
  5
17F
330
1F
100
AcDbEntity
  8
MTO-620-410
  6
Continuous
 62
    18
420
        0
 48
100.0000007629395
370
    25
100
AcDbLine
 10
37091.66739226899
 20
1441.64070789424
 30
0.0
 11
37091.66739226899
 21
1379.640707894242
 31
0.0
  0
LINE
  5
180
330
1F
100
AcDbEntity
  8
MTO-620-410
  6
Continuous
 62
   250
420
   986895
 48
1.999999992549419
370
    25
100
AcDbLine
 10
36881.667392269
 20
1441.64070789424
 30
0.0
 11
36908.667392269
 21
1441.64070789424
 31
0.0
  0
LINE
  5
181
330
1F
100
AcDbEntity
  8
MTO-620-410
  6
Continuous
 62
    18
420
        0
 48
100.0000007629395
370
    25
100
AcDbLine
 10
37091.66739226899
 20
1441.64070789424
 30
0.0
 11
37064.66739226899
 21
1441.64070789424
 31
0.0
  0
LINE
  5
182
330
1F
100
AcDbEntity
  8
MTO-620-410
  6
Continuous
 62
    12
420
 14745600
 48
100.0000007629395
370
    18
100
AcDbLine
 10
37169.64678442541
 20
1441.040707808044
 30
0.0
 11
37168.44678425302
 21
1442.240707980436
 31
0.0
  0
LINE
  5
183
330
1F
100
AcDbEntity
  8
MTO-620-410
  6
Continuous
 62
    12
420
 14745600
 48
100.0000007629395
370
    18
100
AcDbLine
 10
37168.44678425302
 20
1404.240707980433
 30
0.0
 11
37169.64678442541
 21
1403.040707808041
 31
0.0
  0
LINE
  5
184
330
1F
100
AcDbEntity
  8
MTO-620-410
  6
Continuous
 62
    18
420
        0
 48
100.0000007629395
370
    25
100
AcDbLine
 10
37169.04678433922
 20
1443.040707983647
 30
0.0
 11
37169.04678433922
 21
1431.554994756211
 31
0.0
  0
LINE
  5
185
330
1F
100
AcDbEntity
  8
MTO-620-410
  6
Continuous
 62
    18
420
        0
 48
100.0000007629395
370
    25
100
AcDbLine
 10
37169.04678433922
 20
1402.24070780483
 30
0.0
 11
37169.04678433922
 21
1413.726421032266
 31
0.0
  0
LINE
  5
186
330
1F
100
AcDbEntity
  8
MTO-620-410
  6
Continuous
 62
    18
420
        0
 48
100.0000007629395
370
    25
100
AcDbLine
 10
37170.44678442863
 20
1441.64070789424
 30
0.0
 11
37169.04678433922
 21
1441.64070789424
 31
0.0
  0
LINE
  5
187
330
1F
100
AcDbEntity
  8
MTO-620-410
  6
Continuous
 62
    18
420
        0
 48
100.0000007629395
370
    25
100
AcDbLine
 10
37167.64678424981
 20
1441.64070789424
 30
0.0
 11
37169.04678433922
 21
1441.64070789424
 31
0.0
  0
LINE
  5
188
330
1F
100
AcDbEntity
  8
MTO-620-410
  6
Continuous
 62
    18
420
        0
 48
100.0000007629395
370
    25
100
AcDbLine
 10
37167.64678424981
 20
1403.640707894237
 30
0.0
 11
37169.04678433922
 21
1403.640707894237
 31
0.0
  0
LINE
  5
189
330
1F
100
AcDbEntity
  8
MTO-620-410
  6
Continuous
 62
    18
420
        0
 48
100.0000007629395
370
    25
100
AcDbLine
 10
37170.44678442863
 20
1403.640707894237
 30
0.0
 11
37169.04678433922
 21
1403.640707894237
 31
0.0
  0
LINE
  5
18A
330
1F
100
AcDbEntity
  8
MTO-620-410
  6
Continuous
 62
    12
420
 14745600
 48
100.0000007629395
370
    18
100
AcDbLine
 10
37169.64678442541
 20
1403.040707808041
 30
0.0
 11
37168.44678425302
 21
1404.240707980433
 31
0.0
  0
LINE
  5
18B
330
1F
100
AcDbEntity
  8
MTO-620-410
  6
Continuous
 62
    12
420
 14745600
 48
100.0000007629395
370
    18
100
AcDbLine
 10
37168.44678425302
 20
1380.240707980439
 30
0.0
 11
37169.64678442541
 21
1379.040707808046
 31
0.0
  0
LINE
  5
18C
330
1F
100
AcDbEntity
  8
MTO-620-410
  6
Continuous
 62
    18
420
        0
 48
100.0000007629395
370
    25
100
AcDbLine
 10
37169.04678433922
 20
1405.040707983644
 30
0.0
 11
37169.04678433922
 21
1400.554994756212
 31
0.0
  0
LINE
  5
18D
330
1F
100
AcDbEntity
  8
MTO-620-410
  6
Continuous
 62
    18
420
        0
 48
100.0000007629395
370
    25
100
AcDbLine
 10
37169.04678433922
 20
1378.240707804835
 30
0.0
 11
37169.04678433922
 21
1382.726421032267
 31
0.0
  0
LINE
  5
18E
330
1F
100
AcDbEntity
  8
MTO-620-410
  6
Continuous
 62
    18
420
        0
 48
100.0000007629395
370
    25
100
AcDbLine
 10
37170.44678442863
 20
1403.640707894237
 30
0.0
 11
37169.04678433922
 21
1403.640707894237
 31
0.0
  0
LINE
  5
18F
330
1F
100
AcDbEntity
  8
MTO-620-410
  6
Continuous
 62
    18
420
        0
 48
100.0000007629395
370
    25
100
AcDbLine
 10
37167.64678424981
 20
1403.640707894237
 30
0.0
 11
37169.04678433922
 21
1403.640707894237
 31
0.0
  0
LINE
  5
190
330
1F
100
AcDbEntity
  8
MTO-620-410
  6
Continuous
 62
    18
420
        0
 48
100.0000007629395
370
    25
100
AcDbLine
 10
37167.64678424981
 20
1379.640707894242
 30
0.0
 11
37169.04678433922
 21
1379.640707894242
 31
0.0
  0
LINE
  5
191
330
1F
100
AcDbEntity
  8
MTO-620-410
  6
Continuous
 62
    18
420
        0
 48
100.0000007629395
370
    25
100
AcDbLine
 10
37170.44678442863
 20
1379.640707894242
 30
0.0
 11
37169.04678433922
 21
1379.640707894242
 31
0.0
  0
LINE
  5
192
330
1F
100
AcDbEntity
  8
MTO-620-410
  6
Continuous
 62
    18
420
        0
 48
100.0000007629395
370
    25
100
AcDbLine
 10
37579.53699332522
 20
1403.640707894237
 30
0.0
 11
37552.53699332522
 21
1403.640707894237
 31
0.0
  0
LINE
  5
193
330
1F
100
AcDbEntity
  8
MTO-620-410
  6
Continuous
 62
    18
420
        0
 48
100.0000007629395
370
    25
100
AcDbLine
 10
37396.53699332523
 20
1403.640707894237
 30
0.0
 11
37369.53699332523
 21
1403.640707894237
 31
0.0
  0
LINE
  5
194
330
1F
100
AcDbEntity
  8
MTO-620-410
  6
Continuous
 62
    18
420
        0
 48
0.6999999973922968
370
    25
100
AcDbLine
 10
37257.2472800921
 20
1641.786435058418
 30
0.0
 11
37695.11688114833
 21
1641.786435058418
 31
0.0
  0
LINE
  5
195
330
1F
100
AcDbEntity
  8
MTO-620-410
  6
Continuous
 62
    18
420
        0
 48
0.6999999973922968
370
    25
100
AcDbLine
 10
37695.11688114833
 20
1641.786435058418
 30
0.0
 11
37695.11688114833
 21
1355.472522245014
 31
0.0
  0
LINE
  5
196
330
1F
100
AcDbEntity
  8
MTO-620-410
  6
Continuous
 62
    18
420
        0
 48
0.6999999973922968
370
    25
100
AcDbLine
 10
37695.11688114833
 20
1355.472522245014
 30
0.0
 11
37257.2472800921
 21
1355.472522245014
 31
0.0
  0
LINE
  5
197
330
1F
100
AcDbEntity
  8
MTO-620-410
  6
Continuous
 62
    18
420
        0
 48
0.6999999973922968
370
    25
100
AcDbLine
 10
37257.2472800921
 20
1355.472522245014
 30
0.0
 11
37257.2472800921
 21
1641.786435058418
 31
0.0
  0
LINE
  5
198
330
1F
100
AcDbEntity
  8
MTO-620-410
  6
Continuous
 62
    18
420
        0
 48
30.00000083446503
370
    25
100
AcDbLine
 10
37552.53699332522
 20
1453.363432022847
 30
0.0
 11
37552.53699332522
 21
1395.640707894224
 31
0.0
  0
LINE
  5
199
330
1F
100
AcDbEntity
  8
MTO-620-410
  6
Continuous
 62
    18
420
        0
 48
30.00000083446503
370
    25
100
AcDbLine
 10
37396.53699332523
 20
1453.360490032371
 30
0.0
 11
37396.53699332523
 21
1395.640707894224
 31
0.0
  0
LINE
  5
19A
330
1F
100
AcDbEntity
  8
MTO-620-410
  6
Continuous
 62
    18
420
        0
 48
30.00000083446503
370
    25
100
AcDbLine
 10
37404.53699332523
 20
1452.640707894243
 30
0.0
 11
37404.53699332523
 21
1439.640707894229
 31
0.0
  0
LINE
  5
19B
330
1F
100
AcDbEntity
  8
MTO-620-410
  6
Continuous
 62
    18
420
        0
 48
100.0000007629395
370
    25
100
AcDbLine
 10
37544.53699332522
 20
1452.640707894243
 30
0.0
 11
37544.53699332522
 21
1439.640707894229
 31
0.0
  0
LINE
  5
19C
330
1F
100
AcDbEntity
  8
MTO-620-410
  6
Continuous
 62
    18
420
        0
 48
30.00000083446503
370
    25
100
AcDbLine
 10
37542.53699332523
 20
1385.640707894238
 30
0.0
 11
37406.53699332522
 21
1385.640707894238
 31
0.0
  0
LINE
  5
19D
330
1F
100
AcDbEntity
  8
MTO-620-410
  6
Continuous
 62
    18
420
        0
 48
30.00000083446503
370
    25
100
AcDbLine
 10
37544.53699332522
 20
1439.640707894229
 30
0.0
 11
37404.53699332523
 21
1439.640707894229
 31
0.0
  0
LINE
  5
19E
330
1F
100
AcDbEntity
  8
MTO-620-410
  6
Continuous
 62
    18
420
        0
 48
100.0000007629395
370
    25
100
AcDbLine
 10
37524.5369933252
 20
1439.640707894229
 30
0.0
 11
37524.5369933252
 21
1385.640707894238
 31
0.0
  0
LINE
  5
19F
330
1F
100
AcDbEntity
  8
MTO-620-410
  6
Continuous
 62
    18
420
        0
 48
100.0000007629395
370
    25
100
AcDbLine
 10
37424.5369933252
 20
1439.640707894229
 30
0.0
 11
37424.5369933252
 21
1385.640707894238
 31
0.0
  0
LINE
  5
1A0
330
1F
100
AcDbEntity
  8
MTO-620-410
  6
Continuous
 62
    18
420
        0
 48
30.00000083446503
370
    25
100
AcDbLine
 10
37519.53699332521
 20
1368.640707894248
 30
0.0
 11
37519.53699332521
 21
1365.640707894243
 31
0.0
  0
LINE
  5
1A1
330
1F
100
AcDbEntity
  8
MTO-620-410
  6
Continuous
 62
    18
420
        0
 48
30.00000083446503
370
    25
100
AcDbLine
 10
37429.53699332519
 20
1368.640707894248
 30
0.0
 11
37429.53699332519
 21
1365.640707894243
 31
0.0
  0
LINE
  5
1A2
330
1F
100
AcDbEntity
  8
MTO-620-410
  6
Continuous
 62
    18
420
        0
 48
30.00000083446503
370
    25
100
AcDbLine
 10
37536.53699332522
 20
1385.640707894238
 30
0.0
 11
37519.53699332521
 21
1368.640707894248
 31
0.0
  0
LINE
  5
1A3
330
1F
100
AcDbEntity
  8
MTO-620-410
  6
Continuous
 62
    18
420
        0
 48
30.00000083446503
370
    25
100
AcDbLine
 10
37412.53699332522
 20
1385.640707894238
 30
0.0
 11
37429.53699332519
 21
1368.640707894248
 31
0.0
  0
LINE
  5
1A4
330
1F
100
AcDbEntity
  8
MTO-620-410
  6
Continuous
 62
    18
420
        0
 48
100.0000007629395
370
    25
100
AcDbLine
 10
37579.53699332522
 20
1365.640707894243
 30
0.0
 11
37369.53699332523
 21
1365.640707894243
 31
0.0
  0
LINE
  5
1A5
330
1F
100
AcDbEntity
  8
MTO-620-410
  6
Continuous
 62
    18
420
        0
 48
100.0000007629395
370
    25
100
AcDbLine
 10
37369.53699332523
 20
1441.64070789424
 30
0.0
 11
37369.53699332523
 21
1365.640707894243
 31
0.0
  0
LINE
  5
1A6
330
1F
100
AcDbEntity
  8
MTO-620-410
  6
Continuous
 62
    18
420
        0
 48
100.0000007629395
370
    25
100
AcDbLine
 10
37579.53699332522
 20
1441.64070789424
 30
0.0
 11
37579.53699332522
 21
1365.640707894243
 31
0.0
  0
LINE
  5
1A7
330
1F
100
AcDbEntity
  8
MTO-620-410
  6
Continuous
 62
   250
420
   986895
 48
1.999999992549419
370
    25
100
AcDbLine
 10
37369.53699332523
 20
1441.64070789424
 30
0.0
 11
37396.53699332523
 21
1441.64070789424
 31
0.0
  0
LINE
  5
1A8
330
1F
100
AcDbEntity
  8
MTO-620-410
  6
Continuous
 62
    18
420
        0
 48
100.0000007629395
370
    25
100
AcDbLine
 10
37579.53699332522
 20
1441.64070789424
 30
0.0
 11
37552.53699332522
 21
1441.64070789424
 31
0.0
  0
LINE
  5
1A9
330
1F
100
AcDbEntity
  8
MTO-620-410
  6
Continuous
 62
    12
420
 14745600
 48
100.0000007629395
370
    18
100
AcDbLine
 10
37657.51638548164
 20
1441.040707808044
 30
0.0
 11
37656.31638530926
 21
1442.240707980436
 31
0.0
  0
LINE
  5
1AA
330
1F
100
AcDbEntity
  8
MTO-620-410
  6
Continuous
 62
    12
420
 14745600
 48
100.0000007629395
370
    18
100
AcDbLine
 10
37656.31638530926
 20
1404.240707980433
 30
0.0
 11
37657.51638548164
 21
1403.040707808041
 31
0.0
  0
LINE
  5
1AB
330
1F
100
AcDbEntity
  8
MTO-620-410
  6
Continuous
 62
    18
420
        0
 48
100.0000007629395
370
    25
100
AcDbLine
 10
37656.91638539545
 20
1443.040707983647
 30
0.0
 11
37656.91638539545
 21
1431.554994756211
 31
0.0
  0
LINE
  5
1AC
330
1F
100
AcDbEntity
  8
MTO-620-410
  6
Continuous
 62
    18
420
        0
 48
100.0000007629395
370
    25
100
AcDbLine
 10
37656.91638539545
 20
1402.24070780483
 30
0.0
 11
37656.91638539545
 21
1413.726421032266
 31
0.0
  0
LINE
  5
1AD
330
1F
100
AcDbEntity
  8
MTO-620-410
  6
Continuous
 62
    18
420
        0
 48
100.0000007629395
370
    25
100
AcDbLine
 10
37658.31638548485
 20
1441.64070789424
 30
0.0
 11
37656.91638539545
 21
1441.64070789424
 31
0.0
  0
LINE
  5
1AE
330
1F
100
AcDbEntity
  8
MTO-620-410
  6
Continuous
 62
    18
420
        0
 48
100.0000007629395
370
    25
100
AcDbLine
 10
37655.51638530604
 20
1441.64070789424
 30
0.0
 11
37656.91638539545
 21
1441.64070789424
 31
0.0
  0
LINE
  5
1AF
330
1F
100
AcDbEntity
  8
MTO-620-410
  6
Continuous
 62
    18
420
        0
 48
100.0000007629395
370
    25
100
AcDbLine
 10
37655.51638530604
 20
1403.640707894237
 30
0.0
 11
37656.91638539545
 21
1403.640707894237
 31
0.0
  0
LINE
  5
1B0
330
1F
100
AcDbEntity
  8
MTO-620-410
  6
Continuous
 62
    18
420
        0
 48
100.0000007629395
370
    25
100
AcDbLine
 10
37658.31638548485
 20
1403.640707894237
 30
0.0
 11
37656.91638539545
 21
1403.640707894237
 31
0.0
  0
LINE
  5
1B1
330
1F
100
AcDbEntity
  8
MTO-620-410
  6
Continuous
 62
    12
420
 14745600
 48
100.0000007629395
370
    18
100
AcDbLine
 10
37657.51638548164
 20
1403.040707808041
 30
0.0
 11
37656.31638530926
 21
1404.240707980433
 31
0.0
  0
LINE
  5
1B2
330
1F
100
AcDbEntity
  8
MTO-620-410
  6
Continuous
 62
    12
420
 14745600
 48
100.0000007629395
370
    18
100
AcDbLine
 10
37656.31638530926
 20
1366.240707980439
 30
0.0
 11
37657.51638548164
 21
1365.040707808047
 31
0.0
  0
LINE
  5
1B3
330
1F
100
AcDbEntity
  8
MTO-620-410
  6
Continuous
 62
    18
420
        0
 48
100.0000007629395
370
    25
100
AcDbLine
 10
37656.91638539545
 20
1405.040707983644
 30
0.0
 11
37656.91638539545
 21
1391.603457512088
 31
0.0
  0
LINE
  5
1B4
330
1F
100
AcDbEntity
  8
MTO-620-410
  6
Continuous
 62
    18
420
        0
 48
100.0000007629395
370
    25
100
AcDbLine
 10
37656.91638539545
 20
1364.240707804836
 30
0.0
 11
37656.91638539545
 21
1377.82436259819
 31
0.0
  0
LINE
  5
1B5
330
1F
100
AcDbEntity
  8
MTO-620-410
  6
Continuous
 62
    18
420
        0
 48
100.0000007629395
370
    25
100
AcDbLine
 10
37658.31638548485
 20
1403.640707894237
 30
0.0
 11
37656.91638539545
 21
1403.640707894237
 31
0.0
  0
LINE
  5
1B6
330
1F
100
AcDbEntity
  8
MTO-620-410
  6
Continuous
 62
    18
420
        0
 48
100.0000007629395
370
    25
100
AcDbLine
 10
37655.51638530604
 20
1403.640707894237
 30
0.0
 11
37656.91638539545
 21
1403.640707894237
 31
0.0
  0
LINE
  5
1B7
330
1F
100
AcDbEntity
  8
MTO-620-410
  6
Continuous
 62
    18
420
        0
 48
100.0000007629395
370
    25
100
AcDbLine
 10
37655.51638530604
 20
1365.640707894243
 30
0.0
 11
37656.91638539545
 21
1365.640707894243
 31
0.0
  0
LINE
  5
1B8
330
1F
100
AcDbEntity
  8
MTO-620-410
  6
Continuous
 62
    18
420
        0
 48
100.0000007629395
370
    25
100
AcDbLine
 10
37658.31638548485
 20
1365.640707894243
 30
0.0
 11
37656.91638539545
 21
1365.640707894243
 31
0.0
  0
LINE
  5
1B9
330
1F
100
AcDbEntity
  8
MTO-620-410
  6
Continuous
 62
    18
420
        0
 48
50.00000038146973
370
    25
100
AcDbLine
 10
38539.63840368122
 20
1215.472141633594
 30
0.0
 11
38539.63840368122
 21
3215.472156892383
 31
0.0
  0
LINE
  5
1BA
330
1F
100
AcDbEntity
  8
MTO-620-410
  6
Continuous
 62
    18
420
        0
 48
50.00000038146973
370
    25
100
AcDbLine
 10
38539.63840368122
 20
3215.472156892383
 30
0.0
 11
35669.63839147419
 21
3215.472156892383
 31
0.0
  0
LINE
  5
1BB
330
1F
100
AcDbEntity
  8
MTO-620-410
  6
Continuous
 62
    18
420
        0
 48
50.00000038146973
370
    25
100
AcDbLine
 10
35669.63839147419
 20
3215.472156892383
 30
0.0
 11
35669.63839147419
 21
1215.472141633594
 31
0.0
  0
LINE
  5
1BC
330
1F
100
AcDbEntity
  8
MTO-620-410
  6
Continuous
 62
    18
420
        0
 48
50.00000038146973
370
    25
100
AcDbLine
 10
35669.63839147419
 20
1215.472141633594
 30
0.0
 11
38539.63840368122
 21
1215.472141633594
 31
0.0
  0
LINE
  5
1BD
330
1F
100
AcDbEntity
  8
MTO-620-410
  6
Continuous
 62
    18
420
        0
 48
50.00000038146973
370
    25
100
AcDbLine
 10
35693.63847692341
 20
3045.472068391407
 30
0.0
 11
35693.63847692341
 21
1255.472522245014
 31
0.0
  0
LINE
  5
1BE
330
1F
100
AcDbEntity
  8
MTO-620-410
  6
Continuous
 62
    18
420
        0
 48
50.00000038146973
370
    25
100
AcDbLine
 10
38515.63831823201
 20
1255.472522245014
 30
0.0
 11
38515.63831823201
 21
3045.472068391407
 31
0.0
  0
LINE
  5
1BF
330
1F
100
AcDbEntity
  8
MTO-620-410
  6
Continuous
 62
    18
420
        0
 48
50.00000038146973
370
    25
100
AcDbLine
 10
35693.63847692341
 20
1255.472522245014
 30
0.0
 11
38515.63831823201
 21
1255.472522245014
 31
0.0
  0
LINE
  5
1C0
330
1F
100
AcDbEntity
  8
MTO-620-410
  6
Continuous
 62
    18
420
        0
 48
50.00000038146973
370
    25
100
AcDbLine
 10
38515.63831823201
 20
3045.472068391407
 30
0.0
 11
35693.63847692341
 21
3045.472068391407
 31
0.0
  0
LINE
  5
1C1
330
1F
100
AcDbEntity
  8
MTO-620-410
  6
Continuous
 62
    18
420
        0
 48
755.9999786376953
370
    25
100
AcDbLine
 10
38515.63831823201
 20
1255.472522245014
 30
0.0
 11
38515.63831823201
 21
1700.972522245013
 31
0.0
  0
LINE
  5
1C2
330
1F
100
AcDbEntity
  8
MTO-620-410
  6
Continuous
 62
    18
420
        0
 48
755.9999786376953
370
    25
100
AcDbLine
 10
37767.638318232
 20
1255.472522245014
 30
0.0
 11
37767.638318232
 21
1480.972522245011
 31
0.0
  0
LINE
  5
1C3
330
1F
100
AcDbEntity
  8
MTO-620-410
  6
Continuous
 62
    18
420
        0
 48
50.00000038146973
370
    25
100
AcDbLine
 10
37767.638318232
 20
1480.972522245011
 30
0.0
 11
38515.63831823201
 21
1480.972522245011
 31
0.0
  0
LINE
  5
1C4
330
1F
100
AcDbEntity
  8
MTO-620-410
  6
Continuous
 62
    18
420
        0
 48
134.9999961853027
370
    25
100
AcDbLine
 10
37898.66000891961
 20
1421.18995574155
 30
0.0
 11
37957.91100526042
 21
1421.193791658328
 31
0.0
  0
LINE
  5
1C5
330
1F
100
AcDbEntity
  8
MTO-620-410
  6
Continuous
 62
    18
420
        0
 48
134.9999961853027
370
    25
100
AcDbLine
 10
37891.00455002186
 20
1402.675324424431
 30
0.0
 11
37965.56294605115
 21
1402.67756152072
 31
0.0
  0
LINE
  5
1C6
330
1F
100
AcDbEntity
  8
MTO-620-410
  6
Continuous
 62
    18
420
        0
 48
134.9999961853027
370
    25
100
AcDbLine
 10
37963.20589848532
 20
1411.931836921781
 30
0.0
 11
37893.36442299671
 21
1411.934028580086
 31
0.0
  0
LINE
  5
1C7
330
1F
100
AcDbEntity
  8
MTO-620-410
  6
Continuous
 62
    18
420
        0
 48
134.9999961853027
370
    25
100
AcDbLine
 10
37893.36825921408
 20
1384.284786210339
 30
0.0
 11
37963.20504331819
 21
1384.290693820378
 31
0.0
  0
LINE
  5
1C8
330
1F
100
AcDbEntity
  8
MTO-620-410
  6
Continuous
 62
    18
420
        0
 48
134.9999961853027
370
    25
100
AcDbLine
 10
37965.56491578693
 20
1393.551742794094
 30
0.0
 11
37891.00652026376
 21
1393.547160879744
 31
0.0
  0
LINE
  5
1C9
330
1F
100
AcDbEntity
  8
MTO-620-410
  6
Continuous
 62
    18
420
        0
 48
134.9999961853027
370
    25
100
AcDbLine
 10
37957.91414781357
 20
1375.031143861406
 30
0.0
 11
37898.65824784319
 21
1375.031143861406
 31
0.0
  0
LINE
  5
1CA
330
1F
100
AcDbEntity
  8
MTO-620-410
  6
Continuous
 62
    18
420
        0
 48
134.9999961853027
370
    25
100
AcDbLine
 10
37971.44184862998
 20
1374.945600114034
 30
0.0
 11
38008.19388944066
 21
1374.944153478651
 31
0.0
  0
LINE
  5
1CB
330
1F
100
AcDbEntity
  8
MTO-620-410
  6
Continuous
 62
    18
420
        0
 48
134.9999961853027
370
    25
100
AcDbLine
 10
38008.19021145257
 20
1402.84791523663
 30
0.0
 11
37985.19138150458
 21
1402.851051402059
 31
0.0
  0
LINE
  5
1CC
330
1F
100
AcDbEntity
  8
MTO-620-410
  6
Continuous
 62
    18
420
        0
 48
134.9999961853027
370
    25
100
AcDbLine
 10
37984.98231450003
 20
1411.516388405941
 30
0.0
 11
38021.93941952619
 21
1411.518609841949
 31
0.0
  0
LINE
  5
1CD
330
1F
100
AcDbEntity
  8
MTO-620-410
  6
Continuous
 62
    18
420
        0
 48
134.9999961853027
370
    25
100
AcDbLine
 10
38021.93941952619
 20
1411.518609841949
 30
0.0
 11
38021.9418224166
 21
1421.125543567776
 31
0.0
  0
LINE
  5
1CE
330
1F
100
AcDbEntity
  8
MTO-620-410
  6
Continuous
 62
    18
420
        0
 48
134.9999961853027
370
    25
100
AcDbLine
 10
38021.9418224166
 20
1421.125543567776
 30
0.0
 11
37984.98258546158
 21
1421.124600663342
 31
0.0
  0
LINE
  5
1CF
330
1F
100
AcDbEntity
  8
MTO-620-410
  6
Continuous
 62
    18
420
        0
 48
134.9999961853027
370
    25
100
AcDbLine
 10
37984.9862594468
 20
1393.239384284572
 30
0.0
 11
38007.98509238545
 21
1393.222392376047
 31
0.0
  0
LINE
  5
1D0
330
1F
100
AcDbEntity
  8
MTO-620-410
  6
Continuous
 62
    18
420
        0
 48
134.9999961853027
370
    25
100
AcDbLine
 10
38008.1918153081
 20
1384.553644221609
 30
0.0
 11
37971.44212009766
 21
1384.551467553373
 31
0.0
  0
LINE
  5
1D1
330
1F
100
AcDbEntity
  8
MTO-620-410
  6
Continuous
 62
    18
420
        0
 48
134.9999961853027
370
    25
100
AcDbLine
 10
37971.44212009766
 20
1384.551467553373
 30
0.0
 11
37971.44184862998
 21
1374.945600114034
 31
0.0
  0
LINE
  5
1D2
330
1F
100
AcDbEntity
  8
MTO-620-410
  6
Continuous
 62
    18
420
        0
 48
134.9999961853027
370
    25
100
AcDbLine
 10
38048.47999335035
 20
1374.962228188201
 30
0.0
 11
38078.52564106634
 21
1374.960613022644
 31
0.0
  0
LINE
  5
1D3
330
1F
100
AcDbEntity
  8
MTO-620-410
  6
Continuous
 62
    18
420
        0
 48
134.9999961853027
370
    25
100
AcDbLine
 10
38078.52564106634
 20
1374.960613022644
 30
0.0
 11
38078.52591179784
 21
1384.569891106426
 31
0.0
  0
LINE
  5
1D4
330
1F
100
AcDbEntity
  8
MTO-620-410
  6
Continuous
 62
    18
420
        0
 48
134.9999961853027
370
    25
100
AcDbLine
 10
38078.52591179784
 20
1384.569891106426
 30
0.0
 11
38048.47791976992
 21
1384.569160947809
 31
0.0
  0
LINE
  5
1D5
330
1F
100
AcDbEntity
  8
MTO-620-410
  6
Continuous
 62
    18
420
        0
 48
134.9999961853027
370
    25
100
AcDbLine
 10
38037.3494328154
 20
1393.364516725225
 30
0.0
 11
38078.52635791962
 21
1393.366583149571
 31
0.0
  0
LINE
  5
1D6
330
1F
100
AcDbEntity
  8
MTO-620-410
  6
Continuous
 62
    18
420
        0
 48
134.9999961853027
370
    25
100
AcDbLine
 10
38078.52635791962
 20
1393.366583149571
 30
0.0
 11
38078.52428484528
 21
1402.971171091129
 31
0.0
  0
LINE
  5
1D7
330
1F
100
AcDbEntity
  8
MTO-620-410
  6
Continuous
 62
    18
420
        0
 48
134.9999961853027
370
    25
100
AcDbLine
 10
38078.52428484528
 20
1402.971171091129
 30
0.0
 11
38037.34970451312
 21
1402.969318338171
 31
0.0
  0
LINE
  5
1D8
330
1F
100
AcDbEntity
  8
MTO-620-410
  6
Continuous
 62
    18
420
        0
 48
134.9999961853027
370
    25
100
AcDbLine
 10
38048.47418044968
 20
1411.769477241591
 30
0.0
 11
38078.52707504896
 21
1411.77127428483
 31
0.0
  0
LINE
  5
1D9
330
1F
100
AcDbEntity
  8
MTO-620-410
  6
Continuous
 62
    18
420
        0
 48
134.9999961853027
370
    25
100
AcDbLine
 10
38078.52707504896
 20
1411.77127428483
 30
0.0
 11
38078.52713335134
 21
1421.377141678163
 31
0.0
  0
LINE
  5
1DA
330
1F
100
AcDbEntity
  8
MTO-620-410
  6
Continuous
 62
    18
420
        0
 48
134.9999961853027
370
    25
100
AcDbLine
 10
38078.52713335134
 20
1421.377141678163
 30
0.0
 11
38048.47892788208
 21
1421.377690465198
 31
0.0
  0
LINE
  5
1DB
330
1F
100
AcDbEntity
  8
MTO-620-410
  6
Continuous
 62
    18
420
        0
 48
134.9999961853027
370
    25
100
AcDbLine
 10
38085.44604041384
 20
1375.014971727572
 30
0.0
 11
38095.65623114091
 21
1375.016109690034
 31
0.0
  0
LINE
  5
1DC
330
1F
100
AcDbEntity
  8
MTO-620-410
  6
Continuous
 62
    18
420
        0
 48
134.9999961853027
370
    25
100
AcDbLine
 10
38095.65623114091
 20
1375.016109690034
 30
0.0
 11
38095.65751232343
 21
1411.547098061168
 31
0.0
  0
LINE
  5
1DD
330
1F
100
AcDbEntity
  8
MTO-620-410
  6
Continuous
 62
    18
420
        0
 48
134.9999961853027
370
    25
100
AcDbLine
 10
38095.65751232343
 20
1411.547098061168
 30
0.0
 11
38120.5582026078
 21
1411.545651388974
 31
0.0
  0
LINE
  5
1DE
330
1F
100
AcDbEntity
  8
MTO-620-410
  6
Continuous
 62
    18
420
        0
 48
134.9999961853027
370
    25
100
AcDbLine
 10
38120.76726915225
 20
1402.882446037877
 30
0.0
 11
38098.59466957109
 21
1402.877660257647
 31
0.0
  0
LINE
  5
1DF
330
1F
100
AcDbEntity
  8
MTO-620-410
  6
Continuous
 62
    18
420
        0
 48
134.9999961853027
370
    25
100
AcDbLine
 10
38098.59466957109
 20
1402.877660257647
 30
0.0
 11
38098.5946209308
 21
1393.227028155893
 31
0.0
  0
LINE
  5
1E0
330
1F
100
AcDbEntity
  8
MTO-620-410
  6
Continuous
 62
    18
420
        0
 48
134.9999961853027
370
    25
100
AcDbLine
 10
38098.5946209308
 20
1393.227028155893
 30
0.0
 11
38110.87443362035
 21
1393.227333838149
 31
0.0
  0
LINE
  5
1E1
330
1F
100
AcDbEntity
  8
MTO-620-410
  6
Continuous
 62
    18
420
        0
 48
134.9999961853027
370
    25
100
AcDbLine
 10
38110.87443362035
 20
1393.227333838149
 30
0.0
 11
38123.38157457323
 21
1375.01505953159
 31
0.0
  0
LINE
  5
1E2
330
1F
100
AcDbEntity
  8
MTO-620-410
  6
Continuous
 62
    18
420
        0
 48
134.9999961853027
370
    25
100
AcDbLine
 10
38123.38157457323
 20
1375.01505953159
 30
0.0
 11
38135.88926016304
 21
1375.019038208315
 31
0.0
  0
LINE
  5
1E3
330
1F
100
AcDbEntity
  8
MTO-620-410
  6
Continuous
 62
    18
420
        0
 48
134.9999961853027
370
    25
100
AcDbLine
 10
38135.88926016304
 20
1375.019038208315
 30
0.0
 11
38123.06682245813
 21
1393.348485369061
 31
0.0
  0
LINE
  5
1E4
330
1F
100
AcDbEntity
  8
MTO-620-410
  6
Continuous
 62
    18
420
        0
 48
134.9999961853027
370
    25
100
AcDbLine
 10
38120.76545682448
 20
1421.154974148516
 30
0.0
 11
38085.44759255791
 21
1421.154172356096
 31
0.0
  0
LINE
  5
1E5
330
1F
100
AcDbEntity
  8
MTO-620-410
  6
Continuous
 62
    18
420
        0
 48
134.9999961853027
370
    25
100
AcDbLine
 10
38085.44759255791
 20
1421.154172356096
 30
0.0
 11
38085.44604041384
 21
1375.014971727572
 31
0.0
  0
LINE
  5
1E6
330
1F
100
AcDbEntity
  8
MTO-620-410
  6
Continuous
 62
    18
420
        0
 48
134.9999961853027
370
    25
100
AcDbLine
 10
37826.51481790669
 20
1374.952262182135
 30
0.0
 11
37826.51065341612
 21
1414.985981393044
 31
0.0
  0
LINE
  5
1E7
330
1F
100
AcDbEntity
  8
MTO-620-410
  6
Continuous
 62
    18
420
        0
 48
134.9999961853027
370
    25
100
AcDbLine
 10
37838.73908550021
 20
1417.985085259166
 30
0.0
 11
37855.1320777726
 21
1390.600507837121
 31
0.0
  0
LINE
  5
1E8
330
1F
100
AcDbEntity
  8
MTO-620-410
  6
Continuous
 62
    18
420
        0
 48
134.9999961853027
370
    25
100
AcDbLine
 10
37855.1320777726
 20
1390.600507837121
 30
0.0
 11
37871.52220148928
 21
1417.985126780935
 31
0.0
  0
LINE
  5
1E9
330
1F
100
AcDbEntity
  8
MTO-620-410
  6
Continuous
 62
    18
420
        0
 48
134.9999961853027
370
    25
100
AcDbLine
 10
37883.74745131892
 20
1414.988103569293
 30
0.0
 11
37883.7516158555
 21
1374.954171193107
 31
0.0
  0
LINE
  5
1EA
330
1F
100
AcDbEntity
  8
MTO-620-410
  6
Continuous
 62
    18
420
        0
 48
134.9999961853027
370
    25
100
AcDbLine
 10
37883.7516158555
 20
1374.954171193107
 30
0.0
 11
37873.73476575973
 21
1374.954353953415
 31
0.0
  0
LINE
  5
1EB
330
1F
100
AcDbEntity
  8
MTO-620-410
  6
Continuous
 62
    18
420
        0
 48
134.9999961853027
370
    25
100
AcDbLine
 10
37873.73476575973
 20
1374.954353953415
 30
0.0
 11
37873.73362840843
 21
1401.950884793326
 31
0.0
  0
LINE
  5
1EC
330
1F
100
AcDbEntity
  8
MTO-620-410
  6
Continuous
 62
    18
420
        0
 48
134.9999961853027
370
    25
100
AcDbLine
 10
37873.73362840843
 20
1401.950884793326
 30
0.0
 11
37860.35337997427
 21
1379.590368688267
 31
0.0
  0
LINE
  5
1ED
330
1F
100
AcDbEntity
  8
MTO-620-410
  6
Continuous
 62
    18
420
        0
 48
134.9999961853027
370
    25
100
AcDbLine
 10
37849.91083955402
 20
1379.587048922076
 30
0.0
 11
37836.530317992
 21
1401.946265397659
 31
0.0
  0
LINE
  5
1EE
330
1F
100
AcDbEntity
  8
MTO-620-410
  6
Continuous
 62
    18
420
        0
 48
134.9999961853027
370
    25
100
AcDbLine
 10
37836.530317992
 20
1401.946265397659
 30
0.0
 11
37836.52932341446
 21
1374.951013089322
 31
0.0
  0
LINE
  5
1EF
330
1F
100
AcDbEntity
  8
MTO-620-410
  6
Continuous
 62
    18
420
        0
 48
134.9999961853027
370
    25
100
AcDbLine
 10
37836.52932341446
 20
1374.951013089322
 30
0.0
 11
37826.51481790669
 21
1374.952262182135
 31
0.0
  0
LINE
  5
1F0
330
1F
100
AcDbEntity
  8
MTO-620-410
  6
Continuous
 62
    18
420
        0
 48
50.00000038146973
370
    25
100
AcDbLine
 10
37767.638318232
 20
1255.472522245014
 30
0.0
 11
38515.63831823201
 21
1255.472522245014
 31
0.0
  0
ARC
  5
1F1
330
1F
100
AcDbEntity
  8
MTO-620-410
  6
Continuous
 62
   250
420
   986895
 48
0.9999999962747097
370
    25
100
AcDbCircle
 10
36654.61616553536
 20
2368.325475026855
 30
0.0
 40
462.4985038232824
100
AcDbArc
 50
277.328739809962
 51
305.754175152774
  0
ARC
  5
1F2
330
1F
100
AcDbEntity
  8
MTO-620-410
  6
Continuous
 62
   250
420
   986895
 48
0.9999999962747097
370
    25
100
AcDbCircle
 10
36964.61345160977
 20
1937.825364968465
 30
0.0
 40
67.99999970005302
100
AcDbArc
 50
90.00006709407509
 51
125.7573912755271
  0
ARC
  5
1F3
330
1F
100
AcDbEntity
  8
MTO-620-410
  6
DASHED1
 62
   250
420
   986895
 48
15.00000041723251
370
    25
100
AcDbCircle
 10
36964.60707184491
 20
1937.825381178609
 30
0.0
 40
79.99998352778057
100
AcDbArc
 50
90.0017638831359
 51
121.7713947430828
  0
ARC
  5
1F4
330
1F
100
AcDbEntity
  8
MTO-620-410
  6
Continuous
 62
   250
420
   986895
 48
0.9999999962747097
370
    25
100
AcDbCircle
 10
36654.59458457059
 20
2368.325475026855
 30
0.0
 40
462.4985038232813
100
AcDbArc
 50
234.2458248472265
 51
262.6732799437445
  0
ARC
  5
1F5
330
1F
100
AcDbEntity
  8
MTO-620-410
  6
Continuous
 62
   250
420
   986895
 48
0.9999999962747097
370
    25
100
AcDbCircle
 10
36344.59729849619
 20
1937.825364968465
 30
0.0
 40
67.99999970005304
100
AcDbArc
 50
54.24260872447294
 51
89.99993290592492
  0
ARC
  5
1F6
330
1F
100
AcDbEntity
  8
MTO-620-410
  6
DASHED1
 62
   250
420
   986895
 48
15.00000041723251
370
    25
100
AcDbCircle
 10
36344.60367826105
 20
1937.825381178609
 30
0.0
 40
79.99998352778057
100
AcDbArc
 50
58.22860525691721
 51
89.9982361168641
  0
ARC
  5
1F7
330
1F
100
AcDbEntity
  8
MTO-620-410
  6
Continuous
 62
   250
420
   986895
 48
0.9999999962747097
370
    25
100
AcDbCircle
 10
36613.61346032428
 20
1917.685616949168
 30
0.0
 40
1.999999999999805
100
AcDbArc
 50
0.0
 51
84.80327504014436
  0
ARC
  5
1F8
330
1F
100
AcDbEntity
  8
MTO-620-410
  6
Continuous
 62
    18
420
        0
 48
50.00000038146973
370
    25
100
AcDbCircle
 10
36621.61346032428
 20
1917.325725880104
 30
0.0
 40
1.999999999999613
100
AcDbArc
 50
90.0
 51
180.0000000000103
  0
ARC
  5
1F9
330
1F
100
AcDbEntity
  8
MTO-620-410
  6
Continuous
 62
   250
420
   986895
 48
0.9999999962747097
370
    25
100
AcDbCircle
 10
36695.61346032429
 20
1917.687087944405
 30
0.0
 40
2.000000000000525
100
AcDbArc
 50
95.1987810194126
 51
179.9999999999897
  0
ARC
  5
1FA
330
1F
100
AcDbEntity
  8
MTO-620-410
  6
Continuous
 62
    18
420
        0
 48
50.00000038146973
370
    25
100
AcDbCircle
 10
36687.61346032429
 20
1917.325725880104
 30
0.0
 40
1.999999999999613
100
AcDbArc
 50
359.9999999999897
 51
90.0
  0
ARC
  5
1FB
330
1F
100
AcDbEntity
  8
MTO-620-410
  6
DASHED1
 62
   250
420
   986895
 48
15.00000041723251
370
    25
100
AcDbCircle
 10
36654.61346032428
 20
830.575791251904
 30
0.0
 40
1089.249934658206
100
AcDbArc
 50
88.263896996332
 51
91.736103003668
  0
ARC
  5
1FC
330
1F
100
AcDbEntity
  8
MTO-620-410
  6
DASHED1
 62
    18
420
        0
 48
15.00000041723251
370
    25
100
AcDbCircle
 10
36688.61346032429
 20
1902.825725880098
 30
0.0
 40
4.999999999999405
100
AcDbArc
 50
270.0
 51
0.0000000000082949
  0
ARC
  5
1FD
330
1F
100
AcDbEntity
  8
MTO-620-410
  6
DASHED1
 62
    18
420
        0
 48
15.00000041723251
370
    25
100
AcDbCircle
 10
36620.61346032428
 20
1902.825725880098
 30
0.0
 40
4.999999999999405
100
AcDbArc
 50
179.9999999999917
 51
270.0
  0
ARC
  5
1FE
330
1F
100
AcDbEntity
  8
MTO-620-410
  6
DASHED1
 62
    18
420
        0
 48
15.00000041723251
370
    25
100
AcDbCircle
 10
37094.48329834676
 20
2467.825364798236
 30
0.0
 40
210.1292747089897
100
AcDbArc
 50
307.9905626360194
 51
349.0788805436753
  0
ARC
  5
1FF
330
1F
100
AcDbEntity
  8
MTO-620-410
  6
DASHED1
 62
    18
420
        0
 48
15.00000041723251
370
    25
100
AcDbCircle
 10
37094.48329834676
 20
2467.825364798241
 30
0.0
 40
210.1292747089884
100
AcDbArc
 50
10.92111940555345
 51
52.00180792921358
  0
ARC
  5
200
330
1F
100
AcDbEntity
  8
MTO-620-410
  6
DASHED1
 62
    18
420
        0
 48
15.00000041723251
370
    25
100
AcDbCircle
 10
37254.61346104056
 20
2672.826753619112
 30
0.0
 40
50.00000071659893
100
AcDbArc
 50
180.0002083901745
 51
232.0235334624521
  0
ARC
  5
201
330
1F
100
AcDbEntity
  8
MTO-620-410
  6
DASHED1
 62
    18
420
        0
 48
15.00000041723251
370
    25
100
AcDbCircle
 10
37254.61346210661
 20
2262.823974292926
 30
0.0
 40
50.00000178257204
100
AcDbArc
 50
128.0085296635772
 51
179.9998218531231
  0
ARC
  5
202
330
1F
100
AcDbEntity
  8
MTO-620-410
  6
Continuous
 62
   250
420
   986895
 48
0.9999999962747097
370
    25
100
AcDbCircle
 10
37254.6134603243
 20
2262.823698612906
 30
0.0
 40
38.00000000001964
100
AcDbArc
 50
127.9885718863289
 51
179.9999998579335
  0
ARC
  5
203
330
1F
100
AcDbEntity
  8
MTO-620-410
  6
Continuous
 62
   250
420
   986895
 48
0.9999999962747097
370
    25
100
AcDbCircle
 10
37094.48000214549
 20
2467.825390971703
 30
0.0
 40
222.1315422182132
100
AcDbArc
 50
14.92921378208109
 51
51.99967488180476
  0
ARC
  5
204
330
1F
100
AcDbEntity
  8
MTO-620-410
  6
Continuous
 62
   250
420
   986895
 48
0.9999999962747097
370
    25
100
AcDbCircle
 10
37094.48000214549
 20
2467.825390971709
 30
0.0
 40
222.131542218213
100
AcDbArc
 50
307.9989503771981
 51
345.070786217919
  0
ARC
  5
205
330
1F
100
AcDbEntity
  8
MTO-620-410
  6
Continuous
 62
   250
420
   986895
 48
0.9999999962747097
370
    25
100
AcDbCircle
 10
37254.61346032443
 20
2672.827082708996
 30
0.0
 40
38.00000000014601
100
AcDbArc
 50
180.0000000006542
 51
232.011004839106
  0
ARC
  5
206
330
1F
100
AcDbEntity
  8
MTO-620-410
  6
DASHED1
 62
    18
420
        0
 48
15.00000041723251
370
    25
100
AcDbCircle
 10
37301.7887991095
 20
2507.825364706388
 30
0.0
 40
0.9999999999976661
100
AcDbArc
 50
190.9211194055119
 51
270.0
  0
ARC
  5
207
330
1F
100
AcDbEntity
  8
MTO-620-410
  6
Continuous
 62
    18
420
        0
 48
50.00000038146973
370
    25
100
AcDbCircle
 10
37305.11346032429
 20
2500.825364706385
 30
0.0
 40
1.999999999999545
100
AcDbArc
 50
90.0
 51
180.0
  0
ARC
  5
208
330
1F
100
AcDbEntity
  8
MTO-620-410
  6
Continuous
 62
    18
420
        0
 48
50.00000038146973
370
    25
100
AcDbCircle
 10
37305.11346032429
 20
2434.825364706388
 30
0.0
 40
1.999999999999545
100
AcDbArc
 50
180.0
 51
270.0
  0
ARC
  5
209
330
1F
100
AcDbEntity
  8
MTO-620-410
  6
DASHED1
 62
   250
420
   986895
 48
15.00000041723251
370
    25
100
AcDbCircle
 10
38391.86339495258
 20
2467.825364706388
 30
0.0
 40
1089.249934658297
100
AcDbArc
 50
178.263896996332
 51
181.736103003668
  0
ARC
  5
20A
330
1F
100
AcDbEntity
  8
MTO-620-410
  6
DASHED1
 62
    18
420
        0
 48
15.00000041723251
370
    25
100
AcDbCircle
 10
37319.61346032429
 20
2433.825364706383
 30
0.0
 40
4.999999999999224
100
AcDbArc
 50
270.0
 51
0.0000000000041729
  0
ARC
  5
20B
330
1F
100
AcDbEntity
  8
MTO-620-410
  6
DASHED1
 62
    18
420
        0
 48
15.00000041723251
370
    25
100
AcDbCircle
 10
37319.61346032429
 20
2501.825364706379
 30
0.0
 40
4.999999999999224
100
AcDbArc
 50
359.9999999999959
 51
90.0
  0
ARC
  5
20C
330
1F
100
AcDbEntity
  8
MTO-620-410
  6
DASHED1
 62
    18
420
        0
 48
15.00000041723251
370
    25
100
AcDbCircle
 10
37301.78879907406
 20
2427.825364706384
 30
0.0
 40
0.9999999999999392
100
AcDbArc
 50
89.99999999966911
 51
169.0788805433857
  0
ARC
  5
20D
330
1F
100
AcDbEntity
  8
MTO-620-410
  6
Continuous
 62
   250
420
   986895
 48
30.00000083446503
370
    25
100
AcDbCircle
 10
36082.49685097758
 20
1450.468865736367
 30
0.0
 40
5.999999999995813
100
AcDbArc
 50
94.52592625980786
 51
135.0
  0
ARC
  5
20E
330
1F
100
AcDbEntity
  8
MTO-620-410
  6
Continuous
 62
   250
420
   986895
 48
30.00000083446503
370
    25
100
AcDbCircle
 10
35939.36230867764
 20
1450.466086394219
 30
0.0
 40
6.000000000003936
100
AcDbArc
 50
45.0
 51
85.47629934644826
  0
ARC
  5
20F
330
1F
100
AcDbEntity
  8
MTO-620-410
  6
Continuous
 62
    18
420
        0
 48
100.0000007629395
370
    25
100
AcDbCircle
 10
36010.92819015651
 20
949.2604862896833
 30
0.0
 40
530.1249999998774
100
AcDbArc
 50
82.95709324615424
 51
97.04290675384577
  0
ARC
  5
210
330
1F
100
AcDbEntity
  8
MTO-620-410
  6
Continuous
 62
    18
420
        0
 48
30.00000083446503
370
    25
100
AcDbCircle
 10
36430.79779121275
 20
1419.640707894256
 30
0.0
 40
9.99999999999845
100
AcDbArc
 50
179.9999999999876
 51
270.0
  0
ARC
  5
211
330
1F
100
AcDbEntity
  8
MTO-620-410
  6
Continuous
 62
    18
420
        0
 48
30.00000083446503
370
    25
100
AcDbCircle
 10
36566.79779121278
 20
1419.640707894256
 30
0.0
 40
9.999999999998447
100
AcDbArc
 50
270.0
 51
0.0000000000124169
  0
ARC
  5
212
330
1F
100
AcDbEntity
  8
MTO-620-410
  6
Continuous
 62
    18
420
        0
 48
30.00000083446503
370
    25
100
AcDbCircle
 10
36918.66739226899
 20
1409.640707894224
 30
0.0
 40
9.999999999997545
100
AcDbArc
 50
180.0000000000011
 51
270.0
  0
ARC
  5
213
330
1F
100
AcDbEntity
  8
MTO-620-410
  6
Continuous
 62
    18
420
        0
 48
30.00000083446503
370
    25
100
AcDbCircle
 10
37054.667392269
 20
1409.640707894224
 30
0.0
 40
9.999999999997545
100
AcDbArc
 50
270.0
 51
359.999999999999
  0
ARC
  5
214
330
1F
100
AcDbEntity
  8
MTO-620-410
  6
Continuous
 62
   250
420
   986895
 48
30.00000083446503
370
    25
100
AcDbCircle
 10
36010.92819015651
 20
2354.604175792825
 30
0.0
 40
900.9634678985719
100
AcDbArc
 50
274.5259262597905
 51
282.8256239106193
  0
ARC
  5
215
330
1F
100
AcDbEntity
  8
MTO-620-410
  6
Continuous
 62
   250
420
   986895
 48
1.999999992549419
370
    25
100
AcDbCircle
 10
36010.93360057873
 20
2354.640206187767
 30
0.0
 40
924.9970076465684
100
AcDbArc
 50
276.517578075469
 51
282.4865876116818
  0
ARC
  5
216
330
1F
100
AcDbEntity
  8
MTO-620-410
  6
Continuous
 62
   250
420
   986895
 48
30.00000083446503
370
    25
100
AcDbCircle
 10
36010.89584907135
 20
2354.604175792801
 30
0.0
 40
900.963467898566
100
AcDbArc
 50
257.1764854034744
 51
265.4762993464273
  0
ARC
  5
217
330
1F
100
AcDbEntity
  8
MTO-620-410
  6
Continuous
 62
   250
420
   986895
 48
1.999999992549419
370
    25
100
AcDbCircle
 10
36010.89043864913
 20
2354.640206187744
 30
0.0
 40
924.9970076465598
100
AcDbArc
 50
257.5154641699237
 51
263.4844382096295
  0
ARC
  5
218
330
1F
100
AcDbEntity
  8
MTO-620-410
  6
Continuous
 62
   250
420
   986895
 48
30.00000083446503
370
    25
100
AcDbCircle
 10
36498.79779121276
 20
2354.604175792825
 30
0.0
 40
900.9634678985705
100
AcDbArc
 50
275.198781019442
 51
282.8256239106197
  0
ARC
  5
219
330
1F
100
AcDbEntity
  8
MTO-620-410
  6
Continuous
 62
   250
420
   986895
 48
1.999999992549419
370
    25
100
AcDbCircle
 10
36498.80320163498
 20
2354.640206187767
 30
0.0
 40
924.9970076465684
100
AcDbArc
 50
276.517578075469
 51
282.4865876116818
  0
ARC
  5
21A
330
1F
100
AcDbEntity
  8
MTO-620-410
  6
Continuous
 62
   250
420
   986895
 48
30.00000083446503
370
    25
100
AcDbCircle
 10
36498.76545012756
 20
2354.604175792801
 30
0.0
 40
900.9634678985651
100
AcDbArc
 50
257.1764854034744
 51
264.8032750401348
  0
ARC
  5
21B
330
1F
100
AcDbEntity
  8
MTO-620-410
  6
Continuous
 62
   250
420
   986895
 48
1.999999992549419
370
    25
100
AcDbCircle
 10
36498.76003970539
 20
2354.640206187767
 30
0.0
 40
924.9970076465598
100
AcDbArc
 50
257.5154641699237
 51
263.4844382096295
  0
ARC
  5
21C
330
1F
100
AcDbEntity
  8
MTO-620-410
  6
Continuous
 62
   250
420
   986895
 48
1.999999992549419
370
    25
100
AcDbCircle
 10
36416.79779121275
 20
1453.360490032394
 30
0.0
 40
3.999999999999415
100
AcDbArc
 50
359.9999999999949
 51
84.80327504014411
  0
ARC
  5
21D
330
1F
100
AcDbEntity
  8
MTO-620-410
  6
Continuous
 62
    18
420
        0
 48
100.0000007629395
370
    25
100
AcDbCircle
 10
36432.79779121275
 20
1452.640707894244
 30
0.0
 40
3.999999999999542
100
AcDbArc
 50
90.0
 51
180.0000000000078
  0
ARC
  5
21E
330
1F
100
AcDbEntity
  8
MTO-620-410
  6
Continuous
 62
   250
420
   986895
 48
1.999999992549419
370
    25
100
AcDbCircle
 10
36580.79779121278
 20
1453.363432022871
 30
0.0
 40
3.999999999999721
100
AcDbArc
 50
95.19878101941426
 51
180.0000000000078
  0
ARC
  5
21F
330
1F
100
AcDbEntity
  8
MTO-620-410
  6
Continuous
 62
    18
420
        0
 48
100.0000007629395
370
    25
100
AcDbCircle
 10
36564.79779121278
 20
1452.640707894244
 30
0.0
 40
3.999999999999542
100
AcDbArc
 50
359.9999999999923
 51
90.0
  0
ARC
  5
220
330
1F
100
AcDbEntity
  8
MTO-620-410
  6
Continuous
 62
   250
420
   986895
 48
30.00000083446503
370
    25
100
AcDbCircle
 10
36498.79779121276
 20
-720.8591613623255
 30
0.0
 40
2178.499869316603
100
AcDbArc
 50
88.263896996332
 51
91.736103003668
  0
ARC
  5
221
330
1F
100
AcDbEntity
  8
MTO-620-410
  6
Continuous
 62
   250
420
   986895
 48
30.00000083446503
370
    25
100
AcDbCircle
 10
36986.66739226894
 20
2354.604175792802
 30
0.0
 40
900.9634678985722
100
AcDbArc
 50
275.1987810194427
 51
282.8256239106204
  0
ARC
  5
222
330
1F
100
AcDbEntity
  8
MTO-620-410
  6
Continuous
 62
   250
420
   986895
 48
1.999999992549419
370
    25
100
AcDbCircle
 10
36986.67280269117
 20
2354.640206187744
 30
0.0
 40
924.9970076465684
100
AcDbArc
 50
276.517578075469
 51
282.4865876116818
  0
ARC
  5
223
330
1F
100
AcDbEntity
  8
MTO-620-410
  6
Continuous
 62
   250
420
   986895
 48
30.00000083446503
370
    25
100
AcDbCircle
 10
36986.63505118379
 20
2354.604175792801
 30
0.0
 40
900.9634678985651
100
AcDbArc
 50
257.1764854034744
 51
264.8032750401348
  0
ARC
  5
224
330
1F
100
AcDbEntity
  8
MTO-620-410
  6
Continuous
 62
   250
420
   986895
 48
1.999999992549419
370
    25
100
AcDbCircle
 10
36986.62964076157
 20
2354.640206187744
 30
0.0
 40
924.9970076465598
100
AcDbArc
 50
257.5154641699237
 51
263.4844382096295
  0
ARC
  5
225
330
1F
100
AcDbEntity
  8
MTO-620-410
  6
Continuous
 62
   250
420
   986895
 48
1.999999992549419
370
    25
100
AcDbCircle
 10
36904.66739226898
 20
1453.360490032371
 30
0.0
 40
3.999999999999775
100
AcDbArc
 50
359.9999999999794
 51
84.80327504014463
  0
ARC
  5
226
330
1F
100
AcDbEntity
  8
MTO-620-410
  6
Continuous
 62
    18
420
        0
 48
100.0000007629395
370
    25
100
AcDbCircle
 10
36920.66739226897
 20
1452.640707894244
 30
0.0
 40
3.999999999999541
100
AcDbArc
 50
90.0
 51
180.0000000000181
  0
ARC
  5
227
330
1F
100
AcDbEntity
  8
MTO-620-410
  6
Continuous
 62
   250
420
   986895
 48
1.999999992549419
370
    25
100
AcDbCircle
 10
37068.66739226897
 20
1453.363432022848
 30
0.0
 40
3.999999999999685
100
AcDbArc
 50
95.1987810194145
 51
180.0
  0
ARC
  5
228
330
1F
100
AcDbEntity
  8
MTO-620-410
  6
Continuous
 62
    18
420
        0
 48
100.0000007629395
370
    25
100
AcDbCircle
 10
37052.66739226897
 20
1452.640707894244
 30
0.0
 40
3.999999999999543
100
AcDbArc
 50
359.9999999999845
 51
90.0
  0
ARC
  5
229
330
1F
100
AcDbEntity
  8
MTO-620-410
  6
Continuous
 62
   250
420
   986895
 48
30.00000083446503
370
    25
100
AcDbCircle
 10
36986.667392269
 20
-720.8591613623487
 30
0.0
 40
2178.499869316603
100
AcDbArc
 50
88.263896996332
 51
91.736103003668
  0
ARC
  5
22A
330
1F
100
AcDbEntity
  8
MTO-620-410
  6
Continuous
 62
    18
420
        0
 48
30.00000083446503
370
    25
100
AcDbCircle
 10
37406.53699332522
 20
1395.640707894224
 30
0.0
 40
9.999999999997726
100
AcDbArc
 50
180.0
 51
270.0
  0
ARC
  5
22B
330
1F
100
AcDbEntity
  8
MTO-620-410
  6
Continuous
 62
    18
420
        0
 48
30.00000083446503
370
    25
100
AcDbCircle
 10
37542.53699332523
 20
1395.640707894224
 30
0.0
 40
9.999999999997726
100
AcDbArc
 50
270.0
 51
0.0
  0
ARC
  5
22C
330
1F
100
AcDbEntity
  8
MTO-620-410
  6
Continuous
 62
   250
420
   986895
 48
30.00000083446503
370
    25
100
AcDbCircle
 10
37474.53699332518
 20
2354.604175792802
 30
0.0
 40
900.9634678985722
100
AcDbArc
 50
275.1987810194427
 51
282.8256239106204
  0
ARC
  5
22D
330
1F
100
AcDbEntity
  8
MTO-620-410
  6
Continuous
 62
   250
420
   986895
 48
1.999999992549419
370
    25
100
AcDbCircle
 10
37474.54240374739
 20
2354.640206187744
 30
0.0
 40
924.9970076465684
100
AcDbArc
 50
276.517578075469
 51
282.4865876116818
  0
ARC
  5
22E
330
1F
100
AcDbEntity
  8
MTO-620-410
  6
Continuous
 62
   250
420
   986895
 48
30.00000083446503
370
    25
100
AcDbCircle
 10
37474.50465224002
 20
2354.604175792801
 30
0.0
 40
900.9634678985651
100
AcDbArc
 50
257.1764854034744
 51
264.8032750401348
  0
ARC
  5
22F
330
1F
100
AcDbEntity
  8
MTO-620-410
  6
Continuous
 62
   250
420
   986895
 48
1.999999992549419
370
    25
100
AcDbCircle
 10
37474.4992418178
 20
2354.640206187744
 30
0.0
 40
924.9970076465598
100
AcDbArc
 50
257.5154641699237
 51
263.4844382096295
  0
ARC
  5
230
330
1F
100
AcDbEntity
  8
MTO-620-410
  6
Continuous
 62
   250
420
   986895
 48
1.999999992549419
370
    25
100
AcDbCircle
 10
37392.53699332521
 20
1453.360490032371
 30
0.0
 40
3.999999999999775
100
AcDbArc
 50
359.9999999999794
 51
84.80327504014463
  0
ARC
  5
231
330
1F
100
AcDbEntity
  8
MTO-620-410
  6
Continuous
 62
    18
420
        0
 48
100.0000007629395
370
    25
100
AcDbCircle
 10
37408.5369933252
 20
1452.640707894244
 30
0.0
 40
3.999999999999541
100
AcDbArc
 50
90.0
 51
180.0000000000181
  0
ARC
  5
232
330
1F
100
AcDbEntity
  8
MTO-620-410
  6
Continuous
 62
   250
420
   986895
 48
1.999999992549419
370
    25
100
AcDbCircle
 10
37556.53699332519
 20
1453.363432022848
 30
0.0
 40
3.999999999999685
100
AcDbArc
 50
95.1987810194145
 51
180.0
  0
ARC
  5
233
330
1F
100
AcDbEntity
  8
MTO-620-410
  6
Continuous
 62
    18
420
        0
 48
100.0000007629395
370
    25
100
AcDbCircle
 10
37540.53699332519
 20
1452.640707894244
 30
0.0
 40
3.999999999999543
100
AcDbArc
 50
359.9999999999845
 51
90.0
  0
ARC
  5
234
330
1F
100
AcDbEntity
  8
MTO-620-410
  6
Continuous
 62
   250
420
   986895
 48
30.00000083446503
370
    25
100
AcDbCircle
 10
37474.53699332522
 20
-720.8591613623487
 30
0.0
 40
2178.499869316603
100
AcDbArc
 50
88.263896996332
 51
91.736103003668
  0
ARC
  5
235
330
1F
100
AcDbEntity
  8
MTO-620-410
  6
Continuous
 62
    18
420
        0
 48
134.9999961853027
370
    25
100
AcDbCircle
 10
37928.28700121518
 20
1398.113061009097
 30
0.0
 40
37.55398438214829
100
AcDbArc
 50
37.92296160428458
 51
142.0844570672992
  0
ARC
  5
236
330
1F
100
AcDbEntity
  8
MTO-620-410
  6
Continuous
 62
    18
420
        0
 48
134.9999961853027
370
    25
100
AcDbCircle
 10
37928.28143999368
 20
1398.104228624205
 30
0.0
 40
37.55611059183879
100
AcDbArc
 50
158.3926594911996
 51
173.0089805633581
  0
ARC
  5
237
330
1F
100
AcDbEntity
  8
MTO-620-410
  6
Continuous
 62
    18
420
        0
 48
134.9999961853027
370
    25
100
AcDbCircle
 10
37928.30480309022
 20
1398.115284072667
 30
0.0
 40
37.53643020332931
100
AcDbArc
 50
6.981142041195501
 51
21.59749032313828
  0
ARC
  5
238
330
1F
100
AcDbEntity
  8
MTO-620-410
  6
Continuous
 62
    18
420
        0
 48
134.9999961853027
370
    25
100
AcDbCircle
 10
37928.29885735233
 20
1398.123748296148
 30
0.0
 40
37.57211143798229
100
AcDbArc
 50
186.9964645332869
 51
201.6127039760926
  0
ARC
  5
239
330
1F
100
AcDbEntity
  8
MTO-620-410
  6
Continuous
 62
    18
420
        0
 48
134.9999961853027
370
    25
100
AcDbCircle
 10
37928.27888431495
 20
1398.121664212092
 30
0.0
 40
37.5650412577442
100
AcDbArc
 50
338.3961344461837
 51
353.0124555183431
  0
ARC
  5
23A
330
1F
100
AcDbEntity
  8
MTO-620-410
  6
Continuous
 62
    18
420
        0
 48
134.9999961853027
370
    25
100
AcDbCircle
 10
37928.28619782838
 20
1398.111683299517
 30
0.0
 40
37.55697965863395
100
AcDbArc
 50
217.9190317150164
 51
322.0809682849814
  0
ARC
  5
23B
330
1F
100
AcDbEntity
  8
MTO-620-410
  6
Continuous
 62
    18
420
        0
 48
134.9999961853027
370
    25
100
AcDbCircle
 10
38008.5749355045
 20
1388.89608482563
 30
0.0
 40
13.95713381799809
100
AcDbArc
 50
268.4355638780454
 51
91.57954040753705
  0
ARC
  5
23C
330
1F
100
AcDbEntity
  8
MTO-620-410
  6
Continuous
 62
    18
420
        0
 48
134.9999961853027
370
    25
100
AcDbCircle
 10
37985.67303773062
 20
1407.197862796604
 30
0.0
 40
4.373415372430031
100
AcDbArc
 50
99.0871609740975
 51
263.6770323930704
  0
ARC
  5
23D
330
1F
100
AcDbEntity
  8
MTO-620-410
  6
Continuous
 62
    18
420
        0
 48
134.9999961853027
370
    25
100
AcDbCircle
 10
37984.60182745876
 20
1407.18194206558
 30
0.0
 40
13.9478566608041
100
AcDbArc
 50
88.43570681812285
 51
271.5793910633275
  0
ARC
  5
23E
330
1F
100
AcDbEntity
  8
MTO-620-410
  6
Continuous
 62
    18
420
        0
 48
134.9999961853027
370
    25
100
AcDbCircle
 10
38007.50198204562
 20
1388.874032754135
 30
0.0
 40
4.375114513013703
100
AcDbArc
 50
279.0717992649407
 51
83.66033837570173
  0
ARC
  5
23F
330
1F
100
AcDbEntity
  8
MTO-620-410
  6
Continuous
 62
    18
420
        0
 48
134.9999961853027
370
    25
100
AcDbCircle
 10
38049.16009150117
 20
1396.870231481392
 30
0.0
 40
12.31997136940587
100
AcDbArc
 50
196.5322763668865
 51
266.8258399252974
  0
ARC
  5
240
330
1F
100
AcDbEntity
  8
MTO-620-410
  6
Continuous
 62
    18
420
        0
 48
134.9999961853027
370
    25
100
AcDbCircle
 10
38049.1617652484
 20
1399.468858294826
 30
0.0
 40
12.31982140004576
100
AcDbArc
 50
93.19941229080875
 51
163.4930068869709
  0
ARC
  5
241
330
1F
100
AcDbEntity
  8
MTO-620-410
  6
Continuous
 62
    18
420
        0
 48
134.9999961853027
370
    25
100
AcDbCircle
 10
38048.14498963591
 20
1399.763227512874
 30
0.0
 40
21.61704243114226
100
AcDbArc
 50
89.11486442916687
 51
136.5283713875571
  0
ARC
  5
242
330
1F
100
AcDbEntity
  8
MTO-620-410
  6
Continuous
 62
    18
420
        0
 48
134.9999961853027
370
    25
100
AcDbCircle
 10
38049.88980542509
 20
1399.566716562272
 30
0.0
 40
23.04277337332455
100
AcDbArc
 50
139.1595473476369
 51
183.4766818662663
  0
ARC
  5
243
330
1F
100
AcDbEntity
  8
MTO-620-410
  6
Continuous
 62
    18
420
        0
 48
134.9999961853027
370
    25
100
AcDbCircle
 10
38049.89021990124
 20
1396.77228496304
 30
0.0
 40
23.04316873491969
100
AcDbArc
 50
176.5241317976967
 51
220.8411051562291
  0
ARC
  5
244
330
1F
100
AcDbEntity
  8
MTO-620-410
  6
Continuous
 62
    18
420
        0
 48
134.9999961853027
370
    25
100
AcDbCircle
 10
38048.14412609424
 20
1396.576949885213
 30
0.0
 40
21.61733102982749
100
AcDbArc
 50
223.4768675460031
 51
270.8902371222273
  0
ARC
  5
245
330
1F
100
AcDbEntity
  8
MTO-620-410
  6
Continuous
 62
    18
420
        0
 48
134.9999961853027
370
    25
100
AcDbCircle
 10
38120.07653381641
 20
1407.199902074298
 30
0.0
 40
4.372361139090874
100
AcDbArc
 50
279.0895312175839
 51
83.6753359558362
  0
ARC
  5
246
330
1F
100
AcDbEntity
  8
MTO-620-410
  6
Continuous
 62
    18
420
        0
 48
134.9999961853027
370
    25
100
AcDbCircle
 10
38121.29221974526
 20
1405.963764441354
 30
0.0
 40
12.7394851097002
100
AcDbArc
 50
278.007307950625
 51
5.572465930760586
  0
ARC
  5
247
330
1F
100
AcDbEntity
  8
MTO-620-410
  6
Continuous
 62
    18
420
        0
 48
134.9999961853027
370
    25
100
AcDbCircle
 10
38121.29536706872
 20
1408.430378091638
 30
0.0
 40
12.7356252173813
100
AcDbArc
 50
354.4597953776594
 51
92.38467978670954
  0
ARC
  5
248
330
1F
100
AcDbEntity
  8
MTO-620-410
  6
Continuous
 62
    18
420
        0
 48
134.9999961853027
370
    25
100
AcDbCircle
 10
37832.95755447206
 20
1415.129056098466
 30
0.0
 40
6.448488473775077
100
AcDbArc
 50
26.28899618673719
 51
181.2713443682043
  0
ARC
  5
249
330
1F
100
AcDbEntity
  8
MTO-620-410
  6
Continuous
 62
    18
420
        0
 48
134.9999961853027
370
    25
100
AcDbCircle
 10
37877.3023173523
 20
1415.130267245293
 30
0.0
 40
6.446701665065165
100
AcDbArc
 50
358.7364020576921
 51
153.7147532945632
  0
ARC
  5
24A
330
1F
100
AcDbEntity
  8
MTO-620-410
  6
Continuous
 62
    18
420
        0
 48
134.9999961853027
370
    25
100
AcDbCircle
 10
37855.13135493017
 20
1381.96308814131
 30
0.0
 40
5.735794902544429
100
AcDbArc
 50
204.4719426219837
 51
335.5644869397265
  0
ELLIPSE
  5
24B
330
1F
100
AcDbEntity
  8
MTO-620-410
  6
Continuous
 62
     9
420
 12237498
 48
50.00000038146973
370
    25
100
AcDbEllipse
 10
36654.58485816508
 20
2467.825364706387
 30
0.0
 11
310.0000000000003
 21
-1.898980105108363E-14
 31
0.0
210
0.0
220
0.0
230
1.0
 40
0.6612942163160893
 41
0.0
 42
6.283185307179586
  0
ELLIPSE
  5
24C
330
1F
100
AcDbEntity
  8
MTO-620-410
  6
Continuous
 62
    18
420
        0
 48
50.00000038146973
370
    25
100
AcDbEllipse
 10
36654.58485816508
 20
2467.825364706387
 30
0.0
 11
-288.1296983555625
 21
-3.528454593311469E-14
 31
0.0
210
0.0
220
0.0
230
1.0
 40
0.6354294910737556
 41
0.0
 42
6.283185307179586
  0
ELLIPSE
  5
24D
330
1F
100
AcDbEntity
  8
MTO-620-410
  6
Continuous
 62
     9
420
 12237498
 48
50.00000038146973
370
    25
100
AcDbEllipse
 10
36654.58485816508
 20
2467.825364706387
 30
0.0
 11
-263.2629589936669
 21
-3.223934923097245E-14
 31
0.0
210
0.0
220
0.0
230
1.0
 40
0.6290495066088599
 41
0.0
 42
6.283185307179586
  0
CIRCLE
  5
24E
330
1F
100
AcDbEntity
  8
MTO-620-410
  6
DASHED1
 62
    18
420
        0
 48
9.99999977350235
370
    25
100
AcDbCircle
 10
36654.58476127177
 20
2467.825364706387
 30
0.0
 40
20.79538159370422
  0
CIRCLE
  5
24F
330
1F
100
AcDbEntity
  8
MTO-620-410
  6
Continuous
 62
   250
420
   986895
 48
0.9999999962747097
370
    25
100
AcDbCircle
 10
36654.58476127177
 20
2467.825364706387
 30
0.0
 40
38.99990310668925
  0
CIRCLE
  5
250
330
1F
100
AcDbEntity
  8
MTO-620-410
  6
Continuous
 62
   250
420
   986895
 48
0.9999999962747097
370
    25
100
AcDbCircle
 10
36654.58485816508
 20
2467.825364706387
 30
0.0
 40
35.0000000000007
  0
TEXT
  5
252
330
1F
100
AcDbEntity
  8
MTO-620-410
  6
Continuous
 62
    18
420
        0
 48
100.0000007629395
370
    25
100
AcDbText
 10
35807.65384767958
 20
1607.497926080047
 30
0.0
 40
24.0
  1
Ablaufvariante 1
 41
0.8125
  7
CENTURY GOTHIC
100
AcDbText
  0
TEXT
  5
253
330
1F
100
AcDbEntity
  8
MTO-620-410
  6
Continuous
 62
    18
420
        0
 48
100.0000007629395
370
    25
100
AcDbText
 10
35818.08794556718
 20
1570.138553519451
 30
0.0
 40
16.0
  1
Clouablauf mit Chromdeckel
 41
0.8125
  7
CENTURY GOTHIC
100
AcDbText
  0
TEXT
  5
254
330
1F
100
AcDbEntity
  8
MTO-620-410
  6
Continuous
 62
    18
420
        0
 48
100.0000007629395
370
    25
100
AcDbText
 10
35818.08794556718
 20
1545.138553519462
 30
0.0
 40
16.0
  1
Deckel steht zu Beckenboden vor
 41
0.8125
  7
CENTURY GOTHIC
100
AcDbText
  0
TEXT
  5
255
330
1F
100
AcDbEntity
  8
MTO-620-410
  6
Continuous
 62
    18
420
        0
 48
100.0000007629395
370
    25
100
AcDbText
 10
35818.08794556718
 20
1520.13855351945
 30
0.0
 40
16.0
  1
Ablauf ist über Clou verschließbar
 41
0.8125
  7
CENTURY GOTHIC
100
AcDbText
  0
TEXT
  5
256
330
1F
100
AcDbEntity
  8
MTO-620-410
  6
Continuous
 62
    18
420
        0
 48
100.0000007629395
370
    25
100
AcDbText
 10
35818.08794556718
 20
1495.138553519462
 30
0.0
 40
16.0
  1
Becken ohne Überlauf
 41
0.8125
  7
CENTURY GOTHIC
100
AcDbText
  0
TEXT
  5
257
330
1F
100
AcDbEntity
  8
MTO-620-410
  6
Continuous
 62
    18
420
        0
 48
100.0000007629395
370
    25
100
AcDbText
 10
36295.52344873583
 20
1607.49792608007
 30
0.0
 40
24.0
  1
Ablaufvariante 2
 41
0.8125
  7
CENTURY GOTHIC
100
AcDbText
  0
TEXT
  5
258
330
1F
100
AcDbEntity
  8
MTO-620-410
  6
Continuous
 62
    18
420
        0
 48
100.0000007629395
370
    25
100
AcDbText
 10
36305.95754662343
 20
1570.138553519451
 30
0.0
 40
16.0
  1
Clouablauf mit Coriandeckel
 41
0.8125
  7
CENTURY GOTHIC
100
AcDbText
  0
TEXT
  5
259
330
1F
100
AcDbEntity
  8
MTO-620-410
  6
Continuous
 62
    18
420
        0
 48
100.0000007629395
370
    25
100
AcDbText
 10
36305.95754662343
 20
1545.138553519462
 30
0.0
 40
16.0
  1
Deckel ist mit Beckenboden bündig
 41
0.8125
  7
CENTURY GOTHIC
100
AcDbText
  0
TEXT
  5
25A
330
1F
100
AcDbEntity
  8
MTO-620-410
  6
Continuous
 62
    18
420
        0
 48
100.0000007629395
370
    25
100
AcDbText
 10
36305.95754662343
 20
1520.138553519474
 30
0.0
 40
16.0
  1
Ablauf ist über Clou verschließbar
 41
0.8125
  7
CENTURY GOTHIC
100
AcDbText
  0
TEXT
  5
25B
330
1F
100
AcDbEntity
  8
MTO-620-410
  6
Continuous
 62
    18
420
        0
 48
100.0000007629395
370
    25
100
AcDbText
 10
36305.95754662343
 20
1495.138553519462
 30
0.0
 40
16.0
  1
Becken ohne Überlauf
 41
0.8125
  7
CENTURY GOTHIC
100
AcDbText
  0
TEXT
  5
25C
330
1F
100
AcDbEntity
  8
MTO-620-410
  6
Continuous
 62
    18
420
        0
 48
100.0000007629395
370
    25
100
AcDbText
 10
36783.39304979202
 20
1607.497926080047
 30
0.0
 40
24.0
  1
Ablaufvariante 3
 41
0.8125
  7
CENTURY GOTHIC
100
AcDbText
  0
TEXT
  5
25D
330
1F
100
AcDbEntity
  8
MTO-620-410
  6
Continuous
 62
    18
420
        0
 48
100.0000007629395
370
    25
100
AcDbText
 10
36793.82714767961
 20
1570.138553519451
 30
0.0
 40
16.0
  1
Ablauf ASW (107503) mit Coriandeckel
 41
0.8125
  7
CENTURY GOTHIC
100
AcDbText
  0
TEXT
  5
25E
330
1F
100
AcDbEntity
  8
MTO-620-410
  6
Continuous
 62
    18
420
        0
 48
100.0000007629395
370
    25
100
AcDbText
 10
36793.82714767961
 20
1545.138553519462
 30
0.0
 40
16.0
  1
Deckel ist mit Beckenboden bündig
 41
0.8125
  7
CENTURY GOTHIC
100
AcDbText
  0
TEXT
  5
25F
330
1F
100
AcDbEntity
  8
MTO-620-410
  6
Continuous
 62
    18
420
        0
 48
100.0000007629395
370
    25
100
AcDbText
 10
36793.82714767961
 20
1520.13855351945
 30
0.0
 40
16.0
  1
Ablauf ist nicht verschließbar
 41
0.8125
  7
CENTURY GOTHIC
100
AcDbText
  0
TEXT
  5
260
330
1F
100
AcDbEntity
  8
MTO-620-410
  6
Continuous
 62
    18
420
        0
 48
100.0000007629395
370
    25
100
AcDbText
 10
36793.82714767961
 20
1495.138553519439
 30
0.0
 40
16.0
  1
Becken ohne Überlauf
 41
0.8125
  7
CENTURY GOTHIC
100
AcDbText
  0
TEXT
  5
261
330
1F
100
AcDbEntity
  8
MTO-620-410
  6
Continuous
 62
    12
420
 14745600
 48
100.0000007629395
370
    18
100
AcDbText
 10
36170.57765710411
 20
1416.983564308752
 30
0.0
 40
4.800000617980957
  1
19,0
 50
90.0
 41
0.65
  7
ROMAN
100
AcDbText
  0
TEXT
  5
262
330
1F
100
AcDbEntity
  8
MTO-620-410
  6
Continuous
 62
    12
420
 14745600
 48
100.0000007629395
370
    18
100
AcDbText
 10
36665.0210647427
 20
1416.983564308775
 30
0.0
 40
4.800000617980957
  1
19,0
 50
90.0
 41
0.65
  7
ROMAN
100
AcDbText
  0
TEXT
  5
263
330
1F
100
AcDbEntity
  8
MTO-620-410
  6
Continuous
 62
    12
420
 14745600
 48
100.0000007629395
370
    18
100
AcDbText
 10
36665.0210647427
 20
1385.983564308753
 30
0.0
 40
4.800000617980957
  1
12,0
 50
90.0
 41
0.65
  7
ROMAN
100
AcDbText
  0
TEXT
  5
264
330
1F
100
AcDbEntity
  8
MTO-620-410
  6
Continuous
 62
    12
420
 14745600
 48
100.0000007629395
370
    18
100
AcDbText
 10
37172.04678472548
 20
1416.983564308752
 30
0.0
 40
4.800000617980957
  1
19,0
 50
90.0
 41
0.65
  7
ROMAN
100
AcDbText
  0
TEXT
  5
265
330
1F
100
AcDbEntity
  8
MTO-620-410
  6
Continuous
 62
    12
420
 14745600
 48
100.0000007629395
370
    18
100
AcDbText
 10
37172.04678472548
 20
1385.983564308753
 30
0.0
 40
4.800000617980957
  1
12,0
 50
90.0
 41
0.65
  7
ROMAN
100
AcDbText
  0
TEXT
  5
266
330
1F
100
AcDbEntity
  8
MTO-620-410
  6
Continuous
 62
    18
420
        0
 48
100.0000007629395
370
    25
100
AcDbText
 10
37271.26265084824
 20
1607.497926080047
 30
0.0
 40
24.0
  1
Ablaufvariante 4
 41
0.8125
  7
CENTURY GOTHIC
100
AcDbText
  0
TEXT
  5
267
330
1F
100
AcDbEntity
  8
MTO-620-410
  6
Continuous
 62
    18
420
        0
 48
100.0000007629395
370
    25
100
AcDbText
 10
37281.69674873584
 20
1570.138553519451
 30
0.0
 40
16.0
  1
Ablauf ASW (105509) mit Coriandeckel
 41
0.8125
  7
CENTURY GOTHIC
100
AcDbText
  0
TEXT
  5
268
330
1F
100
AcDbEntity
  8
MTO-620-410
  6
Continuous
 62
    18
420
        0
 48
100.0000007629395
370
    25
100
AcDbText
 10
37281.69674873584
 20
1545.138553519462
 30
0.0
 40
16.0
  1
Deckel ist mit Beckenboden bündig
 41
0.8125
  7
CENTURY GOTHIC
100
AcDbText
  0
TEXT
  5
269
330
1F
100
AcDbEntity
  8
MTO-620-410
  6
Continuous
 62
    18
420
        0
 48
100.0000007629395
370
    25
100
AcDbText
 10
37281.69674873584
 20
1520.13855351945
 30
0.0
 40
16.0
  1
Ablauf verschließbar mit Push to Open
 41
0.8125
  7
CENTURY GOTHIC
100
AcDbText
  0
TEXT
  5
26A
330
1F
100
AcDbEntity
  8
MTO-620-410
  6
Continuous
 62
    18
420
        0
 48
100.0000007629395
370
    25
100
AcDbText
 10
37281.69674873584
 20
1495.138553519439
 30
0.0
 40
16.0
  1
Achtung: Becken ist ohne Überlauf !!!!
 41
0.8125
  7
CENTURY GOTHIC
100
AcDbText
  0
TEXT
  5
26B
330
1F
100
AcDbEntity
  8
MTO-620-410
  6
Continuous
 62
    12
420
 14745600
 48
100.0000007629395
370
    18
100
AcDbText
 10
37659.9163857817
 20
1416.983564308752
 30
0.0
 40
4.800000617980957
  1
19,0
 50
90.0
 41
0.65
  7
ROMAN
100
AcDbText
  0
TEXT
  5
26C
330
1F
100
AcDbEntity
  8
MTO-620-410
  6
Continuous
 62
    12
420
 14745600
 48
100.0000007629395
370
    18
100
AcDbText
 10
37659.9163857817
 20
1379.205653037449
 30
0.0
 40
4.800000617980957
  1
19,0
 50
90.0
 41
0.65
  7
ROMAN
100
AcDbText
  0
TEXT
  5
26E
330
1F
100
AcDbEntity
  8
MTO-620-410
  6
Continuous
 62
    18
420
        0
 48
755.9999786376953
370
    25
100
AcDbText
 10
38231.06392519462
 20
1400.328861594598
 30
0.0
 40
38.4
  1
Moser GmbH
 41
0.8125
  7
HLV-L
100
AcDbText
  0
TEXT
  5
26F
330
1F
100
AcDbEntity
  8
MTO-620-410
  6
Continuous
 62
    18
420
        0
 48
755.9999786376953
370
    25
100
AcDbText
 10
38231.06392519462
 20
1359.078902844599
 30
0.0
 40
38.4
  1
Im Mühlegrün 13
 41
0.8125
  7
HLV-L
100
AcDbText
  0
TEXT
  5
270
330
1F
100
AcDbEntity
  8
MTO-620-410
  6
Continuous
 62
    18
420
        0
 48
755.9999786376953
370
    25
100
AcDbText
 10
38231.06392519462
 20
1317.828944094599
 30
0.0
 40
38.4
  1
77716 Haslach
 41
0.8125
  7
HLV-L
100
AcDbText
  0
TEXT
  5
271
330
1F
100
AcDbEntity
  8
MTO-620-410
  6
Continuous
 62
    18
420
        0
 48
755.9999786376953
370
    25
100
AcDbText
 10
38231.06392519462
 20
1276.578985344599
 30
0.0
 40
38.4
  1
www.moser.gmbh
 41
0.8125
  7
HLV-L
100
AcDbText
  0
TEXT
  5
272
330
1F
100
AcDbEntity
  8
MTO-620-410
  6
Continuous
 62
    18
420
        0
 48
34.72222046852112
370
    25
100
AcDbText
 10
37770.24873190043
 20
1562.424075179561
 30
0.0
 40
64.00000000000001
  1
MTO-620-410
 41
0.8125
  7
ARIAL
100
AcDbText
  0
TEXT
  5
274
330
1F
100
AcDbEntity
  8
MTO-620-410
  6
Continuous
 62
    18
420
        0
 48
14.12239682674408
370
    25
100
AcDbText
 10
37824.10999120796
 20
1297.197978712733
 30
0.0
 40
21.72839828681946
  1
Mineralwerkstoffe
 41
0.8125
  7
HELV-HFT
100
AcDbText
  0
INSERT
  5
279
330
1F
100
AcDbEntity
  8
MTO-1200-410
  6
Continuous
 62
    18
420
        0
 48
50.00000038146973
370
    25
100
AcDbBlockReference
  2
Dimension13
 10
0.0
 20
0.0
 30
0.0
  0
INSERT
  5
27D
330
1F
100
AcDbEntity
  8
MTO-1200-410
  6
Continuous
 62
    18
420
        0
 48
50.00000038146973
370
    25
100
AcDbBlockReference
  2
Dimension14
 10
0.0
 20
0.0
 30
0.0
  0
INSERT
  5
281
330
1F
100
AcDbEntity
  8
MTO-1200-410
  6
Continuous
 62
    18
420
        0
 48
50.00000038146973
370
    25
100
AcDbBlockReference
  2
Dimension15
 10
0.0
 20
0.0
 30
0.0
  0
INSERT
  5
285
330
1F
100
AcDbEntity
  8
MTO-1200-410
  6
Continuous
 62
    18
420
        0
 48
50.00000038146973
370
    25
100
AcDbBlockReference
  2
Dimension16
 10
0.0
 20
0.0
 30
0.0
  0
INSERT
  5
289
330
1F
100
AcDbEntity
  8
MTO-1200-410
  6
Continuous
 62
    18
420
        0
 48
50.00000038146973
370
    25
100
AcDbBlockReference
  2
Dimension17
 10
0.0
 20
0.0
 30
0.0
  0
INSERT
  5
28D
330
1F
100
AcDbEntity
  8
MTO-1200-410
  6
Continuous
 62
    18
420
        0
 48
50.00000038146973
370
    25
100
AcDbBlockReference
  2
Dimension18
 10
0.0
 20
0.0
 30
0.0
  0
INSERT
  5
291
330
1F
100
AcDbEntity
  8
MTO-1200-410
  6
Continuous
 62
    18
420
        0
 48
50.00000038146973
370
    25
100
AcDbBlockReference
  2
Dimension19
 10
0.0
 20
0.0
 30
0.0
  0
INSERT
  5
295
330
1F
100
AcDbEntity
  8
MTO-1200-410
  6
Continuous
 62
    18
420
        0
 48
50.00000038146973
370
    25
100
AcDbBlockReference
  2
Dimension20
 10
0.0
 20
0.0
 30
0.0
  0
INSERT
  5
299
330
1F
100
AcDbEntity
  8
MTO-1200-410
  6
Continuous
 62
    18
420
        0
 48
50.00000038146973
370
    25
100
AcDbBlockReference
  2
Dimension21
 10
0.0
 20
0.0
 30
0.0
  0
INSERT
  5
29D
330
1F
100
AcDbEntity
  8
MTO-1200-410
  6
Continuous
 62
    18
420
        0
 48
50.00000038146973
370
    25
100
AcDbBlockReference
  2
Dimension22
 10
0.0
 20
0.0
 30
0.0
  0
INSERT
  5
2A1
330
1F
100
AcDbEntity
  8
MTO-1200-410
  6
Continuous
 62
    18
420
        0
 48
50.00000038146973
370
    25
100
AcDbBlockReference
  2
Dimension23
 10
0.0
 20
0.0
 30
0.0
  0
INSERT
  5
2A5
330
1F
100
AcDbEntity
  8
MTO-1200-410
  6
Continuous
 62
    18
420
        0
 48
50.00000038146973
370
    25
100
AcDbBlockReference
  2
Dimension24
 10
0.0
 20
0.0
 30
0.0
  0
INSERT
  5
2A9
330
1F
100
AcDbEntity
  8
MTO-1200-410
  6
Continuous
 62
    18
420
        0
 48
50.00000038146973
370
    25
100
AcDbBlockReference
  2
Dimension25
 10
0.0
 20
0.0
 30
0.0
  0
INSERT
  5
2AD
330
1F
100
AcDbEntity
  8
MTO-1200-410
  6
Continuous
 62
    18
420
        0
 48
50.00000038146973
370
    25
100
AcDbBlockReference
  2
Dimension26
 10
0.0
 20
0.0
 30
0.0
  0
INSERT
  5
2B1
330
1F
100
AcDbEntity
  8
MTO-1200-410
  6
Continuous
 62
    18
420
        0
 48
50.00000038146973
370
    25
100
AcDbBlockReference
  2
Dimension27
 10
0.0
 20
0.0
 30
0.0
  0
INSERT
  5
2B5
330
1F
100
AcDbEntity
  8
MTO-1200-410
  6
Continuous
 62
    18
420
        0
 48
50.00000038146973
370
    25
100
AcDbBlockReference
  2
Dimension28
 10
0.0
 20
0.0
 30
0.0
  0
INSERT
  5
2B9
330
1F
100
AcDbEntity
  8
MTO-1200-410
  6
Continuous
 62
    18
420
        0
 48
50.00000038146973
370
    25
100
AcDbBlockReference
  2
Dimension29
 10
0.0
 20
0.0
 30
0.0
  0
INSERT
  5
2BD
330
1F
100
AcDbEntity
  8
MTO-1200-410
  6
Continuous
 62
    18
420
        0
 48
50.00000038146973
370
    25
100
AcDbBlockReference
  2
Dimension30
 10
0.0
 20
0.0
 30
0.0
  0
INSERT
  5
2C1
330
1F
100
AcDbEntity
  8
MTO-1200-410
  6
Continuous
 62
    18
420
        0
 48
50.00000038146973
370
    25
100
AcDbBlockReference
  2
Dimension31
 10
0.0
 20
0.0
 30
0.0
  0
INSERT
  5
2C5
330
1F
100
AcDbEntity
  8
MTO-1200-410
  6
Continuous
 62
    18
420
        0
 48
50.00000038146973
370
    25
100
AcDbBlockReference
  2
Dimension32
 10
0.0
 20
0.0
 30
0.0
  0
INSERT
  5
2C9
330
1F
100
AcDbEntity
  8
MTO-1200-410
  6
Continuous
 62
    18
420
        0
 48
50.00000038146973
370
    25
100
AcDbBlockReference
  2
Dimension33
 10
0.0
 20
0.0
 30
0.0
  0
INSERT
  5
2CE
330
1F
100
AcDbEntity
  8
MTQ-550-410
  6
Continuous
 62
    18
420
        0
 48
50.00000038146973
370
    25
100
AcDbBlockReference
  2
Dimension34
 10
0.0
 20
0.0
 30
0.0
  0
INSERT
  5
2D2
330
1F
100
AcDbEntity
  8
MTQ-550-410
  6
Continuous
 62
    18
420
        0
 48
50.00000038146973
370
    25
100
AcDbBlockReference
  2
Dimension35
 10
0.0
 20
0.0
 30
0.0
  0
INSERT
  5
2D6
330
1F
100
AcDbEntity
  8
MTQ-550-410
  6
Continuous
 62
    18
420
        0
 48
50.00000038146973
370
    25
100
AcDbBlockReference
  2
Dimension36
 10
0.0
 20
0.0
 30
0.0
  0
INSERT
  5
2DA
330
1F
100
AcDbEntity
  8
MTQ-550-410
  6
Continuous
 62
    18
420
        0
 48
50.00000038146973
370
    25
100
AcDbBlockReference
  2
Dimension37
 10
0.0
 20
0.0
 30
0.0
  0
INSERT
  5
2DE
330
1F
100
AcDbEntity
  8
MTQ-550-410
  6
Continuous
 62
    18
420
        0
 48
50.00000038146973
370
    25
100
AcDbBlockReference
  2
Dimension38
 10
0.0
 20
0.0
 30
0.0
  0
INSERT
  5
2E2
330
1F
100
AcDbEntity
  8
MTQ-550-410
  6
Continuous
 62
    18
420
        0
 48
50.00000038146973
370
    25
100
AcDbBlockReference
  2
Dimension39
 10
0.0
 20
0.0
 30
0.0
  0
INSERT
  5
2E6
330
1F
100
AcDbEntity
  8
MTQ-550-410
  6
Continuous
 62
    18
420
        0
 48
50.00000038146973
370
    25
100
AcDbBlockReference
  2
Dimension40
 10
0.0
 20
0.0
 30
0.0
  0
INSERT
  5
2EA
330
1F
100
AcDbEntity
  8
MTQ-550-410
  6
Continuous
 62
    18
420
        0
 48
50.00000038146973
370
    25
100
AcDbBlockReference
  2
Dimension41
 10
0.0
 20
0.0
 30
0.0
  0
INSERT
  5
2EE
330
1F
100
AcDbEntity
  8
MTQ-550-410
  6
Continuous
 62
    18
420
        0
 48
50.00000038146973
370
    25
100
AcDbBlockReference
  2
Dimension42
 10
0.0
 20
0.0
 30
0.0
  0
INSERT
  5
2F2
330
1F
100
AcDbEntity
  8
MTQ-550-410
  6
Continuous
 62
    18
420
        0
 48
50.00000038146973
370
    25
100
AcDbBlockReference
  2
Dimension43
 10
0.0
 20
0.0
 30
0.0
  0
INSERT
  5
2F6
330
1F
100
AcDbEntity
  8
MTQ-550-410
  6
Continuous
 62
    18
420
        0
 48
50.00000038146973
370
    25
100
AcDbBlockReference
  2
Dimension44
 10
0.0
 20
0.0
 30
0.0
  0
INSERT
  5
2FA
330
1F
100
AcDbEntity
  8
MTQ-550-410
  6
Continuous
 62
    18
420
        0
 48
50.00000038146973
370
    25
100
AcDbBlockReference
  2
Dimension45
 10
0.0
 20
0.0
 30
0.0
  0
INSERT
  5
2FE
330
1F
100
AcDbEntity
  8
MTQ-550-410
  6
Continuous
 62
    18
420
        0
 48
50.00000038146973
370
    25
100
AcDbBlockReference
  2
Dimension46
 10
0.0
 20
0.0
 30
0.0
  0
INSERT
  5
302
330
1F
100
AcDbEntity
  8
MTQ-550-410
  6
Continuous
 62
    18
420
        0
 48
50.00000038146973
370
    25
100
AcDbBlockReference
  2
Dimension47
 10
0.0
 20
0.0
 30
0.0
  0
INSERT
  5
306
330
1F
100
AcDbEntity
  8
MTQ-550-410
  6
Continuous
 62
    18
420
        0
 48
50.00000038146973
370
    25
100
AcDbBlockReference
  2
Dimension48
 10
0.0
 20
0.0
 30
0.0
  0
INSERT
  5
30A
330
1F
100
AcDbEntity
  8
MTQ-550-410
  6
Continuous
 62
    18
420
        0
 48
50.00000038146973
370
    25
100
AcDbBlockReference
  2
Dimension49
 10
0.0
 20
0.0
 30
0.0
  0
INSERT
  5
30E
330
1F
100
AcDbEntity
  8
MTQ-550-410
  6
Continuous
 62
    18
420
        0
 48
50.00000038146973
370
    25
100
AcDbBlockReference
  2
Dimension50
 10
0.0
 20
0.0
 30
0.0
  0
INSERT
  5
312
330
1F
100
AcDbEntity
  8
MTQ-550-410
  6
Continuous
 62
    18
420
        0
 48
50.00000038146973
370
    25
100
AcDbBlockReference
  2
Dimension51
 10
0.0
 20
0.0
 30
0.0
  0
INSERT
  5
316
330
1F
100
AcDbEntity
  8
MTQ-550-410
  6
Continuous
 62
    18
420
        0
 48
50.00000038146973
370
    25
100
AcDbBlockReference
  2
Dimension52
 10
0.0
 20
0.0
 30
0.0
  0
INSERT
  5
31A
330
1F
100
AcDbEntity
  8
MTQ-550-410
  6
Continuous
 62
    18
420
        0
 48
50.00000038146973
370
    25
100
AcDbBlockReference
  2
Dimension53
 10
0.0
 20
0.0
 30
0.0
  0
INSERT
  5
31E
330
1F
100
AcDbEntity
  8
MTQ-550-410
  6
Continuous
 62
    18
420
        0
 48
50.00000038146973
370
    25
100
AcDbBlockReference
  2
Dimension54
 10
0.0
 20
0.0
 30
0.0
  0
ENDSEC
  0
SECTION
  2
OBJECTS
  0
DICTIONARY
  5
C
330
0
100
AcDbDictionary
281
     1
  3
ACAD_GROUP
350
D
  3
ACAD_LAYOUT
350
1A
  3
ACAD_MATERIAL
350
3B
  3
ACAD_MLEADERSTYLE
350
36C
  3
ACAD_MLINESTYLE
350
17
  3
ACAD_PLOTSETTINGS
350
19
  3
ACAD_PLOTSTYLENAME
350
E
  3
ACAD_SCALELIST
350
31F
  3
ACAD_TABLESTYLE
350
36B
  3
ACAD_VISUALSTYLE
350
2A
  3
AcDbVariableDictionary
350
343
  0
DICTIONARY
  5
D
102
{ACAD_REACTORS
330
C
102
}
330
C
100
AcDbDictionary
281
     1
  0
DICTIONARY
  5
1A
102
{ACAD_REACTORS
330
C
102
}
330
C
100
AcDbDictionary
281
     1
  3
Layout1
350
1E
  3
Layout2
350
26
  3
Model
350
22
  0
DICTIONARY
  5
3B
102
{ACAD_REACTORS
330
C
102
}
330
C
100
AcDbDictionary
281
     1
  3
ByBlock
350
3D
  3
ByLayer
350
3C
  3
Global
350
3E
  0
DICTIONARY
  5
36C
102
{ACAD_REACTORS
330
C
102
}
330
C
100
AcDbDictionary
281
     1
  0
DICTIONARY
  5
17
102
{ACAD_REACTORS
330
C
102
}
330
C
100
AcDbDictionary
281
     1
  3
Standard
350
18
  0
DICTIONARY
  5
19
102
{ACAD_REACTORS
330
C
102
}
330
C
100
AcDbDictionary
281
     1
  0
ACDBDICTIONARYWDFLT
  5
E
102
{ACAD_REACTORS
330
C
102
}
330
C
100
AcDbDictionary
281
     1
  3
Normal
350
F
100
AcDbDictionaryWithDefault
340
F
  0
DICTIONARY
  5
31F
102
{ACAD_REACTORS
330
C
102
}
330
C
100
AcDbDictionary
281
     1
  3
A0
350
320
  3
A1
350
321
  3
A2
350
322
  3
A3
350
323
  3
A4
350
324
  3
A5
350
325
  3
A6
350
326
  3
A7
350
327
  3
A8
350
328
  3
A9
350
329
  3
B0
350
32A
  3
B1
350
32B
  3
B2
350
32C
  3
B3
350
32D
  3
B4
350
32E
  3
B5
350
32F
  3
B6
350
330
  3
B7
350
331
  3
B8
350
332
  3
B9
350
333
  3
C0
350
334
  3
C1
350
335
  3
C2
350
336
  3
C3
350
337
  3
C4
350
338
  3
C5
350
339
  3
C6
350
33A
  3
C7
350
33B
  3
C8
350
33C
  3
C9
350
33D
  3
D0
350
33E
  3
D1
350
33F
  3
D2
350
340
  0
DICTIONARY
  5
36B
102
{ACAD_REACTORS
330
C
102
}
330
C
100
AcDbDictionary
281
     1
  0
DICTIONARY
  5
2A
102
{ACAD_REACTORS
330
C
102
}
330
C
100
AcDbDictionary
281
     1
  3
2dWireframe
350
2F
  3
3D Hidden
350
31
  3
3dWireframe
350
30
  3
Basic
350
32
  3
Brighten
350
36
  3
ColorChange
350
3A
  3
Conceptual
350
34
  3
Dim
350
35
  3
Facepattern
350
39
  3
Flat
350
2B
  3
FlatWithEdges
350
2C
  3
Gouraud
350
2D
  3
GouraudWithEdges
350
2E
  3
Linepattern
350
38
  3
Realistic
350
33
  3
Thicken
350
37
  0
DICTIONARY
  5
343
102
{ACAD_REACTORS
330
C
102
}
330
C
100
AcDbDictionary
281
     1
  3
CANNOSCALE
350
344
  0
LAYOUT
  5
1E
102
{ACAD_REACTORS
330
1A
102
}
330
1A
100
AcDbPlotSettings
  1

  2
none_device
  4

  6

 40
0.0
 41
0.0
 42
0.0
 43
0.0
 44
0.0
 45
0.0
 46
0.0
 47
0.0
 48
0.0
 49
0.0
140
0.0
141
0.0
142
1.0
143
1.0
 70
   688
 72
     0
 73
     0
 74
     5
  7

 75
    16
 76
     0
 77
     2
 78
   300
147
1.0
148
0.0
149
0.0
100
AcDbLayout
  1
Layout1
 70
     1
 71
     1
 10
0.0
 20
0.0
 11
420.0
 21
297.0
 12
0.0
 22
0.0
 32
0.0
 14
1.000000000000000E+20
 24
1.000000000000000E+20
 34
1.000000000000000E+20
 15
-1.000000000000000E+20
 25
-1.000000000000000E+20
 35
-1.000000000000000E+20
146
0.0
 13
0.0
 23
0.0
 33
0.0
 16
1.0
 26
0.0
 36
0.0
 17
0.0
 27
1.0
 37
0.0
 76
     0
330
1B
  0
LAYOUT
  5
26
102
{ACAD_REACTORS
330
1A
102
}
330
1A
100
AcDbPlotSettings
  1

  2
none_device
  4

  6

 40
0.0
 41
0.0
 42
0.0
 43
0.0
 44
0.0
 45
0.0
 46
0.0
 47
0.0
 48
0.0
 49
0.0
140
0.0
141
0.0
142
1.0
143
1.0
 70
   688
 72
     0
 73
     0
 74
     5
  7

 75
    16
 76
     0
 77
     2
 78
   300
147
1.0
148
0.0
149
0.0
100
AcDbLayout
  1
Layout2
 70
     1
 71
     2
 10
0.0
 20
0.0
 11
0.0
 21
0.0
 12
0.0
 22
0.0
 32
0.0
 14
0.0
 24
0.0
 34
0.0
 15
0.0
 25
0.0
 35
0.0
146
0.0
 13
0.0
 23
0.0
 33
0.0
 16
1.0
 26
0.0
 36
0.0
 17
0.0
 27
1.0
 37
0.0
 76
     0
330
23
  0
LAYOUT
  5
22
102
{ACAD_REACTORS
330
1A
102
}
330
1A
100
AcDbPlotSettings
  1

  2
none_device
  4

  6

 40
0.0
 41
0.0
 42
0.0
 43
0.0
 44
0.0
 45
0.0
 46
0.0
 47
0.0
 48
0.0
 49
0.0
140
0.0
141
0.0
142
1.0
143
1.0
 70
  1712
 72
     0
 73
     0
 74
     0
  7

 75
     0
 76
     0
 77
     2
 78
   300
147
1.0
148
0.0
149
0.0
100
AcDbLayout
  1
Model
 70
     1
 71
     0
 10
0.0
 20
0.0
 11
420.0
 21
297.0
 12
0.0
 22
0.0
 32
0.0
 14
72478.60263392073
 24
3282.444290896582
 34
0.0
 15
75445.62816764117
 25
5282.444306155371
 35
0.0
146
0.0
 13
0.0
 23
0.0
 33
0.0
 16
1.0
 26
0.0
 36
0.0
 17
0.0
 27
1.0
 37
0.0
 76
     0
330
1F
331
29
  0
MATERIAL
  5
3D
102
{ACAD_REACTORS
330
3B
102
}
102
{ACAD_XDICTIONARY
360
367
102
}
330
3B
100
AcDbMaterial
  1
ByBlock
  0
MATERIAL
  5
3C
102
{ACAD_REACTORS
330
3B
102
}
102
{ACAD_XDICTIONARY
360
365
102
}
330
3B
100
AcDbMaterial
  1
ByLayer
  0
MATERIAL
  5
3E
102
{ACAD_REACTORS
330
3B
102
}
102
{ACAD_XDICTIONARY
360
369
102
}
330
3B
100
AcDbMaterial
  1
Global
  0
MLINESTYLE
  5
18
102
{ACAD_REACTORS
330
17
102
}
330
17
100
AcDbMlineStyle
  2
Standard
 70
     0
  3

 62
   256
 51
90.0
 52
90.0
 71
     2
 49
0.5
 62
   256
  6
BYLAYER
 49
-0.5
 62
   256
  6
BYLAYER
  0
ACDBPLACEHOLDER
  5
F
102
{ACAD_REACTORS
330
E
102
}
330
E
  0
SCALE
  5
320
102
{ACAD_REACTORS
330
31F
102
}
330
31F
100
AcDbScale
 70
     0
300
1:1
140
1.0
141
1.0
290
     1
  0
SCALE
  5
321
102
{ACAD_REACTORS
330
31F
102
}
330
31F
100
AcDbScale
 70
     0
300
1:2
140
1.0
141
2.0
290
     0
  0
SCALE
  5
322
102
{ACAD_REACTORS
330
31F
102
}
330
31F
100
AcDbScale
 70
     0
300
1:4
140
1.0
141
4.0
290
     0
  0
SCALE
  5
323
102
{ACAD_REACTORS
330
31F
102
}
330
31F
100
AcDbScale
 70
     0
300
1:5
140
1.0
141
5.0
290
     0
  0
SCALE
  5
324
102
{ACAD_REACTORS
330
31F
102
}
330
31F
100
AcDbScale
 70
     0
300
1:8
140
1.0
141
8.0
290
     0
  0
SCALE
  5
325
102
{ACAD_REACTORS
330
31F
102
}
330
31F
100
AcDbScale
 70
     0
300
1:10
140
1.0
141
10.0
290
     0
  0
SCALE
  5
326
102
{ACAD_REACTORS
330
31F
102
}
330
31F
100
AcDbScale
 70
     0
300
1:16
140
1.0
141
16.0
290
     0
  0
SCALE
  5
327
102
{ACAD_REACTORS
330
31F
102
}
330
31F
100
AcDbScale
 70
     0
300
1:20
140
1.0
141
20.0
290
     0
  0
SCALE
  5
328
102
{ACAD_REACTORS
330
31F
102
}
330
31F
100
AcDbScale
 70
     0
300
1:30
140
1.0
141
30.0
290
     0
  0
SCALE
  5
329
102
{ACAD_REACTORS
330
31F
102
}
330
31F
100
AcDbScale
 70
     0
300
1:40
140
1.0
141
40.0
290
     0
  0
SCALE
  5
32A
102
{ACAD_REACTORS
330
31F
102
}
330
31F
100
AcDbScale
 70
     0
300
1:50
140
1.0
141
50.0
290
     0
  0
SCALE
  5
32B
102
{ACAD_REACTORS
330
31F
102
}
330
31F
100
AcDbScale
 70
     0
300
1:100
140
1.0
141
100.0
290
     0
  0
SCALE
  5
32C
102
{ACAD_REACTORS
330
31F
102
}
330
31F
100
AcDbScale
 70
     0
300
2:1
140
2.0
141
1.0
290
     0
  0
SCALE
  5
32D
102
{ACAD_REACTORS
330
31F
102
}
330
31F
100
AcDbScale
 70
     0
300
4:1
140
4.0
141
1.0
290
     0
  0
SCALE
  5
32E
102
{ACAD_REACTORS
330
31F
102
}
330
31F
100
AcDbScale
 70
     0
300
8:1
140
8.0
141
1.0
290
     0
  0
SCALE
  5
32F
102
{ACAD_REACTORS
330
31F
102
}
330
31F
100
AcDbScale
 70
     0
300
10:1
140
10.0
141
1.0
290
     0
  0
SCALE
  5
330
102
{ACAD_REACTORS
330
31F
102
}
330
31F
100
AcDbScale
 70
     0
300
100:1
140
100.0
141
1.0
290
     0
  0
SCALE
  5
331
102
{ACAD_REACTORS
330
31F
102
}
330
31F
100
AcDbScale
 70
     0
300
1/128" = 1'-0"
140
0.0078125
141
12.0
290
     0
  0
SCALE
  5
332
102
{ACAD_REACTORS
330
31F
102
}
330
31F
100
AcDbScale
 70
     0
300
1/64" = 1'-0"
140
0.015625
141
12.0
290
     0
  0
SCALE
  5
333
102
{ACAD_REACTORS
330
31F
102
}
330
31F
100
AcDbScale
 70
     0
300
1/32" = 1'-0"
140
0.03125
141
12.0
290
     0
  0
SCALE
  5
334
102
{ACAD_REACTORS
330
31F
102
}
330
31F
100
AcDbScale
 70
     0
300
1/16" = 1'-0"
140
0.0625
141
12.0
290
     0
  0
SCALE
  5
335
102
{ACAD_REACTORS
330
31F
102
}
330
31F
100
AcDbScale
 70
     0
300
3/32" = 1'-0"
140
0.09375
141
12.0
290
     0
  0
SCALE
  5
336
102
{ACAD_REACTORS
330
31F
102
}
330
31F
100
AcDbScale
 70
     0
300
1/8" = 1'-0"
140
0.125
141
12.0
290
     0
  0
SCALE
  5
337
102
{ACAD_REACTORS
330
31F
102
}
330
31F
100
AcDbScale
 70
     0
300
3/16" = 1'-0"
140
0.1875
141
12.0
290
     0
  0
SCALE
  5
338
102
{ACAD_REACTORS
330
31F
102
}
330
31F
100
AcDbScale
 70
     0
300
1/4" = 1'-0"
140
0.25
141
12.0
290
     0
  0
SCALE
  5
339
102
{ACAD_REACTORS
330
31F
102
}
330
31F
100
AcDbScale
 70
     0
300
3/8" = 1'-0"
140
0.375
141
12.0
290
     0
  0
SCALE
  5
33A
102
{ACAD_REACTORS
330
31F
102
}
330
31F
100
AcDbScale
 70
     0
300
1/2" = 1'-0"
140
0.5
141
12.0
290
     0
  0
SCALE
  5
33B
102
{ACAD_REACTORS
330
31F
102
}
330
31F
100
AcDbScale
 70
     0
300
3/4" = 1'-0"
140
0.75
141
12.0
290
     0
  0
SCALE
  5
33C
102
{ACAD_REACTORS
330
31F
102
}
330
31F
100
AcDbScale
 70
     0
300
1" = 1'-0"
140
1.0
141
12.0
290
     0
  0
SCALE
  5
33D
102
{ACAD_REACTORS
330
31F
102
}
330
31F
100
AcDbScale
 70
     0
300
1-1/2" = 1'-0"
140
1.5
141
12.0
290
     0
  0
SCALE
  5
33E
102
{ACAD_REACTORS
330
31F
102
}
330
31F
100
AcDbScale
 70
     0
300
3" = 1'-0"
140
3.0
141
12.0
290
     0
  0
SCALE
  5
33F
102
{ACAD_REACTORS
330
31F
102
}
330
31F
100
AcDbScale
 70
     0
300
6" = 1'-0"
140
6.0
141
12.0
290
     0
  0
SCALE
  5
340
102
{ACAD_REACTORS
330
31F
102
}
330
31F
100
AcDbScale
 70
     0
300
1'-0" = 1'-0"
140
12.0
141
12.0
290
     0
  0
VISUALSTYLE
  5
2F
102
{ACAD_REACTORS
330
2A
102
}
102
{ACAD_XDICTIONARY
360
34D
102
}
330
2A
100
AcDbVisualStyle
  2
2dWireframe
 70
     4
 71
     0
 72
     2
 73
     0
 90
        0
 40
-0.6
 41
-30.0
 62
     5
 63
     7
421
 16777215
 74
     1
 91
        4
 64
     7
 65
   257
 75
     1
175
     1
 42
1.0
 92
        0
 66
   257
 43
1.0
 76
     1
 77
     6
 78
     2
 67
     7
 79
     5
170
     0
171
     0
290
     0
174
     0
 93
        1
 44
0.0
173
     0
291
     0
 45
0.0
1001
ACAD
1000
AcDbSavedByObjectVersion
1070
     0
  0
VISUALSTYLE
  5
31
102
{ACAD_REACTORS
330
2A
102
}
102
{ACAD_XDICTIONARY
360
351
102
}
330
2A
100
AcDbVisualStyle
  2
3D Hidden
 70
     6
 71
     1
 72
     2
 73
     2
 90
        0
 40
-0.6
 41
-30.0
 62
     5
 63
     7
421
 16777215
 74
     2
 91
        2
 64
     7
 65
   257
 75
     2
175
     1
 42
40.0
 92
        0
 66
   257
 43
1.0
 76
     1
 77
     6
 78
     2
 67
     7
 79
     3
170
     0
171
     0
290
     0
174
     0
 93
        1
 44
0.0
173
     0
291
     0
 45
0.0
1001
ACAD
1000
AcDbSavedByObjectVersion
1070
     0
  0
VISUALSTYLE
  5
30
102
{ACAD_REACTORS
330
2A
102
}
102
{ACAD_XDICTIONARY
360
34F
102
}
330
2A
100
AcDbVisualStyle
  2
3dWireframe
 70
     5
 71
     0
 72
     2
 73
     0
 90
        0
 40
-0.6
 41
-30.0
 62
     5
 63
     7
421
 16777215
 74
     1
 91
        4
 64
     7
 65
   257
 75
     1
175
     1
 42
1.0
 92
        0
 66
   257
 43
1.0
 76
     1
 77
     6
 78
     2
 67
     7
 79
     5
170
     0
171
     0
290
     0
174
     0
 93
        1
 44
0.0
173
     0
291
     0
 45
0.0
1001
ACAD
1000
AcDbSavedByObjectVersion
1070
     0
  0
VISUALSTYLE
  5
32
102
{ACAD_REACTORS
330
2A
102
}
102
{ACAD_XDICTIONARY
360
353
102
}
330
2A
100
AcDbVisualStyle
  2
Basic
 70
     7
 71
     1
 72
     0
 73
     1
 90
        0
 40
-0.6
 41
-30.0
 62
     5
 63
     7
421
 16777215
 74
     0
 91
        4
 64
     7
 65
   257
 75
     1
175
     1
 42
1.0
 92
        8
 66
     7
 43
1.0
 76
     1
 77
     6
 78
     2
 67
     7
 79
     5
170
     0
171
     0
290
     0
174
     0
 93
        1
 44
0.0
173
     0
291
     1
 45
0.0
1001
ACAD
1000
AcDbSavedByObjectVersion
1070
     0
  0
VISUALSTYLE
  5
36
102
{ACAD_REACTORS
330
2A
102
}
102
{ACAD_XDICTIONARY
360
35B
102
}
330
2A
100
AcDbVisualStyle
  2
Brighten
 70
    12
 71
     2
 72
     2
 73
     0
 90
        0
 40
-0.6
 41
-30.0
 62
     5
 63
     7
421
 16777215
 74
     1
 91
        4
 64
     7
 65
   257
 75
     1
175
     1
 42
1.0
 92
        8
 66
     7
 43
1.0
 76
     1
 77
     6
 78
     2
 67
     7
 79
     5
170
     0
171
     0
290
     0
174
     0
 93
        1
 44
50.0
173
     0
291
     1
 45
0.0
1001
ACAD
1000
AcDbSavedByObjectVersion
1070
     0
  0
VISUALSTYLE
  5
3A
102
{ACAD_REACTORS
330
2A
102
}
102
{ACAD_XDICTIONARY
360
363
102
}
330
2A
100
AcDbVisualStyle
  2
ColorChange
 70
    16
 71
     2
 72
     2
 73
     3
 90
        0
 40
-0.6
 41
-30.0
 62
     5
 63
     8
421
  8421504
 74
     1
 91
        4
 64
     7
 65
   257
 75
     1
175
     1
 42
1.0
 92
        8
 66
     8
424
  8421504
 43
1.0
 76
     1
 77
     6
 78
     2
 67
     7
 79
     5
170
     0
171
     0
290
     0
174
     0
 93
        1
 44
0.0
173
     0
291
     1
 45
0.0
1001
ACAD
1000
AcDbSavedByObjectVersion
1070
     0
  0
VISUALSTYLE
  5
34
102
{ACAD_REACTORS
330
2A
102
}
102
{ACAD_XDICTIONARY
360
357
102
}
330
2A
100
AcDbVisualStyle
  2
Conceptual
 70
     9
 71
     3
 72
     2
 73
     0
 90
        0
 40
-0.6
 41
-30.0
 62
     5
 63
     7
421
 16777215
 74
     2
 91
        2
 64
     7
 65
   257
 75
     1
175
     1
 42
40.0
 92
        8
 66
     7
 43
1.0
 76
     1
 77
     6
 78
     2
 67
     7
 79
     3
170
     0
171
     0
290
     0
174
     0
 93
        1
 44
0.0
173
     0
291
     0
 45
0.0
1001
ACAD
1000
AcDbSavedByObjectVersion
1070
     0
  0
VISUALSTYLE
  5
35
102
{ACAD_REACTORS
330
2A
102
}
102
{ACAD_XDICTIONARY
360
359
102
}
330
2A
100
AcDbVisualStyle
  2
Dim
 70
    11
 71
     2
 72
     2
 73
     0
 90
        0
 40
-0.6
 41
-30.0
 62
     5
 63
     7
421
 16777215
 74
     1
 91
        4
 64
     7
 65
   257
 75
     1
175
     1
 42
1.0
 92
        8
 66
     7
 43
1.0
 76
     1
 77
     6
 78
     2
 67
     7
 79
     5
170
     0
171
     0
290
     0
174
     0
 93
        1
 44
-50.0
173
     0
291
     1
 45
0.0
1001
ACAD
1000
AcDbSavedByObjectVersion
1070
     0
  0
VISUALSTYLE
  5
39
102
{ACAD_REACTORS
330
2A
102
}
102
{ACAD_XDICTIONARY
360
361
102
}
330
2A
100
AcDbVisualStyle
  2
Facepattern
 70
    15
 71
     2
 72
     2
 73
     0
 90
        0
 40
-0.6
 41
-30.0
 62
     5
 63
     7
421
 16777215
 74
     1
 91
        4
 64
     7
 65
   257
 75
     1
175
     1
 42
1.0
 92
        8
 66
     7
 43
1.0
 76
     1
 77
     6
 78
     2
 67
     7
 79
     5
170
     0
171
     0
290
     0
174
     0
 93
        1
 44
0.0
173
     0
291
     1
 45
0.0
1001
ACAD
1000
AcDbSavedByObjectVersion
1070
     0
  0
VISUALSTYLE
  5
2B
102
{ACAD_REACTORS
330
2A
102
}
102
{ACAD_XDICTIONARY
360
345
102
}
330
2A
100
AcDbVisualStyle
  2
Flat
 70
     0
 71
     2
 72
     1
 73
     1
 90
        2
 40
-0.6
 41
30.0
 62
     5
 63
     7
421
 16777215
 74
     0
 91
        4
 64
     7
 65
   257
 75
     1
175
     1
 42
1.0
 92
        8
 66
     7
 43
1.0
 76
     1
 77
     6
 78
     2
 67
     7
 79
     5
170
     0
171
     0
290
     0
174
     0
 93
       13
 44
0.0
173
     0
291
     1
 45
0.0
1001
ACAD
1000
AcDbSavedByObjectVersion
1070
     0
  0
VISUALSTYLE
  5
2C
102
{ACAD_REACTORS
330
2A
102
}
102
{ACAD_XDICTIONARY
360
347
102
}
330
2A
100
AcDbVisualStyle
  2
FlatWithEdges
 70
     1
 71
     2
 72
     1
 73
     1
 90
        2
 40
-0.6
 41
30.0
 62
     5
 63
     7
421
 16777215
 74
     1
 91
        4
 64
     7
 65
   257
 75
     1
175
     1
 42
1.0
 92
        0
 66
   257
 43
1.0
 76
     1
 77
     6
 78
     2
 67
     7
 79
     5
170
     0
171
     0
290
     0
174
     0
 93
       13
 44
0.0
173
     0
291
     1
 45
0.0
1001
ACAD
1000
AcDbSavedByObjectVersion
1070
     0
  0
VISUALSTYLE
  5
2D
102
{ACAD_REACTORS
330
2A
102
}
102
{ACAD_XDICTIONARY
360
349
102
}
330
2A
100
AcDbVisualStyle
  2
Gouraud
 70
     2
 71
     2
 72
     2
 73
     1
 90
        2
 40
-0.6
 41
30.0
 62
     5
 63
     7
421
 16777215
 74
     0
 91
        4
 64
     7
 65
   257
 75
     1
175
     1
 42
1.0
 92
        0
 66
     7
 43
1.0
 76
     1
 77
     6
 78
     2
 67
     7
 79
     5
170
     0
171
     0
290
     0
174
     0
 93
       13
 44
0.0
173
     0
291
     1
 45
0.0
1001
ACAD
1000
AcDbSavedByObjectVersion
1070
     0
  0
VISUALSTYLE
  5
2E
102
{ACAD_REACTORS
330
2A
102
}
102
{ACAD_XDICTIONARY
360
34B
102
}
330
2A
100
AcDbVisualStyle
  2
GouraudWithEdges
 70
     3
 71
     2
 72
     2
 73
     1
 90
        2
 40
-0.6
 41
30.0
 62
     5
 63
     7
421
 16777215
 74
     1
 91
        4
 64
     7
 65
   257
 75
     1
175
     1
 42
1.0
 92
        0
 66
   257
 43
1.0
 76
     1
 77
     6
 78
     2
 67
     7
 79
     5
170
     0
171
     0
290
     0
174
     0
 93
       13
 44
0.0
173
     0
291
     1
 45
0.0
1001
ACAD
1000
AcDbSavedByObjectVersion
1070
     0
  0
VISUALSTYLE
  5
38
102
{ACAD_REACTORS
330
2A
102
}
102
{ACAD_XDICTIONARY
360
35F
102
}
330
2A
100
AcDbVisualStyle
  2
Linepattern
 70
    14
 71
     2
 72
     2
 73
     0
 90
        0
 40
-0.6
 41
-30.0
 62
     5
 63
     7
421
 16777215
 74
     1
 91
        4
 64
     7
 65
   257
 75
     7
175
     7
 42
1.0
 92
        8
 66
     7
 43
1.0
 76
     1
 77
     6
 78
     2
 67
     7
 79
     5
170
     0
171
     0
290
     0
174
     0
 93
        1
 44
0.0
173
     0
291
     1
 45
0.0
1001
ACAD
1000
AcDbSavedByObjectVersion
1070
     0
  0
VISUALSTYLE
  5
33
102
{ACAD_REACTORS
330
2A
102
}
102
{ACAD_XDICTIONARY
360
355
102
}
330
2A
100
AcDbVisualStyle
  2
Realistic
 70
     8
 71
     2
 72
     2
 73
     0
 90
        0
 40
-0.6
 41
-30.0
 62
     5
 63
     7
421
 16777215
 74
     1
 91
        0
 64
     7
 65
   257
 75
     1
175
     1
 42
1.0
 92
        8
 66
     8
424
  7895160
 43
1.0
 76
     1
 77
     6
 78
     2
 67
     7
 79
     5
170
     0
171
     0
290
     0
174
     0
 93
       13
 44
0.0
173
     0
291
     0
 45
0.0
1001
ACAD
1000
AcDbSavedByObjectVersion
1070
     0
  0
VISUALSTYLE
  5
37
102
{ACAD_REACTORS
330
2A
102
}
102
{ACAD_XDICTIONARY
360
35D
102
}
330
2A
100
AcDbVisualStyle
  2
Thicken
 70
    13
 71
     2
 72
     2
 73
     0
 90
        0
 40
-0.6
 41
-30.0
 62
     5
 63
     7
421
 16777215
 74
     1
 91
        4
 64
     7
 65
   257
 75
     1
175
     1
 42
1.0
 92
       12
 66
     7
 43
1.0
 76
     1
 77
     6
 78
     2
 67
     7
 79
     5
170
     0
171
     0
290
     0
174
     0
 93
        1
 44
0.0
173
     0
291
     1
 45
0.0
1001
ACAD
1000
AcDbSavedByObjectVersion
1070
     0
  0
DICTIONARYVAR
  5
344
102
{ACAD_REACTORS
330
343
102
}
330
343
100
DictionaryVariables
280
     0
  1
1:1
  0
DICTIONARY
  5
367
330
3D
100
AcDbDictionary
280
     1
281
     1
  3
ACAD_XREC_ROUNDTRIP
360
368
  0
DICTIONARY
  5
365
330
3C
100
AcDbDictionary
280
     1
281
     1
  3
ACAD_XREC_ROUNDTRIP
360
366
  0
DICTIONARY
  5
369
330
3E
100
AcDbDictionary
280
     1
281
     1
  3
ACAD_XREC_ROUNDTRIP
360
36A
  0
DICTIONARY
  5
34D
330
2F
100
AcDbDictionary
280
     1
281
     1
  3
ACAD_XREC_ROUNDTRIP
360
34E
  0
DICTIONARY
  5
351
330
31
100
AcDbDictionary
280
     1
281
     1
  3
ACAD_XREC_ROUNDTRIP
360
352
  0
DICTIONARY
  5
34F
330
30
100
AcDbDictionary
280
     1
281
     1
  3
ACAD_XREC_ROUNDTRIP
360
350
  0
DICTIONARY
  5
353
330
32
100
AcDbDictionary
280
     1
281
     1
  3
ACAD_XREC_ROUNDTRIP
360
354
  0
DICTIONARY
  5
35B
330
36
100
AcDbDictionary
280
     1
281
     1
  3
ACAD_XREC_ROUNDTRIP
360
35C
  0
DICTIONARY
  5
363
330
3A
100
AcDbDictionary
280
     1
281
     1
  3
ACAD_XREC_ROUNDTRIP
360
364
  0
DICTIONARY
  5
357
330
34
100
AcDbDictionary
280
     1
281
     1
  3
ACAD_XREC_ROUNDTRIP
360
358
  0
DICTIONARY
  5
359
330
35
100
AcDbDictionary
280
     1
281
     1
  3
ACAD_XREC_ROUNDTRIP
360
35A
  0
DICTIONARY
  5
361
330
39
100
AcDbDictionary
280
     1
281
     1
  3
ACAD_XREC_ROUNDTRIP
360
362
  0
DICTIONARY
  5
345
330
2B
100
AcDbDictionary
280
     1
281
     1
  3
ACAD_XREC_ROUNDTRIP
360
346
  0
DICTIONARY
  5
347
330
2C
100
AcDbDictionary
280
     1
281
     1
  3
ACAD_XREC_ROUNDTRIP
360
348
  0
DICTIONARY
  5
349
330
2D
100
AcDbDictionary
280
     1
281
     1
  3
ACAD_XREC_ROUNDTRIP
360
34A
  0
DICTIONARY
  5
34B
330
2E
100
AcDbDictionary
280
     1
281
     1
  3
ACAD_XREC_ROUNDTRIP
360
34C
  0
DICTIONARY
  5
35F
330
38
100
AcDbDictionary
280
     1
281
     1
  3
ACAD_XREC_ROUNDTRIP
360
360
  0
DICTIONARY
  5
355
330
33
100
AcDbDictionary
280
     1
281
     1
  3
ACAD_XREC_ROUNDTRIP
360
356
  0
DICTIONARY
  5
35D
330
37
100
AcDbDictionary
280
     1
281
     1
  3
ACAD_XREC_ROUNDTRIP
360
35E
  0
XRECORD
  5
368
102
{ACAD_REACTORS
330
367
102
}
330
367
100
AcDbXrecord
280
     1
102
MATERIAL
148
0.0
149
0.0
149
0.0
 93
        0
 94
      127
282
     0
 72
     1
 77
     1
171
     1
175
     1
179
     1
273
     0
  0
XRECORD
  5
366
102
{ACAD_REACTORS
330
365
102
}
330
365
100
AcDbXrecord
280
     1
102
MATERIAL
148
0.0
149
0.0
149
0.0
 93
        0
 94
      127
282
     0
 72
     1
 77
     1
171
     1
175
     1
179
     1
273
     0
  0
XRECORD
  5
36A
102
{ACAD_REACTORS
330
369
102
}
330
369
100
AcDbXrecord
280
     1
102
MATERIAL
148
0.0
149
0.0
149
0.0
 93
        0
 94
      127
282
     0
 72
     1
 77
     1
171
     1
175
     1
179
     1
273
     0
  0
XRECORD
  5
34E
102
{ACAD_REACTORS
330
34D
102
}
330
34D
100
AcDbXrecord
280
     1
102
RTVSPropertyOp0
 70
     1
102
RTVSPropertyOp1
 70
     1
102
RTVSPropertyOp2
 70
     1
102
RTVSPropertyOp3
 70
     1
102
RTVSPropertyOp4
 70
     1
102
RTVSPropertyOp5
 70
     1
102
RTVSPropertyOp6
 70
     1
102
RTVSPropertyOp7
 70
     1
102
RTVSPropertyOp8
 70
     1
102
RTVSPropertyOp9
 70
     1
102
RTVSPropertyOp10
 70
     1
102
RTVSPropertyOp11
 70
     1
102
RTVSPropertyOp12
 70
     1
102
RTVSPropertyOp13
 70
     1
102
RTVSPropertyOp14
 70
     1
102
RTVSPropertyOp15
 70
     1
102
RTVSPropertyOp16
 70
     1
102
RTVSPropertyOp17
 70
     1
102
RTVSPropertyOp18
 70
     1
102
RTVSPropertyOp19
 70
     1
102
RTVSPropertyOp20
 70
     1
102
RTVSPropertyOp21
 70
     1
102
RTVSPropertyOp22
 70
     1
102
RTVSPropertyOp23
 70
     1
102
RTVSPropertyOp24
 70
     1
102
RTVSPropertyOp25
 70
     1
102
RTVSPropertyOp26
 70
     1
102
RTVSPropertyOp27
 70
     1
  0
XRECORD
  5
352
102
{ACAD_REACTORS
330
351
102
}
330
351
100
AcDbXrecord
280
     1
102
RTVSPropertyOp0
 70
     1
102
RTVSPropertyOp1
 70
     1
102
RTVSPropertyOp2
 70
     1
102
RTVSPropertyOp3
 70
     1
102
RTVSPropertyOp4
 70
     1
102
RTVSPropertyOp5
 70
     1
102
RTVSPropertyOp6
 70
     1
102
RTVSPropertyOp7
 70
     1
102
RTVSPropertyOp8
 70
     1
102
RTVSPropertyOp9
 70
     1
102
RTVSPropertyOp10
 70
     1
102
RTVSPropertyOp11
 70
     1
102
RTVSPropertyOp12
 70
     1
102
RTVSPropertyOp13
 70
     1
102
RTVSPropertyOp14
 70
     1
102
RTVSPropertyOp15
 70
     1
102
RTVSPropertyOp16
 70
     1
102
RTVSPropertyOp17
 70
     1
102
RTVSPropertyOp18
 70
     1
102
RTVSPropertyOp19
 70
     1
102
RTVSPropertyOp20
 70
     1
102
RTVSPropertyOp21
 70
     1
102
RTVSPropertyOp22
 70
     1
102
RTVSPropertyOp23
 70
     1
102
RTVSPropertyOp24
 70
     1
102
RTVSPropertyOp25
 70
     1
102
RTVSPropertyOp26
 70
     1
102
RTVSPropertyOp27
 70
     1
  0
XRECORD
  5
350
102
{ACAD_REACTORS
330
34F
102
}
330
34F
100
AcDbXrecord
280
     1
102
RTVSPropertyOp0
 70
     1
102
RTVSPropertyOp1
 70
     1
102
RTVSPropertyOp2
 70
     1
102
RTVSPropertyOp3
 70
     1
102
RTVSPropertyOp4
 70
     1
102
RTVSPropertyOp5
 70
     1
102
RTVSPropertyOp6
 70
     1
102
RTVSPropertyOp7
 70
     1
102
RTVSPropertyOp8
 70
     1
102
RTVSPropertyOp9
 70
     1
102
RTVSPropertyOp10
 70
     1
102
RTVSPropertyOp11
 70
     1
102
RTVSPropertyOp12
 70
     1
102
RTVSPropertyOp13
 70
     1
102
RTVSPropertyOp14
 70
     1
102
RTVSPropertyOp15
 70
     1
102
RTVSPropertyOp16
 70
     1
102
RTVSPropertyOp17
 70
     1
102
RTVSPropertyOp18
 70
     1
102
RTVSPropertyOp19
 70
     1
102
RTVSPropertyOp20
 70
     1
102
RTVSPropertyOp21
 70
     1
102
RTVSPropertyOp22
 70
     1
102
RTVSPropertyOp23
 70
     1
102
RTVSPropertyOp24
 70
     1
102
RTVSPropertyOp25
 70
     1
102
RTVSPropertyOp26
 70
     1
102
RTVSPropertyOp27
 70
     1
  0
XRECORD
  5
354
102
{ACAD_REACTORS
330
353
102
}
330
353
100
AcDbXrecord
280
     1
102
RTVSPropertyOp0
 70
     1
102
RTVSPropertyOp1
 70
     1
102
RTVSPropertyOp2
 70
     1
102
RTVSPropertyOp3
 70
     1
102
RTVSPropertyOp4
 70
     1
102
RTVSPropertyOp5
 70
     1
102
RTVSPropertyOp6
 70
     1
102
RTVSPropertyOp7
 70
     1
102
RTVSPropertyOp8
 70
     1
102
RTVSPropertyOp9
 70
     1
102
RTVSPropertyOp10
 70
     1
102
RTVSPropertyOp11
 70
     1
102
RTVSPropertyOp12
 70
     1
102
RTVSPropertyOp13
 70
     1
102
RTVSPropertyOp14
 70
     1
102
RTVSPropertyOp15
 70
     1
102
RTVSPropertyOp16
 70
     1
102
RTVSPropertyOp17
 70
     1
102
RTVSPropertyOp18
 70
     1
102
RTVSPropertyOp19
 70
     1
102
RTVSPropertyOp20
 70
     1
102
RTVSPropertyOp21
 70
     1
102
RTVSPropertyOp22
 70
     1
102
RTVSPropertyOp23
 70
     1
102
RTVSPropertyOp24
 70
     1
102
RTVSPropertyOp25
 70
     1
102
RTVSPropertyOp26
 70
     1
102
RTVSPropertyOp27
 70
     1
  0
XRECORD
  5
35C
102
{ACAD_REACTORS
330
35B
102
}
330
35B
100
AcDbXrecord
280
     1
102
RTVSPropertyOp0
 70
     1
102
RTVSPropertyOp1
 70
     1
102
RTVSPropertyOp2
 70
     1
102
RTVSPropertyOp3
 70
     1
102
RTVSPropertyOp4
 70
     1
102
RTVSPropertyOp5
 70
     1
102
RTVSPropertyOp6
 70
     1
102
RTVSPropertyOp7
 70
     1
102
RTVSPropertyOp8
 70
     1
102
RTVSPropertyOp9
 70
     1
102
RTVSPropertyOp10
 70
     1
102
RTVSPropertyOp11
 70
     1
102
RTVSPropertyOp12
 70
     1
102
RTVSPropertyOp13
 70
     1
102
RTVSPropertyOp14
 70
     1
102
RTVSPropertyOp15
 70
     1
102
RTVSPropertyOp16
 70
     1
102
RTVSPropertyOp17
 70
     1
102
RTVSPropertyOp18
 70
     1
102
RTVSPropertyOp19
 70
     1
102
RTVSPropertyOp20
 70
     1
102
RTVSPropertyOp21
 70
     1
102
RTVSPropertyOp22
 70
     1
102
RTVSPropertyOp23
 70
     1
102
RTVSPropertyOp24
 70
     1
102
RTVSPropertyOp25
 70
     1
102
RTVSPropertyOp26
 70
     1
102
RTVSPropertyOp27
 70
     1
  0
XRECORD
  5
364
102
{ACAD_REACTORS
330
363
102
}
330
363
100
AcDbXrecord
280
     1
102
RTVSPropertyOp0
 70
     1
102
RTVSPropertyOp1
 70
     1
102
RTVSPropertyOp2
 70
     1
102
RTVSPropertyOp3
 70
     1
102
RTVSPropertyOp4
 70
     1
102
RTVSPropertyOp5
 70
     1
102
RTVSPropertyOp6
 70
     1
102
RTVSPropertyOp7
 70
     1
102
RTVSPropertyOp8
 70
     1
102
RTVSPropertyOp9
 70
     1
102
RTVSPropertyOp10
 70
     1
102
RTVSPropertyOp11
 70
     1
102
RTVSPropertyOp12
 70
     1
102
RTVSPropertyOp13
 70
     1
102
RTVSPropertyOp14
 70
     1
102
RTVSPropertyOp15
 70
     1
102
RTVSPropertyOp16
 70
     1
102
RTVSPropertyOp17
 70
     1
102
RTVSPropertyOp18
 70
     1
102
RTVSPropertyOp19
 70
     1
102
RTVSPropertyOp20
 70
     1
102
RTVSPropertyOp21
 70
     1
102
RTVSPropertyOp22
 70
     1
102
RTVSPropertyOp23
 70
     1
102
RTVSPropertyOp24
 70
     1
102
RTVSPropertyOp25
 70
     1
102
RTVSPropertyOp26
 70
     1
102
RTVSPropertyOp27
 70
     1
  0
XRECORD
  5
358
102
{ACAD_REACTORS
330
357
102
}
330
357
100
AcDbXrecord
280
     1
102
RTVSPropertyOp0
 70
     1
102
RTVSPropertyOp1
 70
     1
102
RTVSPropertyOp2
 70
     1
102
RTVSPropertyOp3
 70
     1
102
RTVSPropertyOp4
 70
     1
102
RTVSPropertyOp5
 70
     1
102
RTVSPropertyOp6
 70
     1
102
RTVSPropertyOp7
 70
     1
102
RTVSPropertyOp8
 70
     1
102
RTVSPropertyOp9
 70
     1
102
RTVSPropertyOp10
 70
     1
102
RTVSPropertyOp11
 70
     1
102
RTVSPropertyOp12
 70
     1
102
RTVSPropertyOp13
 70
     1
102
RTVSPropertyOp14
 70
     1
102
RTVSPropertyOp15
 70
     1
102
RTVSPropertyOp16
 70
     1
102
RTVSPropertyOp17
 70
     1
102
RTVSPropertyOp18
 70
     1
102
RTVSPropertyOp19
 70
     1
102
RTVSPropertyOp20
 70
     1
102
RTVSPropertyOp21
 70
     1
102
RTVSPropertyOp22
 70
     1
102
RTVSPropertyOp23
 70
     1
102
RTVSPropertyOp24
 70
     1
102
RTVSPropertyOp25
 70
     1
102
RTVSPropertyOp26
 70
     1
102
RTVSPropertyOp27
 70
     1
  0
XRECORD
  5
35A
102
{ACAD_REACTORS
330
359
102
}
330
359
100
AcDbXrecord
280
     1
102
RTVSPropertyOp0
 70
     1
102
RTVSPropertyOp1
 70
     1
102
RTVSPropertyOp2
 70
     1
102
RTVSPropertyOp3
 70
     1
102
RTVSPropertyOp4
 70
     1
102
RTVSPropertyOp5
 70
     1
102
RTVSPropertyOp6
 70
     1
102
RTVSPropertyOp7
 70
     1
102
RTVSPropertyOp8
 70
     1
102
RTVSPropertyOp9
 70
     1
102
RTVSPropertyOp10
 70
     1
102
RTVSPropertyOp11
 70
     1
102
RTVSPropertyOp12
 70
     1
102
RTVSPropertyOp13
 70
     1
102
RTVSPropertyOp14
 70
     1
102
RTVSPropertyOp15
 70
     1
102
RTVSPropertyOp16
 70
     1
102
RTVSPropertyOp17
 70
     1
102
RTVSPropertyOp18
 70
     1
102
RTVSPropertyOp19
 70
     1
102
RTVSPropertyOp20
 70
     1
102
RTVSPropertyOp21
 70
     1
102
RTVSPropertyOp22
 70
     1
102
RTVSPropertyOp23
 70
     1
102
RTVSPropertyOp24
 70
     1
102
RTVSPropertyOp25
 70
     1
102
RTVSPropertyOp26
 70
     1
102
RTVSPropertyOp27
 70
     1
  0
XRECORD
  5
362
102
{ACAD_REACTORS
330
361
102
}
330
361
100
AcDbXrecord
280
     1
102
RTVSPropertyOp0
 70
     1
102
RTVSPropertyOp1
 70
     1
102
RTVSPropertyOp2
 70
     1
102
RTVSPropertyOp3
 70
     1
102
RTVSPropertyOp4
 70
     1
102
RTVSPropertyOp5
 70
     1
102
RTVSPropertyOp6
 70
     1
102
RTVSPropertyOp7
 70
     1
102
RTVSPropertyOp8
 70
     1
102
RTVSPropertyOp9
 70
     1
102
RTVSPropertyOp10
 70
     1
102
RTVSPropertyOp11
 70
     1
102
RTVSPropertyOp12
 70
     1
102
RTVSPropertyOp13
 70
     1
102
RTVSPropertyOp14
 70
     1
102
RTVSPropertyOp15
 70
     1
102
RTVSPropertyOp16
 70
     1
102
RTVSPropertyOp17
 70
     1
102
RTVSPropertyOp18
 70
     1
102
RTVSPropertyOp19
 70
     1
102
RTVSPropertyOp20
 70
     1
102
RTVSPropertyOp21
 70
     1
102
RTVSPropertyOp22
 70
     1
102
RTVSPropertyOp23
 70
     1
102
RTVSPropertyOp24
 70
     1
102
RTVSPropertyOp25
 70
     1
102
RTVSPropertyOp26
 70
     1
102
RTVSPropertyOp27
 70
     1
  0
XRECORD
  5
346
102
{ACAD_REACTORS
330
345
102
}
330
345
100
AcDbXrecord
280
     1
102
RTVSPropertyOp0
 70
     1
102
RTVSPropertyOp1
 70
     1
102
RTVSPropertyOp2
 70
     1
102
RTVSPropertyOp3
 70
     1
102
RTVSPropertyOp4
 70
     1
102
RTVSPropertyOp5
 70
     1
102
RTVSPropertyOp6
 70
     1
102
RTVSPropertyOp7
 70
     1
102
RTVSPropertyOp8
 70
     1
102
RTVSPropertyOp9
 70
     1
102
RTVSPropertyOp10
 70
     1
102
RTVSPropertyOp11
 70
     1
102
RTVSPropertyOp12
 70
     1
102
RTVSPropertyOp13
 70
     1
102
RTVSPropertyOp14
 70
     1
102
RTVSPropertyOp15
 70
     1
102
RTVSPropertyOp16
 70
     1
102
RTVSPropertyOp17
 70
     1
102
RTVSPropertyOp18
 70
     1
102
RTVSPropertyOp19
 70
     1
102
RTVSPropertyOp20
 70
     1
102
RTVSPropertyOp21
 70
     1
102
RTVSPropertyOp22
 70
     1
102
RTVSPropertyOp23
 70
     1
102
RTVSPropertyOp24
 70
     1
102
RTVSPropertyOp25
 70
     1
102
RTVSPropertyOp26
 70
     1
102
RTVSPropertyOp27
 70
     1
  0
XRECORD
  5
348
102
{ACAD_REACTORS
330
347
102
}
330
347
100
AcDbXrecord
280
     1
102
RTVSPropertyOp0
 70
     1
102
RTVSPropertyOp1
 70
     1
102
RTVSPropertyOp2
 70
     1
102
RTVSPropertyOp3
 70
     1
102
RTVSPropertyOp4
 70
     1
102
RTVSPropertyOp5
 70
     1
102
RTVSPropertyOp6
 70
     1
102
RTVSPropertyOp7
 70
     1
102
RTVSPropertyOp8
 70
     1
102
RTVSPropertyOp9
 70
     1
102
RTVSPropertyOp10
 70
     1
102
RTVSPropertyOp11
 70
     1
102
RTVSPropertyOp12
 70
     1
102
RTVSPropertyOp13
 70
     1
102
RTVSPropertyOp14
 70
     1
102
RTVSPropertyOp15
 70
     1
102
RTVSPropertyOp16
 70
     1
102
RTVSPropertyOp17
 70
     1
102
RTVSPropertyOp18
 70
     1
102
RTVSPropertyOp19
 70
     1
102
RTVSPropertyOp20
 70
     1
102
RTVSPropertyOp21
 70
     1
102
RTVSPropertyOp22
 70
     1
102
RTVSPropertyOp23
 70
     1
102
RTVSPropertyOp24
 70
     1
102
RTVSPropertyOp25
 70
     1
102
RTVSPropertyOp26
 70
     1
102
RTVSPropertyOp27
 70
     1
  0
XRECORD
  5
34A
102
{ACAD_REACTORS
330
349
102
}
330
349
100
AcDbXrecord
280
     1
102
RTVSPropertyOp0
 70
     1
102
RTVSPropertyOp1
 70
     1
102
RTVSPropertyOp2
 70
     1
102
RTVSPropertyOp3
 70
     1
102
RTVSPropertyOp4
 70
     1
102
RTVSPropertyOp5
 70
     1
102
RTVSPropertyOp6
 70
     1
102
RTVSPropertyOp7
 70
     1
102
RTVSPropertyOp8
 70
     1
102
RTVSPropertyOp9
 70
     1
102
RTVSPropertyOp10
 70
     1
102
RTVSPropertyOp11
 70
     1
102
RTVSPropertyOp12
 70
     1
102
RTVSPropertyOp13
 70
     1
102
RTVSPropertyOp14
 70
     1
102
RTVSPropertyOp15
 70
     1
102
RTVSPropertyOp16
 70
     1
102
RTVSPropertyOp17
 70
     1
102
RTVSPropertyOp18
 70
     1
102
RTVSPropertyOp19
 70
     1
102
RTVSPropertyOp20
 70
     1
102
RTVSPropertyOp21
 70
     1
102
RTVSPropertyOp22
 70
     1
102
RTVSPropertyOp23
 70
     1
102
RTVSPropertyOp24
 70
     1
102
RTVSPropertyOp25
 70
     1
102
RTVSPropertyOp26
 70
     1
102
RTVSPropertyOp27
 70
     1
  0
XRECORD
  5
34C
102
{ACAD_REACTORS
330
34B
102
}
330
34B
100
AcDbXrecord
280
     1
102
RTVSPropertyOp0
 70
     1
102
RTVSPropertyOp1
 70
     1
102
RTVSPropertyOp2
 70
     1
102
RTVSPropertyOp3
 70
     1
102
RTVSPropertyOp4
 70
     1
102
RTVSPropertyOp5
 70
     1
102
RTVSPropertyOp6
 70
     1
102
RTVSPropertyOp7
 70
     1
102
RTVSPropertyOp8
 70
     1
102
RTVSPropertyOp9
 70
     1
102
RTVSPropertyOp10
 70
     1
102
RTVSPropertyOp11
 70
     1
102
RTVSPropertyOp12
 70
     1
102
RTVSPropertyOp13
 70
     1
102
RTVSPropertyOp14
 70
     1
102
RTVSPropertyOp15
 70
     1
102
RTVSPropertyOp16
 70
     1
102
RTVSPropertyOp17
 70
     1
102
RTVSPropertyOp18
 70
     1
102
RTVSPropertyOp19
 70
     1
102
RTVSPropertyOp20
 70
     1
102
RTVSPropertyOp21
 70
     1
102
RTVSPropertyOp22
 70
     1
102
RTVSPropertyOp23
 70
     1
102
RTVSPropertyOp24
 70
     1
102
RTVSPropertyOp25
 70
     1
102
RTVSPropertyOp26
 70
     1
102
RTVSPropertyOp27
 70
     1
  0
XRECORD
  5
360
102
{ACAD_REACTORS
330
35F
102
}
330
35F
100
AcDbXrecord
280
     1
102
RTVSPropertyOp0
 70
     1
102
RTVSPropertyOp1
 70
     1
102
RTVSPropertyOp2
 70
     1
102
RTVSPropertyOp3
 70
     1
102
RTVSPropertyOp4
 70
     1
102
RTVSPropertyOp5
 70
     1
102
RTVSPropertyOp6
 70
     1
102
RTVSPropertyOp7
 70
     1
102
RTVSPropertyOp8
 70
     1
102
RTVSPropertyOp9
 70
     1
102
RTVSPropertyOp10
 70
     1
102
RTVSPropertyOp11
 70
     1
102
RTVSPropertyOp12
 70
     1
102
RTVSPropertyOp13
 70
     1
102
RTVSPropertyOp14
 70
     1
102
RTVSPropertyOp15
 70
     1
102
RTVSPropertyOp16
 70
     1
102
RTVSPropertyOp17
 70
     1
102
RTVSPropertyOp18
 70
     1
102
RTVSPropertyOp19
 70
     1
102
RTVSPropertyOp20
 70
     1
102
RTVSPropertyOp21
 70
     1
102
RTVSPropertyOp22
 70
     1
102
RTVSPropertyOp23
 70
     1
102
RTVSPropertyOp24
 70
     1
102
RTVSPropertyOp25
 70
     1
102
RTVSPropertyOp26
 70
     1
102
RTVSPropertyOp27
 70
     1
  0
XRECORD
  5
356
102
{ACAD_REACTORS
330
355
102
}
330
355
100
AcDbXrecord
280
     1
102
RTVSPropertyOp0
 70
     1
102
RTVSPropertyOp1
 70
     1
102
RTVSPropertyOp2
 70
     1
102
RTVSPropertyOp3
 70
     1
102
RTVSPropertyOp4
 70
     1
102
RTVSPropertyOp5
 70
     1
102
RTVSPropertyOp6
 70
     1
102
RTVSPropertyOp7
 70
     1
102
RTVSPropertyOp8
 70
     1
102
RTVSPropertyOp9
 70
     1
102
RTVSPropertyOp10
 70
     1
102
RTVSPropertyOp11
 70
     1
102
RTVSPropertyOp12
 70
     1
102
RTVSPropertyOp13
 70
     1
102
RTVSPropertyOp14
 70
     1
102
RTVSPropertyOp15
 70
     1
102
RTVSPropertyOp16
 70
     1
102
RTVSPropertyOp17
 70
     1
102
RTVSPropertyOp18
 70
     1
102
RTVSPropertyOp19
 70
     1
102
RTVSPropertyOp20
 70
     1
102
RTVSPropertyOp21
 70
     1
102
RTVSPropertyOp22
 70
     1
102
RTVSPropertyOp23
 70
     1
102
RTVSPropertyOp24
 70
     1
102
RTVSPropertyOp25
 70
     1
102
RTVSPropertyOp26
 70
     1
102
RTVSPropertyOp27
 70
     1
  0
XRECORD
  5
35E
102
{ACAD_REACTORS
330
35D
102
}
330
35D
100
AcDbXrecord
280
     1
102
RTVSPropertyOp0
 70
     1
102
RTVSPropertyOp1
 70
     1
102
RTVSPropertyOp2
 70
     1
102
RTVSPropertyOp3
 70
     1
102
RTVSPropertyOp4
 70
     1
102
RTVSPropertyOp5
 70
     1
102
RTVSPropertyOp6
 70
     1
102
RTVSPropertyOp7
 70
     1
102
RTVSPropertyOp8
 70
     1
102
RTVSPropertyOp9
 70
     1
102
RTVSPropertyOp10
 70
     1
102
RTVSPropertyOp11
 70
     1
102
RTVSPropertyOp12
 70
     1
102
RTVSPropertyOp13
 70
     1
102
RTVSPropertyOp14
 70
     1
102
RTVSPropertyOp15
 70
     1
102
RTVSPropertyOp16
 70
     1
102
RTVSPropertyOp17
 70
     1
102
RTVSPropertyOp18
 70
     1
102
RTVSPropertyOp19
 70
     1
102
RTVSPropertyOp20
 70
     1
102
RTVSPropertyOp21
 70
     1
102
RTVSPropertyOp22
 70
     1
102
RTVSPropertyOp23
 70
     1
102
RTVSPropertyOp24
 70
     1
102
RTVSPropertyOp25
 70
     1
102
RTVSPropertyOp26
 70
     1
102
RTVSPropertyOp27
 70
     1
  0
ENDSEC
  0
EOF
